Select movie Search movie Close search My Account

G.I. Joe: Retaliation 4K 2013 Ultra HD 2160p

G.I. Joe: Retaliation 4K 2013 Ultra HD 2160p
BDRemux / BDRip
Country: USA / Thrillers 4K
Time: 1h 50min
IMDB: 5.8
Director: Jon M. Chu
Actors: Dwayne Johnson, Jonathan Pryce, Byung-Hun Lee, Elodie Yung, Ray Stevenson, D.J. Cotrona, Adrianne Palicki, Channing Tatum, Ray Park, Luke Bracey, Walton Goggins, Arnold Vosloo, Joseph Mazzello, Nick Erickson

Story Movie

G.I. Joe: Retaliation 4K 2013 Ultra HD 2160p
In the second part of the film G.I. Joe: Retaliation 4K military detachment G.I. Joe continues to struggle against new challenges and threats to humanity. Many of the old team simply did not survive. And those who survived enter a new skirmish with the government. The president of the most powerful US country is not as clean as it seems. He is a dangerous criminal and leader of a terrorist group, the end of which the military command G.I. Joe. And General Dzesef Colton begins to direct the operation against the cobra.

Review 4K Movie

I will say at once - how many do not revise the same movie, the opinion of him will not change. So after the first viewing of the Cobra Throw in 2009, I decided that the film was at least spectacular, but uninteresting and unrealistic. And now, after 4 years on the big screens there is a continuation of the sensational blockbuster, which forced itself to wait fairly. It took six months for the creators to change the format of the picture to three-dimensional and perhaps yes, the game was worth the candle.

But is it? Yes, at first glance everything seems to be spectacular and cool, but it's only at first glance. And if you look at the picture more closely, we will see that this is just a dull shooter of the Call of duty type, only transferred to large screens and converted into 3D format. In general, "G.I. Joe: Retaliation" 4k is more like not a movie, but a computer game. And why, you ask, I did not have such an impression after the first film? Yes, because the original film was cool stylized and punctuated with all sorts of cool things and gadgets. In the sequel, of course, not without them, but the point is that in the first film, much attention was paid to the heroes, the combat squad itself, the specificity of G.I. Joe, their means and methods. And the second film was just a banal sequel, without unnecessary emotions, dramas, experiences and intrigues. What the picture is clearly not enough.

The creators did not just introduce a whole bunch of new characters in one fell swoop, they managed to replace them with almost all the old ones. So it turned out that people wanted to see the familiar characters in a worthy continuation, but they saw who and what is not clear that they completely forgot other characters. Finally, the appearance of Duane Johnson, so wooden and banal, that he and the actor is hard to name, finally got out of him - in every film he is absolutely the same and does not want to show anything new at all. But who is completely unnecessary here is the hero D. Kotron, who for the whole film of rocks only a couple of three sentences, but nevertheless is one of the "main" heroes. A little brightened the cast of Adrianne Paliki, which, as correctly noted the hero of Cotron "looks great in a red dress." But most of all I was amused by the fact that the creators somehow guessed to release it painted on the platform, when they shot fighting scenes in the desert. Agree that the image of the model clearly does not fit in with the image of a soldier girl. In general, actors with grief have coped with their roles in half, but again, all this is strictly strained - to play in such a film is especially that and there is nothing and no skill is required here.

But it can not be all bad if the movie has a character like Snake Eyes. This is, perhaps, the only hero who is interesting to see. Maybe it's all about his mystique, maybe in his steep suit, but he definitely grabs attention and makes the viewer really worry for him. Special thanks to the creators behind the scene of the abduction of Storm Shadow and cool special effects in it - such dashing flights on the cables over the abyss I have not yet seen. In short, the line of two warring ninjas pulls out the entire film and causes at least some interest. Thanks to these two characters, the film was saved from a complete failure.

So what we have is an almost complete absence of familiar heroes, a weak acting game, a complete lack of stylization from the first film. But we also have Snake Isa (the only cool hero), a fairly strong action, and very relevant 3D - everything flew in the face that could only fly, the creators did not waste that much time changing the format.

I was going to "G.I. Joe: Retaliation" 4k uhd full movies download just to understand what all the same thing will end. Well, I was tempted by the scene with Snake Isa in the mountains (fortunately, she surpassed all expectations). As a result, it turned out that the case is not over yet and I would not have waited for 3 films now, but for the intrigue with the character of Channing Tatum. And so it is necessary to go to the 3rd film to finally put all the points over i. In short, in the end, I will say - if you watched the first film and you are wondering what will happen next with some characters, then be sure to go to the sequel. If you have not watched the first film, then do not waste money - you still will not understand anything, because the two parts are strongly connected by a single storyline. And at the very end I will say - Bravo Snake Aizu and bravo chic 3D. But not more. I will hope for a miracle and wait for a good third film. In the meantime, G.I. Joe: Retaliation
UHD deserves only 5 out of 10.

Mediainfo

movie BDRemux Video #1
ID : 1
Format : HEVC
Format/Info : High Efficiency Video Coding
Commercial name : HDR10
Format profile : Main 10@L5.1@High
Codec ID : V_MPEGH/ISO/HEVC
Duration : 1 h 50 min
Bit rate : 53.2 Mb/s
Width : 3 840 pixels
Height : 2 160 pixels
Display aspect ratio : 16:9
Frame rate mode : Constant
Frame rate : 23.976 (24000/1001) FPS
Color space : YUV
Chroma subsampling : 4:2:0 (Type 2)
Bit depth : 10 bits
Bits/(Pixel*Frame) : 0.267
Stream size : 41.0 GiB (75%)
Title : G.I.Joe.Retaliation.2013.2160p.BluRay.REMUX.HEVC.TrueHD.7.1
Default : Yes
Forced : No
Color range : Limited
Color primaries : BT.2020
Transfer characteristics : PQ
Matrix coefficients : BT.2020 non-constant
Mastering display color primaries : Display P3
Mastering display luminance : min: 0.0001 cd/m2, max: 1000 cd/m2

Video #2
ID : 2
Format : HEVC
Format/Info : High Efficiency Video Coding
Commercial name : HDR10
Format profile : Main 10@L5.1@High
Codec ID : V_MPEGH/ISO/HEVC
Duration : 1 h 50 min
Bit rate : 5 992 kb/s
Width : 1 920 pixels
Height : 1 080 pixels
Display aspect ratio : 16:9
Frame rate mode : Constant
Frame rate : 23.976 (24000/1001) FPS
Color space : YUV
Chroma subsampling : 4:2:0 (Type 2)
Bit depth : 10 bits
Bits/(Pixel*Frame) : 0.121
Stream size : 4.61 GiB (8%)
Title : G.I.Joe.Retaliation.2013.2160p.BluRay.REMUX.HEVC.TrueHD.7.1
Default : No
Forced : No
Color range : Limited
Color primaries : BT.2020
Transfer characteristics : PQ
Matrix coefficients : BT.2020 non-constant
Mastering display color primaries : Display P3
Mastering display luminance : min: 0.0001 cd/m2, max: 1000 cd/m2

Audio #1
ID : 3
Format : TrueHD
Codec ID : A_TRUEHD
Duration : 1 h 50 min
Bit rate mode : Variable
Bit rate : 4 420 kb/s
Maximum bit rate : 6 204 kb/s
Channel(s) : 8 channels
Channel positions : Front: L C R, Side: L R, Back: L R, LFE
Sampling rate : 48.0 kHz
Frame rate : 1 200.000 FPS (40 SPF)
Compression mode : Lossless
Stream size : 3.40 GiB (6%)
Title : G.I.Joe.Retaliation.2013.2160p.BluRay.REMUX.HEVC.TrueHD.7.1
Language : English
Default : Yes
Forced : No

Audio #2
ID : 4
Format : AC-3
Format/Info : Audio Coding 3
Codec ID : A_AC3
Duration : 1 h 50 min
Bit rate mode : Constant
Bit rate : 640 kb/s
Channel(s) : 6 channels
Channel positions : Front: L C R, Side: L R, LFE
Sampling rate : 48.0 kHz
Frame rate : 31.250 FPS (1536 SPF)
Bit depth : 16 bits
Compression mode : Lossy
Stream size : 505 MiB (1%)
Title : G.I.Joe.Retaliation.2013.2160p.BluRay.REMUX.HEVC.TrueHD.7.1
Language : English
Service kind : Complete Main
Default : No
Forced : No

Audio #3
ID : 5
Format : AC-3
Format/Info : Audio Coding 3
Codec ID : A_AC3
Duration : 1 h 50 min
Bit rate mode : Constant
Bit rate : 640 kb/s
Channel(s) : 6 channels
Channel positions : Front: L C R, Side: L R, LFE
Sampling rate : 48.0 kHz
Frame rate : 31.250 FPS (1536 SPF)
Bit depth : 16 bits
Compression mode : Lossy
Stream size : 505 MiB (1%)
Title : G.I.Joe.Retaliation.2013.2160p.BluRay.REMUX.HEVC.TrueHD.7.1
Language : English
Service kind : Complete Main
Default : No
Forced : No

Audio #4
ID : 6
Format : AC-3
Format/Info : Audio Coding 3
Codec ID : A_AC3
Duration : 1 h 50 min
Bit rate mode : Constant
Bit rate : 640 kb/s
Channel(s) : 6 channels
Channel positions : Front: L C R, Side: L R, LFE
Sampling rate : 48.0 kHz
Frame rate : 31.250 FPS (1536 SPF)
Bit depth : 16 bits
Compression mode : Lossy
Stream size : 505 MiB (1%)
Title : G.I.Joe.Retaliation.2013.2160p.BluRay.REMUX.HEVC.TrueHD.7.1
Language : German
Service kind : Complete Main
Default : No
Forced : No

Audio #5
ID : 7
Format : AC-3
Format/Info : Audio Coding 3
Codec ID : A_AC3
Duration : 1 h 50 min
Bit rate mode : Constant
Bit rate : 640 kb/s
Channel(s) : 6 channels
Channel positions : Front: L C R, Side: L R, LFE
Sampling rate : 48.0 kHz
Frame rate : 31.250 FPS (1536 SPF)
Bit depth : 16 bits
Compression mode : Lossy
Stream size : 505 MiB (1%)
Title : G.I.Joe.Retaliation.2013.2160p.BluRay.REMUX.HEVC.TrueHD.7.1
Language : Spanish
Service kind : Complete Main
Default : No
Forced : No

Audio #6
ID : 8
Format : AC-3
Format/Info : Audio Coding 3
Codec ID : A_AC3
Duration : 1 h 50 min
Bit rate mode : Constant
Bit rate : 640 kb/s
Channel(s) : 6 channels
Channel positions : Front: L C R, Side: L R, LFE
Sampling rate : 48.0 kHz
Frame rate : 31.250 FPS (1536 SPF)
Bit depth : 16 bits
Compression mode : Lossy
Stream size : 505 MiB (1%)
Title : G.I.Joe.Retaliation.2013.2160p.BluRay.REMUX.HEVC.TrueHD.7.1
Language : Spanish
Service kind : Complete Main
Default : No
Forced : No

Audio #7
ID : 9
Format : AC-3
Format/Info : Audio Coding 3
Codec ID : A_AC3
Duration : 1 h 50 min
Bit rate mode : Constant
Bit rate : 640 kb/s
Channel(s) : 6 channels
Channel positions : Front: L C R, Side: L R, LFE
Sampling rate : 48.0 kHz
Frame rate : 31.250 FPS (1536 SPF)
Bit depth : 16 bits
Compression mode : Lossy
Stream size : 505 MiB (1%)
Title : G.I.Joe.Retaliation.2013.2160p.BluRay.REMUX.HEVC.TrueHD.7.1
Language : French
Service kind : Complete Main
Default : No
Forced : No

Audio #8
ID : 10
Format : AC-3
Format/Info : Audio Coding 3
Codec ID : A_AC3
Duration : 1 h 50 min
Bit rate mode : Constant
Bit rate : 640 kb/s
Channel(s) : 6 channels
Channel positions : Front: L C R, Side: L R, LFE
Sampling rate : 48.0 kHz
Frame rate : 31.250 FPS (1536 SPF)
Bit depth : 16 bits
Compression mode : Lossy
Stream size : 505 MiB (1%)
Title : G.I.Joe.Retaliation.2013.2160p.BluRay.REMUX.HEVC.TrueHD.7.1
Language : French
Service kind : Complete Main
Default : No
Forced : No

Audio #9
ID : 11
Format : AC-3
Format/Info : Audio Coding 3
Codec ID : A_AC3
Duration : 1 h 50 min
Bit rate mode : Constant
Bit rate : 640 kb/s
Channel(s) : 6 channels
Channel positions : Front: L C R, Side: L R, LFE
Sampling rate : 48.0 kHz
Frame rate : 31.250 FPS (1536 SPF)
Bit depth : 16 bits
Compression mode : Lossy
Stream size : 505 MiB (1%)
Title : G.I.Joe.Retaliation.2013.2160p.BluRay.REMUX.HEVC.TrueHD.7.1
Language : Italian
Service kind : Complete Main
Default : No
Forced : No

Audio #10
ID : 12
Format : AC-3
Format/Info : Audio Coding 3
Codec ID : A_AC3
Duration : 1 h 50 min
Bit rate mode : Constant
Bit rate : 640 kb/s
Channel(s) : 6 channels
Channel positions : Front: L C R, Side: L R, LFE
Sampling rate : 48.0 kHz
Frame rate : 31.250 FPS (1536 SPF)
Bit depth : 16 bits
Compression mode : Lossy
Stream size : 505 MiB (1%)
Title : G.I.Joe.Retaliation.2013.2160p.BluRay.REMUX.HEVC.TrueHD.7.1
Language : Japanese
Service kind : Complete Main
Default : No
Forced : No

Audio #11
ID : 13
Format : AC-3
Format/Info : Audio Coding 3
Codec ID : A_AC3
Duration : 1 h 50 min
Bit rate mode : Constant
Bit rate : 640 kb/s
Channel(s) : 6 channels
Channel positions : Front: L C R, Side: L R, LFE
Sampling rate : 48.0 kHz
Frame rate : 31.250 FPS (1536 SPF)
Bit depth : 16 bits
Compression mode : Lossy
Stream size : 505 MiB (1%)
Title : G.I.Joe.Retaliation.2013.2160p.BluRay.REMUX.HEVC.TrueHD.7.1
Language : Portuguese
Service kind : Complete Main
Default : No
Forced : No

Audio #12
ID : 14
Format : AC-3
Format/Info : Audio Coding 3
Codec ID : A_AC3
Duration : 1 h 50 min
Bit rate mode : Constant
Bit rate : 640 kb/s
Channel(s) : 6 channels
Channel positions : Front: L C R, Side: L R, LFE
Sampling rate : 48.0 kHz
Frame rate : 31.250 FPS (1536 SPF)
Bit depth : 16 bits
Compression mode : Lossy
Stream size : 505 MiB (1%)
Title : G.I.Joe.Retaliation.2013.2160p.BluRay.REMUX.HEVC.TrueHD.7.1
Language : Russian
Service kind : Complete Main
Default : No
Forced : No

Audio #13
ID : 15
Format : AC-3
Format/Info : Audio Coding 3
Codec ID : A_AC3
Duration : 1 h 50 min
Bit rate mode : Constant
Bit rate : 224 kb/s
Channel(s) : 2 channels
Channel positions : Front: L R
Sampling rate : 48.0 kHz
Frame rate : 31.250 FPS (1536 SPF)
Bit depth : 16 bits
Compression mode : Lossy
Stream size : 177 MiB (0%)
Title : G.I.Joe.Retaliation.2013.2160p.BluRay.REMUX.HEVC.TrueHD.7.1
Language : English
Service kind : Complete Main
Default : No
Forced : No

Text #1
ID : 16
Format : PGS
Muxing mode : zlib
Codec ID : S_HDMV/PGS
Codec ID/Info : Picture based subtitle format used on BDs/HD-DVDs
Duration : 1 h 39 min
Bit rate : 29.0 kb/s
Count of elements : 2316
Stream size : 20.6 MiB (0%)
Title : English-PGS
Language : English
Default : Yes
Forced : No

Text #2
ID : 17
Format : PGS
Muxing mode : zlib
Codec ID : S_HDMV/PGS
Codec ID/Info : Picture based subtitle format used on BDs/HD-DVDs
Duration : 1 h 39 min
Bit rate : 33.8 kb/s
Count of elements : 2688
Stream size : 24.2 MiB (0%)
Title : English-SDH-PGS
Language : English
Default : No
Forced : No

Text #3
ID : 18
Format : PGS
Muxing mode : zlib
Codec ID : S_HDMV/PGS
Codec ID/Info : Picture based subtitle format used on BDs/HD-DVDs
Duration : 1 h 48 min
Bit rate : 17.5 kb/s
Count of elements : 2082
Stream size : 13.7 MiB (0%)
Title : Chinese-pGS
Language : Chinese
Default : No
Forced : No

Text #4
ID : 19
Format : PGS
Muxing mode : zlib
Codec ID : S_HDMV/PGS
Codec ID/Info : Picture based subtitle format used on BDs/HD-DVDs
Duration : 1 h 48 min
Bit rate : 23.2 kb/s
Count of elements : 1690
Stream size : 18.1 MiB (0%)
Title : Danish-PGS
Language : Danish
Default : No
Forced : No

Text #5
ID : 20
Format : PGS
Muxing mode : zlib
Codec ID : S_HDMV/PGS
Codec ID/Info : Picture based subtitle format used on BDs/HD-DVDs
Duration : 1 h 48 min
Bit rate : 29.4 kb/s
Count of elements : 2350
Stream size : 22.9 MiB (0%)
Title : German-PGS
Language : German
Default : No
Forced : No

Text #6
ID : 21
Format : PGS
Muxing mode : zlib
Codec ID : S_HDMV/PGS
Codec ID/Info : Picture based subtitle format used on BDs/HD-DVDs
Duration : 1 h 48 min
Bit rate : 26.7 kb/s
Count of elements : 2202
Stream size : 20.8 MiB (0%)
Title : Spanish-PGS
Language : Spanish
Default : No
Forced : No

Text #7
ID : 22
Format : PGS
Muxing mode : zlib
Codec ID : S_HDMV/PGS
Codec ID/Info : Picture based subtitle format used on BDs/HD-DVDs
Duration : 1 h 39 min
Bit rate : 26.3 kb/s
Count of elements : 2070
Stream size : 18.8 MiB (0%)
Title : Spanish-PGS
Language : Spanish
Default : No
Forced : No

Text #8
ID : 23
Format : PGS
Muxing mode : zlib
Codec ID : S_HDMV/PGS
Codec ID/Info : Picture based subtitle format used on BDs/HD-DVDs
Duration : 1 h 48 min
Bit rate : 22.1 kb/s
Count of elements : 2170
Stream size : 17.2 MiB (0%)
Title : French-PGS
Language : French
Default : No
Forced : No

Text #9
ID : 24
Format : PGS
Muxing mode : zlib
Codec ID : S_HDMV/PGS
Codec ID/Info : Picture based subtitle format used on BDs/HD-DVDs
Duration : 1 h 39 min
Bit rate : 29.9 kb/s
Count of elements : 2346
Stream size : 21.3 MiB (0%)
Title : French-PGS
Language : French
Default : No
Forced : No

Text #10
ID : 25
Format : PGS
Muxing mode : zlib
Codec ID : S_HDMV/PGS
Codec ID/Info : Picture based subtitle format used on BDs/HD-DVDs
Duration : 1 h 48 min
Bit rate : 24.7 kb/s
Count of elements : 2040
Stream size : 19.3 MiB (0%)
Title : Italian-PGS
Language : Italian
Default : No
Forced : No

Text #11
ID : 26
Format : PGS
Muxing mode : zlib
Codec ID : S_HDMV/PGS
Codec ID/Info : Picture based subtitle format used on BDs/HD-DVDs
Duration : 1 h 48 min
Bit rate : 20.4 kb/s
Count of elements : 2331
Stream size : 15.9 MiB (0%)
Title : Japanese-PGS
Language : Japanese
Default : No
Forced : No

Text #12
ID : 27
Format : PGS
Muxing mode : zlib
Codec ID : S_HDMV/PGS
Codec ID/Info : Picture based subtitle format used on BDs/HD-DVDs
Duration : 1 h 48 min
Bit rate : 15.3 kb/s
Count of elements : 2080
Stream size : 11.9 MiB (0%)
Title : Korean-PGS
Language : Korean
Default : No
Forced : No

Text #13
ID : 28
Format : PGS
Muxing mode : zlib
Codec ID : S_HDMV/PGS
Codec ID/Info : Picture based subtitle format used on BDs/HD-DVDs
Duration : 1 h 48 min
Bit rate : 19.3 kb/s
Count of elements : 2176
Stream size : 15.0 MiB (0%)
Title : Chinese-PGS
Language : Chinese
Default : No
Forced : No

Text #14
ID : 29
Format : PGS
Muxing mode : zlib
Codec ID : S_HDMV/PGS
Codec ID/Info : Picture based subtitle format used on BDs/HD-DVDs
Duration : 1 h 48 min
Bit rate : 23.3 kb/s
Count of elements : 1662
Stream size : 18.1 MiB (0%)
Title : Dutch-PGS
Language : Dutch
Default : No
Forced : No

Text #15
ID : 30
Format : PGS
Muxing mode : zlib
Codec ID : S_HDMV/PGS
Codec ID/Info : Picture based subtitle format used on BDs/HD-DVDs
Duration : 1 h 48 min
Bit rate : 23.6 kb/s
Count of elements : 2074
Stream size : 18.4 MiB (0%)
Title : Norwegian-PGS
Language : Norwegian
Default : No
Forced : No

Text #16
ID : 31
Format : PGS
Muxing mode : zlib
Codec ID : S_HDMV/PGS
Codec ID/Info : Picture based subtitle format used on BDs/HD-DVDs
Duration : 1 h 39 min
Bit rate : 25.9 kb/s
Count of elements : 2080
Stream size : 18.5 MiB (0%)
Title : Portuguese-PGS
Language : Portuguese
Default : No
Forced : No

Text #17
ID : 32
Format : PGS
Muxing mode : zlib
Codec ID : S_HDMV/PGS
Codec ID/Info : Picture based subtitle format used on BDs/HD-DVDs
Duration : 1 h 48 min
Bit rate : 24.4 kb/s
Count of elements : 2080
Stream size : 19.0 MiB (0%)
Title : Russian-PGS
Language : Russian
Default : No
Forced : No

Text #18
ID : 33
Format : PGS
Muxing mode : zlib
Codec ID : S_HDMV/PGS
Codec ID/Info : Picture based subtitle format used on BDs/HD-DVDs
Duration : 1 h 48 min
Bit rate : 20.0 kb/s
Count of elements : 2354
Stream size : 15.6 MiB (0%)
Title : Chinese-PGS
Language : Chinese
Default : No
Forced : No

Text #19
ID : 34
Format : PGS
Muxing mode : zlib
Codec ID : S_HDMV/PGS
Codec ID/Info : Picture based subtitle format used on BDs/HD-DVDs
Duration : 1 h 48 min
Bit rate : 25.5 kb/s
Count of elements : 2340
Stream size : 19.9 MiB (0%)
Title : Finnish-PGS
Language : Finnish
Default : No
Forced : No

Text #20
ID : 35
Format : PGS
Muxing mode : zlib
Codec ID : S_HDMV/PGS
Codec ID/Info : Picture based subtitle format used on BDs/HD-DVDs
Duration : 1 h 48 min
Bit rate : 23.9 kb/s
Count of elements : 2056
Stream size : 18.6 MiB (0%)
Title : Swedish-PGS
Language : Swedish
Default : No
Forced : No

Text #21
ID : 36
Format : PGS
Muxing mode : zlib
Codec ID : S_HDMV/PGS
Codec ID/Info : Picture based subtitle format used on BDs/HD-DVDs
Duration : 1 h 48 min
Bit rate : 19.4 kb/s
Count of elements : 2082
Stream size : 15.1 MiB (0%)
Title : Thai-PGS
Language : Thai
Default : No
Forced : No

Text #22
ID : 37
Format : PGS
Muxing mode : zlib
Codec ID : S_HDMV/PGS
Codec ID/Info : Picture based subtitle format used on BDs/HD-DVDs
Duration : 1 h 43 min
Bit rate : 69.1 kb/s
Count of elements : 3906
Stream size : 51.4 MiB (0%)
Title : English-COMMENTARY-PGS
Language : English
Default : No
Forced : No

Text #23
ID : 38
Format : PGS
Muxing mode : zlib
Codec ID : S_HDMV/PGS
Codec ID/Info : Picture based subtitle format used on BDs/HD-DVDs
Duration : 1 h 50 min
Bit rate : 61.5 kb/s
Count of elements : 3830
Stream size : 48.4 MiB (0%)
Title : German-COMMENTARY-PGS
Language : German
Default : No
Forced : No

Text #24
ID : 39
Format : PGS
Muxing mode : zlib
Codec ID : S_HDMV/PGS
Codec ID/Info : Picture based subtitle format used on BDs/HD-DVDs
Duration : 1 h 50 min
Bit rate : 59.1 kb/s
Count of elements : 3830
Stream size : 46.5 MiB (0%)
Title : Spanish-COMMENTARY-PGS
Language : Spanish
Default : No
Forced : No

Text #25
ID : 40
Format : PGS
Muxing mode : zlib
Codec ID : S_HDMV/PGS
Codec ID/Info : Picture based subtitle format used on BDs/HD-DVDs
Duration : 1 h 50 min
Bit rate : 66.1 kb/s
Count of elements : 3904
Stream size : 52.1 MiB (0%)
Title : Spanish-COMMENTARY-PGS
Language : Spanish
Default : No
Forced : No

Text #26
ID : 41
Format : PGS
Muxing mode : zlib
Codec ID : S_HDMV/PGS
Codec ID/Info : Picture based subtitle format used on BDs/HD-DVDs
Duration : 1 h 50 min
Bit rate : 52.7 kb/s
Count of elements : 3830
Stream size : 41.5 MiB (0%)
Title : French-COMMENTARY-PGS
Language : French
Default : No
Forced : No

Text #27
ID : 42
Format : PGS
Muxing mode : zlib
Codec ID : S_HDMV/PGS
Codec ID/Info : Picture based subtitle format used on BDs/HD-DVDs
Duration : 1 h 50 min
Bit rate : 60.3 kb/s
Count of elements : 3906
Stream size : 47.5 MiB (0%)
Title : French-COMMENTARY-PGS
Language : French
Default : No
Forced : No

Text #28
ID : 43
Format : PGS
Muxing mode : zlib
Codec ID : S_HDMV/PGS
Codec ID/Info : Picture based subtitle format used on BDs/HD-DVDs
Duration : 1 h 50 min
Bit rate : 52.0 kb/s
Count of elements : 3830
Stream size : 40.9 MiB (0%)
Title : Italian-COMMENTARY-PGS
Language : Italian
Default : No
Forced : No

Text #29
ID : 44
Format : PGS
Muxing mode : zlib
Codec ID : S_HDMV/PGS
Codec ID/Info : Picture based subtitle format used on BDs/HD-DVDs
Duration : 1 h 43 min
Bit rate : 41.2 kb/s
Count of elements : 2900
Stream size : 30.7 MiB (0%)
Title : Japanese-COMMENTARY-PGS
Language : Japanese
Default : No
Forced : No

Text #30
ID : 45
Format : PGS
Muxing mode : zlib
Codec ID : S_HDMV/PGS
Codec ID/Info : Picture based subtitle format used on BDs/HD-DVDs
Duration : 1 h 50 min
Bit rate : 42.3 kb/s
Count of elements : 3830
Stream size : 33.3 MiB (0%)
Title : Korean-COMMENTARY-PGS
Language : Korean
Default : No
Forced : No

Text #31
ID : 46
Format : PGS
Muxing mode : zlib
Codec ID : S_HDMV/PGS
Codec ID/Info : Picture based subtitle format used on BDs/HD-DVDs
Duration : 1 h 50 min
Bit rate : 59.9 kb/s
Count of elements : 3906
Stream size : 47.2 MiB (0%)
Title : Portuguese-COMMENTARY-PGS
Language : Portuguese
Default : No
Forced : No

Text #32
ID : 47
Format : PGS
Muxing mode : zlib
Codec ID : S_HDMV/PGS
Codec ID/Info : Picture based subtitle format used on BDs/HD-DVDs
Duration : 1 h 50 min
Bit rate : 60.0 kb/s
Count of elements : 3906
Stream size : 47.3 MiB (0%)
Title : Russian-COMMENTARY-PGS
Language : Russian
Default : No
Forced : No

Menu
00:00:00.000 : en:Chapter 1
00:06:08.242 : en:Chapter 2
00:12:52.313 : en:Chapter 3
00:17:35.471 : en:Chapter 4
00:25:37.369 : en:Chapter 5
00:30:56.187 : en:Chapter 6
00:39:00.880 : en:Chapter 7
00:42:40.975 : en:Chapter 8
00:48:31.241 : en:Chapter 9
00:54:02.989 : en:Chapter 10
01:01:46.536 : en:Chapter 11
01:07:34.675 : en:Chapter 12
01:13:56.807 : en:Chapter 13
01:17:54.461 : en:Chapter 14
01:23:45.979 : en:Chapter 15
01:31:12.758 : en:Chapter 16
01:41:13.358 : en:Chapter 17
movie BDRip Video
ID : 1
Format : HEVC
Format/Info : High Efficiency Video Coding
Commercial name : HDR10
Format profile : Main 10@L5.1@High
Codec ID : V_MPEGH/ISO/HEVC
Duration : 1 h 57 min
Bit rate : 35.0 Mb/s
Width : 3 840 pixels
Height : 1 600 pixels
Display aspect ratio : 2.40:1
Frame rate mode : Constant
Frame rate : 23.976 (24000/1001) FPS
Color space : YUV
Chroma subsampling : 4:2:0 (Type 2)
Bit depth : 10 bits
Bits/(Pixel*Frame) : 0.237
Stream size : 28.8 GiB (86%)
Title : G.I.Joe.The.Rise.of.Cobra.2009.2160p.BluRay.x265.10bit.HDR.DTS-HD.MA.5.1-SWTYBLZ
Writing library : x265 2.8+24-289b8a3730ae:[Windows][GCC 7.3.0][64 bit] 10bit
Encoding settings : cpuid=1111039 / frame-threads=16 / numa-pools=24,24,24,24 / wpp / no-pmode / no-pme / no-psnr / no-ssim / log-level=2 / input-csp=1 / input-res=3840x1600 / interlace=0 / total-frames=0 / level-idc=51 / high-tier=1 / uhd-bd=0 / ref=3 / no-allow-non-conformance / repeat-headers / annexb / aud / hrd / info / hash=0 / no-temporal-layers / no-open-gop / min-keyint=1 / keyint=24 / gop-lookahead=0 / bframes=4 / b-adapt=2 / b-pyramid / bframe-bias=0 / rc-lookahead=25 / lookahead-slices=4 / scenecut=40 / radl=0 / no-intra-refresh / ctu=64 / min-cu-size=8 / no-rect / no-amp / max-tu-size=32 / tu-inter-depth=1 / tu-intra-depth=1 / limit-tu=0 / rdoq-level=0 / dynamic-rd=0.00 / no-ssim-rd / signhide / no-tskip / nr-intra=0 / nr-inter=0 / no-constrained-intra / strong-intra-smoothing / max-merge=2 / limit-refs=3 / no-limit-modes / me=1 / subme=2 / merange=57 / temporal-mvp / weightp / no-weightb / no-analyze-src-pics / deblock=0:0 / no-sao / no-sao-non-deblock / rd=3 / no-early-skip / rskip / no-fast-intra / no-tskip-fast / no-cu-lossless / no-b-intra / no-splitrd-skip / rdpenalty=0 / psy-rd=2.00 / psy-rdoq=0.00 / no-rd-refine / no-lossless / cbqpoffs=0 / crqpoffs=0 / rc=crf / crf=16.0 / qcomp=0.60 / qpstep=4 / stats-write=0 / stats-read=0 / vbv-maxrate=160000 / vbv-bufsize=160000 / vbv-init=0.9 / crf-max=0.0 / crf-min=0.0 / ipratio=1.40 / pbratio=1.30 / aq-mode=1 / aq-strength=1.00 / cutree / zone-count=0 / no-strict-cbr / qg-size=32 / no-rc-grain / qpmax=69 / qpmin=0 / no-const-vbv / sar=1 / overscan=0 / videoformat=5 / range=0 / colorprim=9 / transfer=16 / colormatrix=9 / chromaloc=1 / chromaloc-top=2 / chromaloc-bottom=2 / display-window=0 / master-display=G(13250,34500)B(7500,3000)R(34000,16000)WP(15635,16450)L(10000000,01) / max-cll=0,0 / min-luma=0 / max-luma=1023 / log2-max-poc-lsb=8 / vui-timing-info / vui-hrd-info / slices=1 / opt-qp-pps / opt-ref-list-length-pps / no-multi-pass-opt-rps / scenecut-bias=0.05 / no-opt-cu-delta-qp / no-aq-motion / hdr / hdr-opt / no-dhdr10-opt / no-idr-recovery-sei / analysis-reuse-level=5 / scale-factor=0 / refine-intra=0 / refine-inter=0 / refine-mv=0 / no-limit-sao / ctu-info=0 / no-lowpass-dct / refine-mv-type=0 / copy-pic=1 / max-ausize-factor=1.0 / no-dynamic-refine / no-single-sei
Default : Yes
Forced : No
Color range : Limited
Color primaries : BT.2020
Transfer characteristics : PQ
Matrix coefficients : BT.2020 non-constant
Mastering display color primaries : Display P3
Mastering display luminance : min: 0.0001 cd/m2, max: 1000 cd/m2

Audio #1
ID : 2
Format : DTS
Format/Info : Digital Theater Systems
Format profile : MA / Core
Codec ID : A_DTS
Duration : 1 h 57 min
Bit rate mode : Variable / Constant
Bit rate : 4 910 kb/s / 1 509 kb/s
Channel(s) : 6 channels
Channel positions : Front: L C R, Side: L R, LFE
Sampling rate : 48.0 kHz
Frame rate : 93.750 FPS (512 SPF)
Bit depth : 24 bits
Compression mode : Lossless / Lossy
Stream size : 4.05 GiB (12%)
Title : G.I.Joe.The.Rise.of.Cobra.2009.2160p.BluRay.x265.10bit.HDR.DTS-HD.MA.5.1-SWTYBLZ
Language : English
Default : Yes
Forced : No

Audio #2
ID : 3
Format : AC-3
Format/Info : Audio Coding 3
Codec ID : A_AC3
Duration : 1 h 57 min
Bit rate mode : Constant
Bit rate : 640 kb/s
Channel(s) : 6 channels
Channel positions : Front: L C R, Side: L R, LFE
Sampling rate : 48.0 kHz
Frame rate : 31.250 FPS (1536 SPF)
Bit depth : 16 bits
Compression mode : Lossy
Stream size : 540 MiB (2%)
Title : G.I.Joe.The.Rise.of.Cobra.2009.2160p.BluRay.x265.10bit.HDR.DTS-HD.MA.5.1-SWTYBLZ
Language : English
Service kind : Complete Main
Default : No
Forced : No

Text #1
ID : 4
Format : UTF-8
Codec ID : S_TEXT/UTF8
Codec ID/Info : UTF-8 Plain Text
Duration : 1 h 47 min
Bit rate : 56 b/s
Count of elements : 1142
Stream size : 44.1 KiB (0%)
Language : English
Default : Yes
Forced : No

Text #2
ID : 5
Format : PGS
Muxing mode : zlib
Codec ID : S_HDMV/PGS
Codec ID/Info : Picture based subtitle format used on BDs/HD-DVDs
Duration : 1 h 47 min
Bit rate : 33.7 kb/s
Count of elements : 2284
Stream size : 25.9 MiB (0%)
Title : English-PGS
Language : English
Default : No
Forced : No

Text #3
ID : 6
Format : PGS
Muxing mode : zlib
Codec ID : S_HDMV/PGS
Codec ID/Info : Picture based subtitle format used on BDs/HD-DVDs
Duration : 1 h 48 min
Bit rate : 39.4 kb/s
Count of elements : 2794
Stream size : 30.4 MiB (0%)
Title : English-SDH-PGS
Language : English
Default : No
Forced : No

Text #4
ID : 7
Format : PGS
Muxing mode : zlib
Codec ID : S_HDMV/PGS
Codec ID/Info : Picture based subtitle format used on BDs/HD-DVDs
Duration : 1 h 56 min
Bit rate : 19.9 kb/s
Count of elements : 2282
Stream size : 16.6 MiB (0%)
Title : Chinese-PGS
Language : Chinese
Default : No
Forced : No

Text #5
ID : 8
Format : PGS
Muxing mode : zlib
Codec ID : S_HDMV/PGS
Codec ID/Info : Picture based subtitle format used on BDs/HD-DVDs
Duration : 1 h 56 min
Bit rate : 26.1 kb/s
Count of elements : 1952
Stream size : 21.8 MiB (0%)
Title : Danish-PGS
Language : Danish
Default : No
Forced : No

Text #6
ID : 9
Format : PGS
Muxing mode : zlib
Codec ID : S_HDMV/PGS
Codec ID/Info : Picture based subtitle format used on BDs/HD-DVDs
Duration : 1 h 56 min
Bit rate : 32.9 kb/s
Count of elements : 2394
Stream size : 27.5 MiB (0%)
Title : German-PGS
Language : German
Default : No
Forced : No

Text #7
ID : 10
Format : PGS
Muxing mode : zlib
Codec ID : S_HDMV/PGS
Codec ID/Info : Picture based subtitle format used on BDs/HD-DVDs
Duration : 1 h 56 min
Bit rate : 28.7 kb/s
Count of elements : 2364
Stream size : 24.0 MiB (0%)
Title : Spanish-PGS
Language : Spanish
Default : No
Forced : No

Text #8
ID : 11
Format : PGS
Muxing mode : zlib
Codec ID : S_HDMV/PGS
Codec ID/Info : Picture based subtitle format used on BDs/HD-DVDs
Duration : 1 h 56 min
Bit rate : 26.5 kb/s
Count of elements : 2306
Stream size : 22.2 MiB (0%)
Title : Spanish-PGS
Language : Spanish
Default : No
Forced : No

Text #9
ID : 12
Format : PGS
Muxing mode : zlib
Codec ID : S_HDMV/PGS
Codec ID/Info : Picture based subtitle format used on BDs/HD-DVDs
Duration : 1 h 56 min
Bit rate : 23.1 kb/s
Count of elements : 2572
Stream size : 19.3 MiB (0%)
Title : French-PGS
Language : French
Default : No
Forced : No

Text #10
ID : 13
Format : PGS
Muxing mode : zlib
Codec ID : S_HDMV/PGS
Codec ID/Info : Picture based subtitle format used on BDs/HD-DVDs
Duration : 1 h 56 min
Bit rate : 29.4 kb/s
Count of elements : 2354
Stream size : 24.5 MiB (0%)
Title : Italian-PGS
Language : Italian
Default : No
Forced : No

Text #11
ID : 14
Format : PGS
Muxing mode : zlib
Codec ID : S_HDMV/PGS
Codec ID/Info : Picture based subtitle format used on BDs/HD-DVDs
Duration : 1 h 47 min
Bit rate : 23.5 kb/s
Count of elements : 2488
Stream size : 18.1 MiB (0%)
Title : Japanese-PGS
Language : Japanese
Default : No
Forced : No

Text #12
ID : 15
Format : PGS
Muxing mode : zlib
Codec ID : S_HDMV/PGS
Codec ID/Info : Picture based subtitle format used on BDs/HD-DVDs
Duration : 1 h 56 min
Bit rate : 19.7 kb/s
Count of elements : 2330
Stream size : 16.4 MiB (0%)
Title : Korean-PGS
Language : Korean
Default : No
Forced : No

Text #13
ID : 16
Format : PGS
Muxing mode : zlib
Codec ID : S_HDMV/PGS
Codec ID/Info : Picture based subtitle format used on BDs/HD-DVDs
Duration : 1 h 56 min
Bit rate : 23.2 kb/s
Count of elements : 2928
Stream size : 19.4 MiB (0%)
Title : Chinese-PGS
Language : Chinese
Default : No
Forced : No

Text #14
ID : 17
Format : PGS
Muxing mode : zlib
Codec ID : S_HDMV/PGS
Codec ID/Info : Picture based subtitle format used on BDs/HD-DVDs
Duration : 1 h 56 min
Bit rate : 25.4 kb/s
Count of elements : 1958
Stream size : 21.2 MiB (0%)
Title : Dutch-PGS
Language : Dutch
Default : No
Forced : No

Text #15
ID : 18
Format : PGS
Muxing mode : zlib
Codec ID : S_HDMV/PGS
Codec ID/Info : Picture based subtitle format used on BDs/HD-DVDs
Duration : 1 h 56 min
Bit rate : 28.5 kb/s
Count of elements : 2330
Stream size : 23.8 MiB (0%)
Title : Norwegian-PGS
Language : Norwegian
Default : No
Forced : No

Text #16
ID : 19
Format : PGS
Muxing mode : zlib
Codec ID : S_HDMV/PGS
Codec ID/Info : Picture based subtitle format used on BDs/HD-DVDs
Duration : 1 h 56 min
Bit rate : 27.2 kb/s
Count of elements : 2322
Stream size : 22.8 MiB (0%)
Title : Portuguese-PGS
Language : Portuguese
Default : No
Forced : No

Text #17
ID : 20
Format : PGS
Muxing mode : zlib
Codec ID : S_HDMV/PGS
Codec ID/Info : Picture based subtitle format used on BDs/HD-DVDs
Duration : 1 h 56 min
Bit rate : 28.9 kb/s
Count of elements : 2332
Stream size : 24.1 MiB (0%)
Title : Portuguese-PGS
Language : Portuguese
Default : No
Forced : No

Text #18
ID : 21
Format : PGS
Muxing mode : zlib
Codec ID : S_HDMV/PGS
Codec ID/Info : Picture based subtitle format used on BDs/HD-DVDs
Duration : 1 h 56 min
Bit rate : 28.9 kb/s
Count of elements : 2330
Stream size : 24.1 MiB (0%)
Title : Russian-PGS
Language : Russian
Default : No
Forced : No

Text #19
ID : 22
Format : PGS
Muxing mode : zlib
Codec ID : S_HDMV/PGS
Codec ID/Info : Picture based subtitle format used on BDs/HD-DVDs
Duration : 1 h 56 min
Bit rate : 26.7 kb/s
Count of elements : 2356
Stream size : 22.3 MiB (0%)
Title : Chinese-pGS
Language : Chinese
Default : No
Forced : No

Text #20
ID : 23
Format : PGS
Muxing mode : zlib
Codec ID : S_HDMV/PGS
Codec ID/Info : Picture based subtitle format used on BDs/HD-DVDs
Duration : 1 h 56 min
Bit rate : 23.7 kb/s
Count of elements : 2248
Stream size : 19.8 MiB (0%)
Title : Finnish-PGS
Language : Finnish
Default : No
Forced : No

Text #21
ID : 24
Format : PGS
Muxing mode : zlib
Codec ID : S_HDMV/PGS
Codec ID/Info : Picture based subtitle format used on BDs/HD-DVDs
Duration : 1 h 56 min
Bit rate : 26.9 kb/s
Count of elements : 2014
Stream size : 22.5 MiB (0%)
Title : Swedish-PGS
Language : Swedish
Default : No
Forced : No

Text #22
ID : 25
Format : PGS
Muxing mode : zlib
Codec ID : S_HDMV/PGS
Codec ID/Info : Picture based subtitle format used on BDs/HD-DVDs
Duration : 1 h 56 min
Bit rate : 20.4 kb/s
Count of elements : 2302
Stream size : 17.0 MiB (0%)
Title : Thai-PGS
Language : Thai
Default : No
Forced : No

Menu
00:00:00.000 : en:Chapter 1
00:06:07.700 : en:Chapter 2
00:13:38.943 : en:Chapter 3
00:20:15.005 : en:Chapter 4
00:24:18.039 : en:Chapter 5
00:28:20.615 : en:Chapter 6
00:33:14.575 : en:Chapter 7
00:40:58.122 : en:Chapter 8
00:47:06.031 : en:Chapter 9
00:51:19.034 : en:Chapter 10
00:54:17.837 : en:Chapter 11
01:00:58.571 : en:Chapter 12
01:05:46.400 : en:Chapter 13
01:12:48.489 : en:Chapter 14
01:18:54.104 : en:Chapter 15
01:24:13.298 : en:Chapter 16
01:29:21.981 : en:Chapter 17
01:38:15.472 : en:Chapter 18
01:43:36.418 : en:Chapter 19
01:49:06.581 : en:Chapter 20

Download

download 4k hdr movies download 4k hdr movies

Watch a movie trailer - G.I. Joe: Retaliation 4K 2013 Ultra HD 2160p
Comments and Feedback
Add your comment:
Your name:
Your E-Mail:
Code:
reload, if the code cannot be seen
Enter code: