Select movie Search movie Close search My Account

Lara Croft Tomb Raider The Cradle of Life 4K 2003 Ultra HD 2160p

Lara Croft Tomb Raider The Cradle of Life 4K 2003 Ultra HD 2160p
BDRemux / BDRip
Country: USA | Germany | Japan
Time: 1h 57min
IMDB: 5.5
Director: Jan de Bont
Actors: Angelina Jolie, Gerard Butler, Ciarn Hinds, Chris Barrie, Noah Taylor, Djimon Hounsou, Til Schweiger, Simon Yam, Terence Yin, Daniel Caltagirone, Fabiano Martell, Jonny Coyne, Robert Cavanah, Ronan Vibert, Lenny Juma

Story Movie

Lara Croft Tomb Raider The Cradle of Life 4K 2003 Ultra HD 2160p
Lara Croft UHD in the movie Lara Croft Tomb Raider The Cradle of Life size of 4k movie download will face new challenges and challenges. But only now actions will take place in different parts and corners of the world. To deal with crime, she will need to destroy the Chinese syndicate, because his boss wants to destroy the whole world and wreak havoc. But only on his own will become fearless Lara and everything will fall into place.

Review 4K Movie

The continuation of a fairly successful commercial adaptation of the famous adventure game was to become much more exciting, and of course, much more cash. But unexpectedly, the second part of the adventure franchise not only failed to reach the heights of the first part, but also could not recoup even its own, much cheaper production costs than the first part. This was already a pure financial failure, the reason of which, most likely, was the excessive patterning of the plot and characters, as well as completely disgusting dialogues.

The plot, which for some reason began to raise the age-old questions about the birth of life, turns out to be a cliched and completely second-rate bike about searching for a mysterious artifact, with the genres necessary for the genre, thirsting for world domination. This genre in principle could be forgiven a lot, whether the presentation of this story is more affable and at least slightly original, and a little humor would also not be prevented. But somehow this franchise is not lucky with good script writers.

However, in fairness it should be noted that the action-aspect of the film Lara Croft Tomb Raider The Cradle of Life size of 4k movie download has become much better than the first part. The action became more distinct, and the stunning tricks with the participation of the main character became even more crazy and spectacular. Especially impressive are the scenes in Shanghai, when the bright Lara jumps from one roof to the other. True, the final smeared the impression with its indistinctness. There was a feeling that at the time of filming the final scenes the budget of the producers was already exhausted and had to be shot at an accelerated pace.

With the cast of actors is also very controversial. Angelina Jolie began to play much better than in the first part. Now the truth is more turned into a demonstration of her own sexuality (and she looks really in this film otpadno), rather than a full-fledged acting game, but this is a more correct move than constantly frowning eyebrows. Gerard Butler looked the most charismatic actor in the film, and it was great to hold a trend: the male actors who helped Lara in each of the parts, later became famous for a long time. After the first part, Daniel Craig a few years later became the new James Bond, and Butler broke away at the "300 Spartans." Though something has given them participation in this project.

Lara Croft Tomb Raider The Cradle of Life Ultra HD is generally a sane representative of the adventure genre and certainly not the worst of its representatives. But there is no need to talk about any heights, there are too many shortcomings in the tape, which are hard to close your eyes. The sequel in some aspect is better than the original, but in some worse. One thing is clear - the franchise has reached a dead end. So the third part about the adventures of Lara Croft, we will hardly ever see. Only if this, of course, there will not be a restart.

Mediainfo

movie BDRemux Video #1
ID : 1
Format : HEVC
Format/Info : High Efficiency Video Coding
Format profile : Main 10@L5.1@High
Codec ID : V_MPEGH/ISO/HEVC
Duration : 1 h 57 min
Bit rate : 56.2 Mb/s
Width : 3 840 pixels
Height : 2 160 pixels
Display aspect ratio : 16:9
Frame rate mode : Constant
Frame rate : 23.976 (24000/1001) FPS
Color space : YUV
Chroma subsampling : 4:2:0 (Type 2)
Bit depth : 10 bits
Bits/(Pixel*Frame) : 0.282
Stream size : 46.0 GiB (84%)
Title : Lara.Croft.Tomb.Raider.The.Cradle.Of.Life.2003.2160p.BluRay.REMUX.HEVC.DTS-HD.MA.5.1
Default : Yes
Forced : No
Color range : Limited
Color primaries : BT.2020
Transfer characteristics : PQ
Matrix coefficients : BT.2020 non-constant
Mastering display color primaries : Display P3
Mastering display luminance : min: 0.0001 cd/m2, max: 1000 cd/m2


Video #2
ID : 2
Format : HEVC
Format/Info : High Efficiency Video Coding
Format profile : Main 10@L5.1@High
Codec ID : V_MPEGH/ISO/HEVC
Duration : 1 h 57 min
Bit rate : 6 446 kb/s
Width : 1 920 pixels
Height : 1 080 pixels
Display aspect ratio : 16:9
Frame rate mode : Constant
Frame rate : 23.976 (24000/1001) FPS
Color space : YUV
Chroma subsampling : 4:2:0 (Type 2)
Bit depth : 10 bits
Bits/(Pixel*Frame) : 0.130
Stream size : 5.28 GiB (10%)
Title : Lara.Croft.Tomb.Raider.The.Cradle.Of.Life.2003.2160p.BluRay.REMUX.HEVC.DTS-HD.MA.5.1
Default : No
Forced : No
Color range : Limited
Color primaries : BT.2020
Transfer characteristics : PQ
Matrix coefficients : BT.2020 non-constant
Mastering display color primaries : Display P3
Mastering display luminance : min: 0.0001 cd/m2, max: 1000 cd/m2

Audio #1
ID : 3
Format : DTS
Format/Info : Digital Theater Systems
Format profile : MA / Core
Codec ID : A_DTS
Duration : 1 h 57 min
Bit rate mode : Variable / Constant
Bit rate : 2 218 kb/s / 1 509 kb/s
Channel(s) : 6 channels
Channel positions : Front: L C R, Side: L R, LFE
Sampling rate : 48.0 kHz
Frame rate : 93.750 FPS (512 SPF)
Bit depth : 24 bits
Compression mode : Lossless / Lossy
Stream size : 1.82 GiB (3%)
Title : Lara.Croft.Tomb.Raider.The.Cradle.Of.Life.2003.2160p.BluRay.REMUX.HEVC.DTS-HD.MA.5.1
Language : English
Default : Yes
Forced : No

Audio #2
ID : 4
Format : AC-3
Format/Info : Audio Coding 3
Codec ID : A_AC3
Duration : 1 h 57 min
Bit rate mode : Constant
Bit rate : 640 kb/s
Channel(s) : 6 channels
Channel positions : Front: L C R, Side: L R, LFE
Sampling rate : 48.0 kHz
Frame rate : 31.250 FPS (1536 SPF)
Bit depth : 16 bits
Compression mode : Lossy
Stream size : 537 MiB (1%)
Title : Lara.Croft.Tomb.Raider.The.Cradle.Of.Life.2003.2160p.BluRay.REMUX.HEVC.DTS-HD.MA.5.1
Language : French
Service kind : Complete Main
Default : No
Forced : No

Audio #3
ID : 5
Format : AC-3
Format/Info : Audio Coding 3
Codec ID : A_AC3
Duration : 1 h 57 min
Bit rate mode : Constant
Bit rate : 640 kb/s
Channel(s) : 6 channels
Channel positions : Front: L C R, Side: L R, LFE
Sampling rate : 48.0 kHz
Frame rate : 31.250 FPS (1536 SPF)
Bit depth : 16 bits
Compression mode : Lossy
Stream size : 537 MiB (1%)
Title : Lara.Croft.Tomb.Raider.The.Cradle.Of.Life.2003.2160p.BluRay.REMUX.HEVC.DTS-HD.MA.5.1
Language : Spanish
Service kind : Complete Main
Default : No
Forced : No

Audio #4
ID : 6
Format : AC-3
Format/Info : Audio Coding 3
Codec ID : A_AC3
Duration : 1 h 57 min
Bit rate mode : Constant
Bit rate : 640 kb/s
Channel(s) : 6 channels
Channel positions : Front: L C R, Side: L R, LFE
Sampling rate : 48.0 kHz
Frame rate : 31.250 FPS (1536 SPF)
Bit depth : 16 bits
Compression mode : Lossy
Stream size : 537 MiB (1%)
Title : Lara.Croft.Tomb.Raider.The.Cradle.Of.Life.2003.2160p.BluRay.REMUX.HEVC.DTS-HD.MA.5.1
Language : English
Service kind : Complete Main
Default : No
Forced : No

Audio #5
ID : 7
Format : AC-3
Format/Info : Audio Coding 3
Codec ID : A_AC3
Duration : 1 h 57 min
Bit rate mode : Constant
Bit rate : 224 kb/s
Channel(s) : 2 channels
Channel positions : Front: L R
Sampling rate : 48.0 kHz
Frame rate : 31.250 FPS (1536 SPF)
Bit depth : 16 bits
Compression mode : Lossy
Stream size : 188 MiB (0%)
Title : Lara.Croft.Tomb.Raider.The.Cradle.Of.Life.2003.2160p.BluRay.REMUX.HEVC.DTS-HD.MA.5.1
Language : English
Service kind : Complete Main
Default : No
Forced : No

Text #1
ID : 8
Format : PGS
Muxing mode : zlib
Codec ID : S_HDMV/PGS
Codec ID/Info : Picture based subtitle format used on BDs/HD-DVDs
Duration : 1 h 44 min
Bit rate : 21.8 kb/s
Count of elements : 1602
Stream size : 16.2 MiB (0%)
Title : English-PGS
Language : English
Default : Yes
Forced : No

Text #2
ID : 9
Format : PGS
Muxing mode : zlib
Codec ID : S_HDMV/PGS
Codec ID/Info : Picture based subtitle format used on BDs/HD-DVDs
Duration : 1 h 47 min
Bit rate : 25.1 kb/s
Count of elements : 2030
Stream size : 19.3 MiB (0%)
Title : English-SDH-PGS
Language : English
Default : No
Forced : No

Text #3
ID : 10
Format : PGS
Muxing mode : zlib
Codec ID : S_HDMV/PGS
Codec ID/Info : Picture based subtitle format used on BDs/HD-DVDs
Duration : 1 h 46 min
Bit rate : 18.5 kb/s
Count of elements : 1494
Stream size : 14.1 MiB (0%)
Title : French-PGS
Language : French
Default : No
Forced : No

Text #4
ID : 11
Format : PGS
Muxing mode : zlib
Codec ID : S_HDMV/PGS
Codec ID/Info : Picture based subtitle format used on BDs/HD-DVDs
Duration : 1 h 46 min
Bit rate : 19.8 kb/s
Count of elements : 1406
Stream size : 15.1 MiB (0%)
Title : Spanish-PGS
Language : Spanish
Default : No
Forced : No

Menu
00:00:00.000 : en:Chapter 1
00:03:06.895 : en:Chapter 2
00:06:43.194 : en:Chapter 3
00:11:17.760 : en:Chapter 4
00:16:55.139 : en:Chapter 5
00:20:41.240 : en:Chapter 6
00:24:15.787 : en:Chapter 7
00:27:44.079 : en:Chapter 8
00:31:54.412 : en:Chapter 9
00:34:42.872 : en:Chapter 10
00:37:15.149 : en:Chapter 11
00:42:39.265 : en:Chapter 12
00:47:59.710 : en:Chapter 13
00:51:12.277 : en:Chapter 14
00:56:10.533 : en:Chapter 15
01:00:09.647 : en:Chapter 16
01:06:28.985 : en:Chapter 17
01:10:03.199 : en:Chapter 18
01:14:33.969 : en:Chapter 19
01:19:35.353 : en:Chapter 20
01:24:03.288 : en:Chapter 21
01:28:51.159 : en:Chapter 22
01:35:15.167 : en:Chapter 23
01:40:19.763 : en:Chapter 24
01:45:33.076 : en:Chapter 25
01:47:46.251 : en:Chapter 26
movie BDRip Video
ID : 1
Format : HEVC
Format/Info : High Efficiency Video Coding
Format profile : Main 10@L5.1@High
Codec ID : V_MPEGH/ISO/HEVC
Duration : 1 h 57 min
Width : 3 840 pixels
Height : 1 634 pixels
Display aspect ratio : 2.35:1
Frame rate mode : Constant
Frame rate : 23.976 (24000/1001) FPS
Color space : YUV
Chroma subsampling : 4:2:0 (Type 2)
Bit depth : 10 bits
Writing library : x265 2.6+37-1949157705ce:[Windows][GCC 6.3.0][64 bit] 10bit
Encoding settings : cpuid=1173503 / frame-threads=4 / numa-pools=16 / wpp / no-pmode / no-pme / no-psnr / no-ssim / log-level=2 / input-csp=1 / input-res=3840x1634 / interlace=0 / total-frames=168827 / level-idc=51 / high-tier=1 / uhd-bd=0 / ref=4 / no-allow-non-conformance / repeat-headers / annexb / aud / hrd / info / hash=0 / no-temporal-layers / no-open-gop / min-keyint=24 / keyint=240 / gop-lookahead=0 / bframes=4 / b-adapt=2 / b-pyramid / bframe-bias=0 / rc-lookahead=25 / lookahead-slices=4 / scenecut=40 / radl=0 / no-intra-refresh / ctu=64 / min-cu-size=8 / rect / no-amp / max-tu-size=32 / tu-inter-depth=1 / tu-intra-depth=1 / limit-tu=0 / rdoq-level=2 / dynamic-rd=0.00 / no-ssim-rd / signhide / no-tskip / nr-intra=0 / nr-inter=0 / no-constrained-intra / no-strong-intra-smoothing / max-merge=3 / limit-refs=3 / limit-modes / me=3 / subme=3 / merange=57 / temporal-mvp / weightp / no-weightb / no-analyze-src-pics / deblock=-3:-3 / no-sao / no-sao-non-deblock / rd=4 / no-early-skip / rskip / no-fast-intra / no-tskip-fast / no-cu-lossless / no-b-intra / no-splitrd-skip / rdpenalty=0 / psy-rd=2.00 / psy-rdoq=1.00 / no-rd-refine / no-lossless / cbqpoffs=0 / crqpoffs=0 / rc=crf / crf=17.0 / qcomp=0.60 / qpstep=4 / stats-write=0 / stats-read=0 / vbv-maxrate=160000 / vbv-bufsize=160000 / vbv-init=0.9 / crf-max=0.0 / crf-min=0.0 / ipratio=1.40 / pbratio=1.30 / aq-mode=1 / aq-strength=1.00 / cutree / zone-count=0 / no-strict-cbr / qg-size=32 / no-rc-grain / qpmax=69 / qpmin=0 / no-const-vbv / sar=1 / overscan=0 / videoformat=5 / range=0 / colorprim=9 / transfer=16 / colormatrix=9 / chromaloc=1 / chromaloc-top=2 / chromaloc-bottom=2 / display-window=0 / master-display=G(13250,34500)B(7500,3000)R(34000,16000)WP(15635,16450)L(10000000,1) / max-cll=0,0 / min-luma=0 / max-luma=1023 / log2-max-poc-lsb=8 / vui-timing-info / vui-hrd-info / slices=1 / opt-qp-pps / opt-ref-list-length-pps / no-multi-pass-opt-rps / scenecut-bias=0.05 / no-opt-cu-delta-qp / no-aq-motion / hdr / hdr-opt / no-dhdr10-opt / analysis-reuse-level=5 / scale-factor=0 / refine-intra=0 / refine-inter=0 / refine-mv=0 / no-limit-sao / ctu-info=0 / no-lowpass-dct / refine-mv-type=0 / copy-pic=1
Default : Yes
Forced : No
Color range : Limited
Color primaries : BT.2020
Transfer characteristics : PQ
Matrix coefficients : BT.2020 non-constant
Statistics Tags Issue : no_variable_data 1970-01-01 00:00:00 / no_variable_data 2010-02-22 21:41:29
FromStats_BitRate : 33436982
FromStats_Duration : 01:57:21.493000000
FromStats_FrameCount : 168827
FromStats_StreamSize : 29430784720
Mastering display color primaries : Display P3
Mastering display luminance : min: 0.0001 cd/m2, max: 1000 cd/m2

Audio #1
ID : 2
Format : DTS
Format/Info : Digital Theater Systems
Format profile : MA / Core
Codec ID : A_DTS
Duration : 1 h 57 min
Bit rate mode : Variable / Constant
Bit rate : Unknown / 1 509 kb/s
Channel(s) : 6 channels
Channel positions : Front: L C R, Side: L R, LFE
Sampling rate : 48.0 kHz
Frame rate : 93.750 FPS (512 SPF)
Bit depth : 24 bits
Compression mode : Lossless / Lossy
Language : English
Default : Yes
Forced : No
Statistics Tags Issue : no_variable_data 1970-01-01 00:00:00 / no_variable_data 2010-02-22 21:41:29
FromStats_BitRate : 2218266
FromStats_Duration : 01:57:21.494000000
FromStats_FrameCount : 660140
FromStats_StreamSize : 1952488380

Audio #2
ID : 3
Format : AC-3
Format/Info : Audio Coding 3
Codec ID : A_AC3
Duration : 1 h 57 min
Bit rate mode : Constant
Bit rate : 224 kb/s
Channel(s) : 2 channels
Channel positions : Front: L R
Sampling rate : 48.0 kHz
Frame rate : 31.250 FPS (1536 SPF)
Bit depth : 16 bits
Compression mode : Lossy
Stream size : 188 MiB (1%)
Title : Commentary with Director Jan de Bont
Language : English
Service kind : Complete Main
Default : No
Forced : No
Statistics Tags Issue : no_variable_data 1970-01-01 00:00:00 / no_variable_data 2010-02-22 21:41:29
FromStats_BitRate : 224000
FromStats_Duration : 01:57:21.504000000
FromStats_FrameCount : 220047
FromStats_StreamSize : 197162112

Text #1
ID : 4
Format : UTF-8
Codec ID : S_TEXT/UTF8
Codec ID/Info : UTF-8 Plain Text
Title : Stripped SRT
Language : English
Default : No
Forced : No
Statistics Tags Issue : no_variable_data 1970-01-01 00:00:00 / no_variable_data 2010-02-22 21:41:29
FromStats_BitRate : 36
FromStats_Duration : 01:44:16.875000000
FromStats_FrameCount : 815
FromStats_StreamSize : 28564

Text #2
ID : 5
Format : UTF-8
Codec ID : S_TEXT/UTF8
Codec ID/Info : UTF-8 Plain Text
Title : Full SRT
Language : English
Default : No
Forced : No
Statistics Tags Issue : no_variable_data 1970-01-01 00:00:00 / no_variable_data 2010-02-22 21:41:29
FromStats_BitRate : 36
FromStats_Duration : 01:44:16.875000000
FromStats_FrameCount : 801
FromStats_StreamSize : 28441

Text #3
ID : 6
Format : PGS
Muxing mode : zlib
Codec ID : S_HDMV/PGS
Codec ID/Info : Picture based subtitle format used on BDs/HD-DVDs
Title : Full
Language : English
Default : No
Forced : No
Statistics Tags Issue : no_variable_data 1970-01-01 00:00:00 / no_variable_data 2010-02-22 21:41:29
FromStats_BitRate : 21777
FromStats_Duration : 01:44:16.875000000
FromStats_FrameCount : 1602
FromStats_StreamSize : 17032407

Text #4
ID : 7
Format : UTF-8
Codec ID : S_TEXT/UTF8
Codec ID/Info : UTF-8 Plain Text
Title : SDH SRT
Language : English
Default : No
Forced : No
Statistics Tags Issue : no_variable_data 1970-01-01 00:00:00 / no_variable_data 2010-02-22 21:41:29
FromStats_BitRate : 39
FromStats_Duration : 01:47:55.511000000
FromStats_FrameCount : 1015
FromStats_StreamSize : 32369

Text #5
ID : 8
Format : PGS
Muxing mode : zlib
Codec ID : S_HDMV/PGS
Codec ID/Info : Picture based subtitle format used on BDs/HD-DVDs
Title : SDH
Language : English
Default : No
Forced : No
Statistics Tags Issue : no_variable_data 1970-01-01 00:00:00 / no_variable_data 2010-02-22 21:41:29
FromStats_BitRate : 25064
FromStats_Duration : 01:47:55.511000000
FromStats_FrameCount : 2030
FromStats_StreamSize : 20288541

Text #6
ID : 9
Format : PGS
Muxing mode : zlib
Codec ID : S_HDMV/PGS
Codec ID/Info : Picture based subtitle format used on BDs/HD-DVDs
Language : French
Default : No
Forced : No
Statistics Tags Issue : no_variable_data 1970-01-01 00:00:00 / no_variable_data 2010-02-22 21:41:29
FromStats_BitRate : 18519
FromStats_Duration : 01:46:29.300000000
FromStats_FrameCount : 1494
FromStats_StreamSize : 14791117

Text #7
ID : 10
Format : PGS
Muxing mode : zlib
Codec ID : S_HDMV/PGS
Codec ID/Info : Picture based subtitle format used on BDs/HD-DVDs
Language : Spanish
Default : No
Forced : No
Statistics Tags Issue : no_variable_data 1970-01-01 00:00:00 / no_variable_data 2010-02-22 21:41:29
FromStats_BitRate : 19775
FromStats_Duration : 01:46:29.175000000
FromStats_FrameCount : 1406
FromStats_StreamSize : 15793941

Menu
00:00:00.000 : en:Chapter 01
00:03:06.895 : en:Chapter 02
00:06:43.111 : en:Chapter 03
00:11:17.468 : en:Chapter 04
00:16:55.097 : en:Chapter 05
00:20:41.240 : en:Chapter 06
00:24:15.454 : en:Chapter 07
00:27:43.995 : en:Chapter 08
00:31:54.078 : en:Chapter 09
00:34:42.580 : en:Chapter 10
00:37:14.941 : en:Chapter 11
00:42:39.265 : en:Chapter 12
00:47:59.585 : en:Chapter 13
00:51:11.902 : en:Chapter 14
00:56:10.200 : en:Chapter 15
01:00:09.397 : en:Chapter 16
01:06:28.985 : en:Chapter 17
01:10:02.990 : en:Chapter 18
01:14:33.969 : en:Chapter 19
01:19:35.270 : en:Chapter 20
01:24:03.288 : en:Chapter 21
01:28:51.159 : en:Chapter 22
01:35:14.959 : en:Chapter 23
01:40:19.763 : en:Chapter 24
01:45:33.076 : en:Chapter 25
01:47:46.209 : en:Chapter 26

Download

download 4k hdr movies download 4k hdr movies

Watch a movie trailer - Lara Croft Tomb Raider The Cradle of Life 4K 2003 Ultra HD 2160p
Comments and Feedback
Add your comment:
Your name:
Your E-Mail:
Code:
reload, if the code cannot be seen
Enter code: