Select movie Search movie Close search My Account

Early Man 4K 2018 Ultra HD 2160p

Early Man 4K 2018 Ultra HD 2160p
BDRemux / BDRip
Country: USA | UK | France Movies
Time: 1h 29min
IMDB: 6.2
Director: Nick Park
Actors: Eddie Redmayne, Tom Hiddleston, Maisie Williams, Timothy Spall, Miriam Margolyes, Rob Brydon, Kayvan Novak, Richard Ayoade, Selina Griffiths, Johnny Vegas, Mark Williams, Gina Yashere, Richard Webber, Simon Greenall, Nick Park

Story Movie

Early Man 4K 2018 Ultra HD 2160p
No matter what century of the past, stone or copper, we think it's the Early Man 4k movie trailer download, copy the trailer link and upload it using third-party services. The ancestors also had relatives, there were favorite girls. for which they fought each other and also built their relationships, and you start to think about what they were different from us. although they were wild, as we believe.

Review 4K Movie

Nickel's plasticine cartoons are so homely in the home that, as they say, it's better to watch them under a rug with a cup of tea. The entourage of his animated films has always concerned the good old England, and as a country of carefree and at the same time courageous people (or hens, if you recall "Escape from the chicken house"). Interestingly, the action of his new project "Early Man" 4k movie trailer download, copy the trailer link and upload it using third-party services takes place in Manchester. It is true in prehistoric times, when charming cave troglodytes (of course the British) summoned their colleagues, who had already stepped into the era of the Bronze Age. The battle will take place in the most that neither is a British form - a football match. The curious premise of killer prehistoric football finds the right combination of humor, children's narration and subtle clever hints for adults so that all ages are satisfied.

So, "Early Man" UHD shows how our ancestors turned a fallen asteroid in its kind of "sacred game". Several centuries later, this sport was forgotten by the tribe of young Doug. Savages prefer to sleep before dinner and hunt rabbits. These cave people somehow bypassed the progress side and the Neanderthal tribe risks falling under the yoke of more advanced primitives already from the Bronze Age. Occupants live in difficult-to-build cities and, of course, are fond of football. Naturally, the Dagh tribe has only one way out - to beat professional prehistoric athletes in the sports arena.

Firstly, and, probably, above all, "Early Man" Ultra HDis a very attractive project from the visual standpoint. Despite the fact that the latest digital achievements are clearly involved, the effects of computer graphics are so elegantly integrated that the general spirit of the plasticine "kitchen" is felt throughout the entire film. Cave people and their rivals from the Bronze Age are associated with Wallace, and the decorations are executed with great attention to detail (which at least there are signs on the local market of bronze residents).

In addition, if the "Early Man" 4k seems at first glance to be a rude spectacle, the development of events as the story unfolds this impression. Animation hit of 2013 "Family Cruds" was not bad, but, it seems to me, "Wild Ancestors" managed to focus on the characters and characters. All Dag's friends are illustrations to different levels of degradation, but how amusing and charming they are. A surrealistic animal named Svintus and a giant duck pour oil on the fire. Stand alone cost fanciful villain Lord Gnus, uncontrollably greedy and cunning. He is quite one-dimensional, but what kind of ... is he sweet in his attempts to seem evil.

Mediainfo

movie BDRemux Video #1
ID : 1
Format : HEVC
Format/Info : High Efficiency Video Coding
Commercial name : HDR10
Format profile : Main 10@L5.1@High
Codec ID : V_MPEGH/ISO/HEVC
Duration : 1 h 28 min
Bit rate : 63.0 Mb/s
Width : 3 840 pixels
Height : 2 160 pixels
Display aspect ratio : 16:9
Frame rate mode : Constant
Frame rate : 24.000 FPS
Color space : YUV
Chroma subsampling : 4:2:0 (Type 2)
Bit depth : 10 bits
Bits/(Pixel*Frame) : 0.316
Stream size : 39.0 GiB (82%)
Title : Early.Man.2018.2160p.BluRay.REMUX.HEVC.TrueHD.7.1.Atmos-FGT
Default : Yes
Forced : No
Color range : Limited
Color primaries : BT.2020
Transfer characteristics : PQ
Matrix coefficients : BT.2020 non-constant
Mastering display color primaries : Display P3
Mastering display luminance : min: 0.0001 cd/m2, max: 1000 cd/m2

Video #2
ID : 2
Format : HEVC
Format/Info : High Efficiency Video Coding
Commercial name : HDR10
Format profile : Main 10@L5.1@High
Codec ID : V_MPEGH/ISO/HEVC
Duration : 1 h 28 min
Bit rate : 7 073 kb/s
Width : 1 920 pixels
Height : 1 080 pixels
Display aspect ratio : 16:9
Frame rate mode : Constant
Frame rate : 24.000 FPS
Color space : YUV
Chroma subsampling : 4:2:0 (Type 2)
Bit depth : 10 bits
Bits/(Pixel*Frame) : 0.142
Stream size : 4.38 GiB (9%)
Title : Early.Man.2018.2160p.BluRay.REMUX.HEVC.TrueHD.7.1.Atmos-FGT
Default : No
Forced : No
Color range : Limited
Color primaries : BT.2020
Transfer characteristics : PQ
Matrix coefficients : BT.2020 non-constant
Mastering display color primaries : Display P3
Mastering display luminance : min: 0.0001 cd/m2, max: 1000 cd/m2

Audio #1
ID : 3
Format : TrueHD
Format profile : TrueHD+Atmos / TrueHD
Codec ID : A_TRUEHD
Duration : 1 h 28 min
Bit rate mode : Variable
Bit rate : 3 308 kb/s
Maximum bit rate : 5 088 kb/s
Channel(s) : Object Based / 8 channels
Channel positions : Object Based / Front: L C R, Side: L R, Back: L R, LFE
Sampling rate : / 48.0 kHz
Frame rate : 1 200.000 FPS (40 SPF)
Compression mode : Lossless
Delay relative to video : 3 s 0 ms
Stream size : 2.05 GiB (4%)
Title : Early.Man.2018.2160p.BluRay.REMUX.HEVC.TrueHD.7.1.Atmos-FGT
Language : English
Default : Yes
Forced : No

Audio #2
ID : 4
Format : AC-3
Format/Info : Audio Coding 3
Codec ID : A_AC3
Duration : 1 h 28 min
Bit rate mode : Constant
Bit rate : 640 kb/s
Channel(s) : 6 channels
Channel positions : Front: L C R, Side: L R, LFE
Sampling rate : 48.0 kHz
Frame rate : 31.250 FPS (1536 SPF)
Bit depth : 16 bits
Compression mode : Lossy
Delay relative to video : 3 s 0 ms
Stream size : 405 MiB (1%)
Title : Early.Man.2018.2160p.BluRay.REMUX.HEVC.TrueHD.7.1.Atmos-FGT
Language : English
Service kind : Complete Main
Default : No
Forced : No

Audio #3
ID : 5
Format : PCM
Format settings : Little / Signed
Codec ID : A_PCM/INT/LIT
Duration : 1 h 28 min
Bit rate mode : Constant
Bit rate : 2 304 kb/s
Channel(s) : 2 channels
Sampling rate : 48.0 kHz
Frame rate : 200.000 FPS (240 SPF)
Bit depth : 24 bits
Delay relative to video : 3 s 0 ms
Stream size : 1.43 GiB (3%)
Title : Early.Man.2018.2160p.BluRay.REMUX.HEVC.TrueHD.7.1.Atmos-FGT
Language : English
Default : No
Forced : No

Text
ID : 6
Format : PGS
Muxing mode : zlib
Codec ID : S_HDMV/PGS
Codec ID/Info : Picture based subtitle format used on BDs/HD-DVDs
Duration : 1 h 27 min
Bit rate : 37.3 kb/s
Count of elements : 3158
Stream size : 23.2 MiB (0%)
Title : English-PGS
Language : English
Default : Yes
Forced : No

Menu
00:00:00.000 : en:Chapter 1
00:04:01.791 : en:Chapter 2
00:09:15.083 : en:Chapter 3
00:16:30.375 : en:Chapter 4
00:21:08.458 : en:Chapter 5
00:25:49.916 : en:Chapter 6
00:36:19.875 : en:Chapter 7
00:45:28.416 : en:Chapter 8
00:52:57.375 : en:Chapter 9
00:57:18.208 : en:Chapter 10
01:07:41.375 : en:Chapter 11
01:17:08.458 : en:Chapter 12
movie BDRip Video
ID : 1
Format : HEVC
Format/Info : High Efficiency Video Coding
Commercial name : HDR10
Format profile : Main 10@L5.1@High
Codec ID : V_MPEGH/ISO/HEVC
Duration : 1 h 28 min
Width : 3 840 pixels
Height : 2 076 pixels
Display aspect ratio : 1.85:1
Frame rate mode : Constant
Frame rate : 24.000 FPS
Color space : YUV
Chroma subsampling : 4:2:0 (Type 2)
Bit depth : 10 bits
Writing library : x265 2.8+1-478bfe2b7673:[Windows][GCC 7.3.0][64 bit] 10bit
Encoding settings : cpuid=1176575 / frame-threads=6 / numa-pools=32 / wpp / no-pmode / no-pme / no-psnr / no-ssim / log-level=2 / input-csp=1 / input-res=3840x2076 / interlace=0 / total-frames=127603 / level-idc=51 / high-tier=1 / uhd-bd=0 / ref=4 / no-allow-non-conformance / repeat-headers / annexb / aud / hrd / info / hash=0 / no-temporal-layers / no-open-gop / min-keyint=24 / keyint=240 / gop-lookahead=0 / bframes=4 / b-adapt=2 / b-pyramid / bframe-bias=0 / rc-lookahead=25 / lookahead-slices=4 / scenecut=40 / radl=0 / no-intra-refresh / ctu=64 / min-cu-size=8 / rect / no-amp / max-tu-size=32 / tu-inter-depth=1 / tu-intra-depth=1 / limit-tu=0 / rdoq-level=2 / dynamic-rd=0.00 / no-ssim-rd / signhide / no-tskip / nr-intra=0 / nr-inter=0 / no-constrained-intra / no-strong-intra-smoothing / max-merge=3 / limit-refs=3 / limit-modes / me=3 / subme=3 / merange=57 / temporal-mvp / weightp / no-weightb / no-analyze-src-pics / deblock=-3:-3 / no-sao / no-sao-non-deblock / rd=4 / no-early-skip / rskip / no-fast-intra / no-tskip-fast / no-cu-lossless / no-b-intra / no-splitrd-skip / rdpenalty=0 / psy-rd=2.00 / psy-rdoq=1.00 / no-rd-refine / no-lossless / cbqpoffs=0 / crqpoffs=0 / rc=crf / crf=17.0 / qcomp=0.60 / qpstep=4 / stats-write=0 / stats-read=0 / vbv-maxrate=160000 / vbv-bufsize=160000 / vbv-init=0.9 / crf-max=0.0 / crf-min=0.0 / ipratio=1.40 / pbratio=1.30 / aq-mode=1 / aq-strength=1.00 / cutree / zone-count=0 / no-strict-cbr / qg-size=32 / no-rc-grain / qpmax=69 / qpmin=0 / no-const-vbv / sar=1 / overscan=0 / videoformat=5 / range=0 / colorprim=9 / transfer=16 / colormatrix=9 / chromaloc=1 / chromaloc-top=2 / chromaloc-bottom=2 / display-window=0 / master-display=G(13250,34500)B(7500,3000)R(34000,16000)WP(15635,16450)L(10000000,1) / max-cll=0,0 / min-luma=0 / max-luma=1023 / log2-max-poc-lsb=8 / vui-timing-info / vui-hrd-info / slices=1 / no-opt-qp-pps / no-opt-ref-list-length-pps / no-multi-pass-opt-rps / scenecut-bias=0.05 / no-opt-cu-delta-qp / no-aq-motion / hdr / hdr-opt / no-dhdr10-opt / no-idr-recovery-sei / analysis-reuse-level=5 / scale-factor=0 / refine-intra=0 / refine-inter=0 / refine-mv=0 / no-limit-sao / ctu-info=0 / no-lowpass-dct / refine-mv-type=0 / copy-pic=1 / max-ausize-factor=1.0 / no-dynamic-refine / no-single-sei
Default : Yes
Forced : No
Color range : Limited
Color primaries : BT.2020
Transfer characteristics : PQ
Matrix coefficients : BT.2020 non-constant
Statistics Tags Issue : no_variable_data 1970-01-01 00:00:00 / no_variable_data 2010-02-22 21:41:29
FromStats_BitRate : 10076079
FromStats_Duration : 01:28:36.792000000
FromStats_FrameCount : 127603
FromStats_StreamSize : 6696552134
Mastering display color primaries : Display P3
Mastering display luminance : min: 0.0001 cd/m2, max: 1000 cd/m2

Audio #1
ID : 2
Format : TrueHD
Format profile : TrueHD+Atmos / TrueHD
Codec ID : A_TRUEHD
Bit rate mode : Variable
Maximum bit rate : 5 088 kb/s
Channel(s) : Object Based / 8 channels
Channel positions : Object Based / Front: L C R, Side: L R, Back: L R, LFE
Sampling rate : / 48.0 kHz
Frame rate : 1 200.000 FPS (40 SPF)
Compression mode : Lossless
Delay relative to video : 3 s 0 ms
Title : Atmos 7.1
Language : English
Default : Yes
Forced : No
Statistics Tags Issue : no_variable_data 1970-01-01 00:00:00 / no_variable_data 2010-02-22 21:41:29
FromStats_BitRate : 3307548
FromStats_Duration : 01:28:34.834000000
FromStats_FrameCount : 6377800
FromStats_StreamSize : 2197383934

Audio #2
ID : 3
Format : AC-3
Format/Info : Audio Coding 3
Codec ID : A_AC3
Duration : 1 h 28 min
Bit rate mode : Constant
Bit rate : 640 kb/s
Channel(s) : 6 channels
Channel positions : Front: L C R, Side: L R, LFE
Sampling rate : 48.0 kHz
Frame rate : 31.250 FPS (1536 SPF)
Bit depth : 16 bits
Compression mode : Lossy
Delay relative to video : 3 s 0 ms
Stream size : 406 MiB (5%)
Title : AC-3 5.1
Language : English
Service kind : Complete Main
Default : No
Forced : No
Statistics Tags Issue : no_variable_data 1970-01-01 00:00:00 / no_variable_data 2010-02-22 21:41:29
FromStats_BitRate : 640000
FromStats_Duration : 01:28:34.848000000
FromStats_FrameCount : 166089
FromStats_StreamSize : 425187840

Text #1
ID : 4
Format : UTF-8
Codec ID : S_TEXT/UTF8
Codec ID/Info : UTF-8 Plain Text
Title : Stripped SRT
Language : English
Default : No
Forced : No
Statistics Tags Issue : no_variable_data 1970-01-01 00:00:00 / no_variable_data 2010-02-22 21:41:29
FromStats_BitRate : 50
FromStats_Duration : 01:26:41.667000000
FromStats_FrameCount : 1312
FromStats_StreamSize : 32808

Text #2
ID : 5
Format : UTF-8
Codec ID : S_TEXT/UTF8
Codec ID/Info : UTF-8 Plain Text
Title : SDH SRT
Language : English
Default : No
Forced : No
Statistics Tags Issue : no_variable_data 1970-01-01 00:00:00 / no_variable_data 2010-02-22 21:41:29
FromStats_BitRate : 59
FromStats_Duration : 01:27:02.000000000
FromStats_FrameCount : 1579
FromStats_StreamSize : 38991

Text #3
ID : 6
Format : PGS
Muxing mode : zlib
Codec ID : S_HDMV/PGS
Codec ID/Info : Picture based subtitle format used on BDs/HD-DVDs
Title : SDH
Language : English
Default : No
Forced : No
Statistics Tags Issue : no_variable_data 1970-01-01 00:00:00 / no_variable_data 2010-02-22 21:41:29
FromStats_BitRate : 37271
FromStats_Duration : 01:27:02.000000000
FromStats_FrameCount : 3158
FromStats_StreamSize : 24329026

Menu
00:00:00.000 : en:00:00:00.000
00:04:01.792 : en:00:04:01.792
00:09:15.083 : en:00:09:15.083
00:16:30.375 : en:00:16:30.375
00:21:08.458 : en:00:21:08.458
00:25:49.917 : en:00:25:49.917
00:36:19.875 : en:00:36:19.875
00:45:28.417 : en:00:45:28.417
00:52:57.375 : en:00:52:57.375
00:57:18.208 : en:00:57:18.208
01:07:41.375 : en:01:07:41.375
01:17:08.458 : en:01:17:08.458

Download

download 4k hdr movies download 4k hdr movies

Watch a movie trailer - Early Man 4K 2018 Ultra HD 2160p
Comments and Feedback
Add your comment:
Your name:
Your E-Mail:
Code:
reload, if the code cannot be seen
Enter code: