Select movie Search movie Close search My Account

The Kid Who Would Be King 4K 2019 Ultra HD 2160p

The Kid Who Would Be King 4K 2019 Ultra HD 2160p
BDRemux / BDRip
Country: UK | USA
Time: 2h
IMDB: 6.0
Director: Joe Cornish
Actors: Louis Ashbourne Serkis, Denise Gough, Dean Chaumoo, Tom Taylor, Rhianna Dorris, Nathan Stewart-Jarrett, Noma Dumezweni, Rebecca Ferguson, Mark Bonnar, Angus Imrie, Louis Martin, Joey Ansah, Adam Leese, Alexandra Roach, Nick Mohammed

Story Movie

The Kid Who Would Be King 4K 2019 Ultra HD 2160p

The film The Kid Who Would Be King 4K is very dynamic. The picture and the plot does not stop for a minute. The plot is beautiful because it flows like water - quickly and unpredictably. Installation is simply made on all 100 of 10 points. The UK has made a great baby fantasy for the whole world (especially for those who love knights and read about King Arthur).

Friendship, the code of honor of the knights, the teenager Merlin - all this is shown simply by a supervisual picture. The film 4k content download impresses with its dynamism and visuality. This is a true Ultra HD quality for children. The knight's code of honor and friendship is what matters most in the film.

Review 4K Movie

The Kid Who Would Be King 4K was supposed to be fantastic fun. The cycle about King Arthur today is undeservedly forgotten, and it is always nice to look at something that is imbued with children's idealism. So science fiction for children, even with a retro flavor, could well become a hit. However, something in the "King" is not enough. It seems that everything that happens is a sort of parasitism on the ideas of the great and powerful "Harry Potter". Not wanting to make any real statements other than “believe yourself to the end” or “friendship is good”, The Kid Who Would Be King UHD is stuck in a rather naive work: pleasant and frivolous for children (who, after watching, are unlikely to be asked to introduce them to adapted epic of King Arthur) and quite timid for adults.

So, an adventure film for the whole family tells about a boy Alex.

Although The Kid Who Would Be King Ultra HD follows the standard template for films for children, there is still some adaptation to the modern day. In general, such trifles as the awareness of young men of their chosenness, lessons in teamwork, problems with the father, etc., are transmitted in an adequate form. The scenario is made according to all canons, but still outside the gap from the surrounding reality: even Alex’s very purpose to be a leader is echoed by the modern “Breckit” UK.

Such tactics, of course, clumsy and political remarks, even if hovering somewhere at the headline level of newspapers in the frame, have been added for wit. However, even with this subtext, “The King” does not work very well. Adventure scenario is simply inaccurate. As soon as Alex and his knights set off on a journey, it does not deviate from its predetermined story path. References to Arturian are floated here and there, however, they are not particularly needed: they are simply out of context. Most action scenes are clumsy and visually confusing. Yes, and the characters, to be honest, do not have a special character: it seems that even squabbles among the central heroes are served as if on cue - everything is too indistinct.

The "King" was even longer than necessary: ​​Alex's journey is charming, but no more. Any emotional involvement from viewing is difficult to achieve, and with unnecessary scenes overdo it. Perhaps at times in the film 4k content download an interesting message hurts (for example, to try to make allies out of enemies), but he also chokes: to recall after watching something meaningful from this film becomes simply impossible.

Mediainfo

movie BDRemux Video
ID : 1
Format : HEVC
Format/Info : High Efficiency Video Coding
Commercial name : HDR10
Format profile : Main 10@L5.1@High
Codec ID : V_MPEGH/ISO/HEVC
Duration : 2 h 0 min
Bit rate : 48.3 Mb/s
Width : 3 840 pixels
Height : 2 160 pixels
Display aspect ratio : 16:9
Frame rate mode : Constant
Frame rate : 23.976 (24000/1001) FPS
Color space : YUV
Chroma subsampling : 4:2:0 (Type 2)
Bit depth : 10 bits
Bits/(Pixel*Frame) : 0.243
Stream size : 40.5 GiB (82%)
Title : The.Kid.Who.Would.Be.King.2019.2160p.BluRay.REMUX.HEVC.DTS-HD.MA.TrueHD.7.1.Atmos
Default : Yes
Forced : No
Color range : Limited
Color primaries : BT.2020
Transfer characteristics : PQ
Matrix coefficients : BT.2020 non-constant
Mastering display color primaries : Display P3
Mastering display luminance : min: 0.0050 cd/m2, max: 1000 cd/m2

Audio #1
ID : 2
Format : MLP FBA 16-ch
Format/Info : Meridian Lossless Packing FBA with 16-channel presentation
Commercial name : Dolby TrueHD with Dolby Atmos
Codec ID : A_TRUEHD
Duration : 2 h 0 min
Bit rate mode : Variable
Bit rate : 4 449 kb/s
Maximum bit rate : 8 607 kb/s
Channel(s) : 8 channels
Channel layout : L R C LFE Ls Rs Lb Rb
Sampling rate : 48.0 kHz
Frame rate : 1 200.000 FPS (40 SPF)
Compression mode : Lossless
Stream size : 3.73 GiB (8%)
Title : The.Kid.Who.Would.Be.King.2019.2160p.BluRay.REMUX.HEVC.DTS-HD.MA.TrueHD.7.1.Atmos
Language : English
Default : Yes
Forced : No
Number of dynamic objects : 13
Bed channel count : 1 channel
Bed channel configuration : LFE

Audio #2
ID : 3
Format : DTS XLL
Format/Info : Digital Theater Systems
Commercial name : DTS-HD Master Audio
Codec ID : A_DTS
Duration : 2 h 0 min
Bit rate mode : Variable
Bit rate : 4 033 kb/s
Channel(s) : 8 channels
Channel layout : C L R LFE Lb Rb Lss Rss
Sampling rate : 48.0 kHz
Frame rate : 93.750 FPS (512 SPF)
Bit depth : 24 bits
Compression mode : Lossless
Delay relative to video : -27 ms
Stream size : 3.38 GiB (7%)
Title : The.Kid.Who.Would.Be.King.2019.2160p.BluRay.REMUX.HEVC.DTS-HD.MA.TrueHD.7.1.Atmos
Language : English
Default : No
Forced : No

Audio #3
ID : 4
Format : AC-3
Format/Info : Audio Coding 3
Commercial name : Dolby Digital
Codec ID : A_AC3
Duration : 2 h 0 min
Bit rate mode : Constant
Bit rate : 640 kb/s
Channel(s) : 6 channels
Channel layout : L R C LFE Ls Rs
Sampling rate : 48.0 kHz
Frame rate : 31.250 FPS (1536 SPF)
Bit depth : 16 bits
Compression mode : Lossy
Stream size : 550 MiB (1%)
Title : The.Kid.Who.Would.Be.King.2019.2160p.BluRay.REMUX.HEVC.DTS-HD.MA.TrueHD.7.1.Atmos
Language : English
Service kind : Complete Main
Default : No
Forced : No

Audio #4
ID : 5
Format : AC-3
Format/Info : Audio Coding 3
Commercial name : Dolby Digital
Codec ID : A_AC3
Duration : 2 h 0 min
Bit rate mode : Constant
Bit rate : 448 kb/s
Channel(s) : 6 channels
Channel layout : L R C LFE Ls Rs
Sampling rate : 48.0 kHz
Frame rate : 31.250 FPS (1536 SPF)
Bit depth : 16 bits
Compression mode : Lossy
Delay relative to video : 5 ms
Stream size : 385 MiB (1%)
Title : The.Kid.Who.Would.Be.King.2019.2160p.BluRay.REMUX.HEVC.DTS-HD.MA.TrueHD.7.1.Atmos
Language : English
Service kind : Complete Main
Default : No
Forced : No

Audio #5
ID : 6
Format : AC-3
Format/Info : Audio Coding 3
Commercial name : Dolby Digital
Codec ID : A_AC3
Duration : 2 h 0 min
Bit rate mode : Constant
Bit rate : 448 kb/s
Channel(s) : 6 channels
Channel layout : L R C LFE Ls Rs
Sampling rate : 48.0 kHz
Frame rate : 31.250 FPS (1536 SPF)
Bit depth : 16 bits
Compression mode : Lossy
Delay relative to video : 5 ms
Stream size : 385 MiB (1%)
Title : The.Kid.Who.Would.Be.King.2019.2160p.BluRay.REMUX.HEVC.DTS-HD.MA.TrueHD.7.1.Atmos
Language : Spanish
Service kind : Complete Main
Default : No
Forced : No

Audio #6
ID : 7
Format : AC-3
Format/Info : Audio Coding 3
Commercial name : Dolby Digital
Codec ID : A_AC3
Duration : 2 h 0 min
Bit rate mode : Constant
Bit rate : 448 kb/s
Channel(s) : 6 channels
Channel layout : L R C LFE Ls Rs
Sampling rate : 48.0 kHz
Frame rate : 31.250 FPS (1536 SPF)
Bit depth : 16 bits
Compression mode : Lossy
Delay relative to video : 5 ms
Stream size : 385 MiB (1%)
Title : The.Kid.Who.Would.Be.King.2019.2160p.BluRay.REMUX.HEVC.DTS-HD.MA.TrueHD.7.1.Atmos
Language : French
Service kind : Complete Main
Default : No
Forced : No

Text #1
ID : 8
Format : UTF-8
Codec ID : S_TEXT/UTF8
Codec ID/Info : UTF-8 Plain Text
Duration : 1 h 59 min
Bit rate : 53 b/s
Count of elements : 1633
Stream size : 46.8 KiB (0%)
Title : English-SRT
Language : English
Default : Yes
Forced : No

Text #2
ID : 9
Format : UTF-8
Codec ID : S_TEXT/UTF8
Codec ID/Info : UTF-8 Plain Text
Duration : 1 h 59 min
Bit rate : 60 b/s
Count of elements : 1995
Stream size : 53.1 KiB (0%)
Title : English-SRT
Language : English
Default : No
Forced : No

Text #3
ID : 10
Format : PGS
Muxing mode : zlib
Codec ID : S_HDMV/PGS
Codec ID/Info : Picture based subtitle format used on BDs/HD-DVDs
Duration : 1 h 59 min
Bit rate : 68.9 kb/s
Count of elements : 4020
Stream size : 58.8 MiB (0%)
Title : English-PGS
Language : English
Default : No
Forced : No

Text #4
ID : 11
Format : PGS
Muxing mode : zlib
Codec ID : S_HDMV/PGS
Codec ID/Info : Picture based subtitle format used on BDs/HD-DVDs
Duration : 1 h 59 min
Bit rate : 55.7 kb/s
Count of elements : 3186
Stream size : 47.5 MiB (0%)
Title : Spanish-PGS
Language : Spanish
Default : No
Forced : No

Text #5
ID : 12
Format : PGS
Muxing mode : zlib
Codec ID : S_HDMV/PGS
Codec ID/Info : Picture based subtitle format used on BDs/HD-DVDs
Duration : 1 h 59 min
Bit rate : 57.2 kb/s
Count of elements : 3196
Stream size : 48.9 MiB (0%)
Title : French-PGS
Language : French
Default : No
Forced : No

Menu
00:00:00.000 : :Chapter 1
00:06:30.014 : :Chapter 2
00:11:41.200 : :Chapter 3
00:15:52.868 : :Chapter 4
00:20:21.762 : :Chapter 5
00:27:00.410 : :Chapter 6
00:34:03.958 : :Chapter 7
00:40:08.239 : :Chapter 8
00:43:21.181 : :Chapter 9
00:47:42.734 : :Chapter 10
00:55:36.291 : :Chapter 11
00:59:38.324 : :Chapter 12
01:06:51.215 : :Chapter 13
01:11:45.551 : :Chapter 14
01:17:40.614 : :Chapter 15
01:21:47.903 : :Chapter 16
01:25:25.537 : :Chapter 17
01:27:57.772 : :Chapter 18
01:31:37.033 : :Chapter 19
01:33:56.881 : :Chapter 20
01:38:30.779 : :Chapter 21
01:44:10.994 : :Chapter 22
01:50:55.357 : :Chapter 23
01:53:32.847 : :Chapter 24
movie BDRip Video
ID : 1
Format : HEVC
Format/Info : High Efficiency Video Coding
Commercial name : HDR10
Format profile : Main 10@L5.1@High
Codec ID : V_MPEGH/ISO/HEVC
Duration : 2 h 0 min
Bit rate : 12.6 Mb/s
Width : 3 840 pixels
Height : 1 608 pixels
Display aspect ratio : 2.40:1
Frame rate mode : Constant
Frame rate : 23.976 (24000/1001) FPS
Color space : YUV
Chroma subsampling : 4:2:0 (Type 2)
Bit depth : 10 bits
Bits/(Pixel*Frame) : 0.085
Stream size : 10.6 GiB (71%)
Writing library : x265 3.0_Au+14-c7e5878bdd31:[Windows][GCC 6.3.0][64 bit] 10bit
Encoding settings : cpuid=1111039 / frame-threads=4 / numa-pools=20 / wpp / no-pmode / no-pme / no-psnr / no-ssim / log-level=2 / input-csp=1 / input-res=3840x1608 / interlace=0 / total-frames=172800 / level-idc=51 / high-tier=1 / uhd-bd=0 / ref=4 / no-allow-non-conformance / repeat-headers / annexb / aud / hrd / info / hash=0 / no-temporal-layers / no-open-gop / min-keyint=1 / keyint=24 / gop-lookahead=0 / bframes=4 / b-adapt=2 / b-pyramid / bframe-bias=0 / rc-lookahead=25 / lookahead-slices=4 / scenecut=40 / radl=0 / no-splice / no-intra-refresh / ctu=64 / min-cu-size=8 / rect / no-amp / max-tu-size=32 / tu-inter-depth=1 / tu-intra-depth=1 / limit-tu=0 / rdoq-level=2 / dynamic-rd=0.00 / no-ssim-rd / signhide / no-tskip / nr-intra=0 / nr-inter=0 / no-constrained-intra / no-strong-intra-smoothing / max-merge=3 / limit-refs=3 / limit-modes / me=3 / subme=3 / merange=57 / temporal-mvp / weightp / no-weightb / no-analyze-src-pics / deblock=-3:-3 / no-sao / no-sao-non-deblock / rd=4 / no-early-skip / rskip / no-fast-intra / no-tskip-fast / no-cu-lossless / no-b-intra / no-splitrd-skip / rdpenalty=0 / psy-rd=2.00 / psy-rdoq=1.00 / no-rd-refine / no-lossless / cbqpoffs=0 / crqpoffs=0 / rc=crf / crf=17.0 / qcomp=0.60 / qpstep=4 / stats-write=0 / stats-read=0 / vbv-maxrate=160000 / vbv-bufsize=160000 / vbv-init=0.9 / crf-max=0.0 / crf-min=0.0 / ipratio=1.40 / pbratio=1.30 / aq-mode=2 / aq-strength=1.00 / cutree / zone-count=0 / no-strict-cbr / qg-size=32 / no-rc-grain / qpmax=69 / qpmin=0 / no-const-vbv / sar=1 / overscan=0 / videoformat=5 / range=0 / colorprim=9 / transfer=16 / colormatrix=9 / chromaloc=1 / chromaloc-top=2 / chromaloc-bottom=2 / display-window=0 / master-display=G(13250,34500)B(7500,3000)R(34000,16000)WP(15635,16450)L(10000000,50) / max-cll=0,0 / min-luma=0 / max-luma=1023 / log2-max-poc-lsb=8 / vui-timing-info / vui-hrd-info / slices=1 / no-opt-qp-pps / no-opt-ref-list-length-pps / no-multi-pass-opt-rps / scenecut-bias=0.05 / no-opt-cu-delta-qp / no-aq-motion / hdr / hdr-opt / no-dhdr10-opt / no-idr-recovery-sei / analysis-reuse-level=5 / scale-factor=0 / refine-intra=0 / refine-inter=0 / refine-mv=0 / refine-ctu-distortion=0 / no-limit-sao / ctu-info=0 / no-lowpass-dct / refine-analysis-type=0 / copy-pic=1 / max-ausize-factor=1.0 / no-dynamic-refine / no-single-sei / no-hevc-aq / no-svt / qp-adaptation-range=1.00
Default : Yes
Forced : No
Color range : Limited
Color primaries : BT.2020
Transfer characteristics : PQ
Matrix coefficients : BT.2020 non-constant
Mastering display color primaries : Display P3
Mastering display luminance : min: 0.0050 cd/m2, max: 1000 cd/m2

Audio #1
ID : 2
Format : MLP FBA 16-ch
Format/Info : Meridian Lossless Packing FBA with 16-channel presentation
Commercial name : Dolby TrueHD with Dolby Atmos
Codec ID : A_TRUEHD
Duration : 2 h 0 min
Bit rate mode : Variable
Bit rate : 4 449 kb/s
Maximum bit rate : 8 607 kb/s
Channel(s) : 8 channels
Channel layout : L R C LFE Ls Rs Lb Rb
Sampling rate : 48.0 kHz
Frame rate : 1 200.000 FPS (40 SPF)
Compression mode : Lossless
Stream size : 3.73 GiB (25%)
Language : English
Default : Yes
Forced : No
Number of dynamic objects : 13
Bed channel count : 1 channel
Bed channel configuration : LFE

Audio #2
ID : 3
Format : AC-3
Format/Info : Audio Coding 3
Commercial name : Dolby Digital
Codec ID : A_AC3
Duration : 2 h 0 min
Bit rate mode : Constant
Bit rate : 640 kb/s
Channel(s) : 6 channels
Channel layout : L R C LFE Ls Rs
Sampling rate : 48.0 kHz
Frame rate : 31.250 FPS (1536 SPF)
Bit depth : 16 bits
Compression mode : Lossy
Stream size : 550 MiB (4%)
Language : English
Service kind : Complete Main
Default : No
Forced : No

Text #1
ID : 4
Format : PGS
Muxing mode : zlib
Codec ID : S_HDMV/PGS
Codec ID/Info : Picture based subtitle format used on BDs/HD-DVDs
Duration : 1 h 59 min
Bit rate : 68.9 kb/s
Count of elements : 4020
Stream size : 58.8 MiB (0%)
Language : English
Default : No
Forced : No

Text #2
ID : 5
Format : PGS
Muxing mode : zlib
Codec ID : S_HDMV/PGS
Codec ID/Info : Picture based subtitle format used on BDs/HD-DVDs
Duration : 1 h 59 min
Bit rate : 55.7 kb/s
Count of elements : 3186
Stream size : 47.5 MiB (0%)
Language : Spanish
Default : No
Forced : No

Text #3
ID : 6
Format : PGS
Muxing mode : zlib
Codec ID : S_HDMV/PGS
Codec ID/Info : Picture based subtitle format used on BDs/HD-DVDs
Duration : 1 h 59 min
Bit rate : 57.2 kb/s
Count of elements : 3196
Stream size : 48.9 MiB (0%)
Language : French
Default : No
Forced : No

Download

download 4k hdr movies download 4k hdr movies

Watch a movie trailer - The Kid Who Would Be King 4K 2019 Ultra HD 2160p
Comments and Feedback
Add your comment:
Your name:
Your E-Mail:
Code:
reload, if the code cannot be seen
Enter code: