Select movie Search movie Close search My Account

Cars 2 4K 2011 Ultra HD 2160p

Cars 2 4K 2011 Ultra HD 2160p
BDRemux / BDRip
Country: USA
Time: 1h 46min
IMDB: 6,1
Director: John Lasseter, Bradford Lewis
Actors: Larry the Cable Guy, Owen Wilson, Michael Caine, Emily Mortimer, Eddie Izzard, John Turturro, Brent Musburger, Joe Mantegna, Thomas Kretschmann, Peter Jacobson, Bonnie Hunt, Darrell Waltrip, Franco Nero, David Hobbs, Patrick Walker.

Story Movie

Cars 2 4K 2011 Ultra HD 2160p
Lightning McQueen and his friend Mater embark on an international journey - when McQueen gets a chance to compete in the world's fastest cars, the World Grand Prix. Stages of these prestigious races will make friends in Tokyo, on the embankments of Paris, on the coast of Italy, and on the streets of foggy London, download 4k file format on this site.

Review 4K Movie

Sometimes there are times when you again fully want to feel like a child and do things that are probably unusual for adults. Sometimes I want to plunge again at a time when every day I presented something new, some unexpected discoveries, acquaintances, etc. Sometimes you want to remove some internal restrictions, give free rein to children's fantasies and translate them into real life, or in some work.

When viewing “Wheelbarrows 2 Ultra HDR”, one gets the feeling that the authors from Pixar Studios did just that, they simply removed all their internal limitations and made a cartoon dream, possibly realizing all their childhood fantasies on the screen. In my opinion, all the other full-length works of this wonderful studio were done with an eye on the audience and mainly for them, and some of their very personal ideas were swept away and not included in the cartoon.

When creating "Wheelbarrows 2 Ultra HDR", as it seemed to me, most of them were taken into account only the internal desires of the authors of the studio, which led to the fact that the cartoon was not so restrained and measured as their other works. For better or worse, it's hard to say. On the one hand, the cartoon came out, perhaps not as deep and philosophical as the others, but on the other, it also gives a feeling of joy.

Yes, it seems that in the cartoon the ideas contained in it are not so fully disclosed as in other projects. It may have turned out to be very childish, but at the same time it has a certain charm and kindness, plus still wonderful old heroes and interesting new characters, through the relationships between which the themes of friendship and the fact that in certain situations you need to remain yourself without adapting to anyone and not doing those things that are unusual for you.

Returning to what was said a little earlier, I would also like to note that there was a feeling that when creating “Wheelbarrows 2 4K”, the authors were just themselves, adults with a children's soul, where the second significantly prevailed over the first, which affected all the cartoon, which is literally saturated with the atmosphere of “spy” films, which gave it a certain charm and dissimilarity to other animated projects. By the way, speaking of the dissimilarity, it is worth paying attention that “Cars 2 4K” are significantly different even from the original cartoon, released in 2006.

The first "Cars" were not so swift in terms of developing the plot and changing the current locations, the atmosphere in them was different, when they were viewed, it seemed to be in some other world where the main character was the small town of Radiator Spring, in which after a certain time, a lot of good things have been preserved and, most importantly, heroes who value each other, do not want to substitute each other or make someone bad. This cozy corner charmed with its warmth. In "Cars 2 UHD" this is almost absent, but there are many intrigues, spy gadgets, conspiracies, enemies and other things. This is not to say that the original cartoon turned out to be better than the sequel, they just are very different and delight in different ways and love them for something of their own.

“Cars 2 UHD”, probably, will not appeal to many, nevertheless, they are somewhat knocked out by what the Pixar studio did earlier, but I liked them: for their positiveness, a certain lightness and a certain morality, which are not especially prominent to the fore, but not lost against the background of interesting characters and visual merits of the picture.

Mediainfo

movie BDRemux Video
ID : 1
Format : HEVC
Format/Info : High Efficiency Video Coding
Format profile : Main 10@L5.1@High
HDR format : SMPTE ST 2086, HDR10 compatible
Codec ID : V_MPEGH/ISO/HEVC
Duration : 1 h 46 min
Bit rate : 41.9 Mb/s
Width : 3 840 pixels
Height : 2 160 pixels
Display aspect ratio : 16:9
Frame rate mode : Constant
Frame rate : 23.976 (24000/1001) FPS
Color space : YUV
Chroma subsampling : 4:2:0 (Type 2)
Bit depth : 10 bits
Bits/(Pixel*Frame) : 0.211
Stream size : 31.1 GiB (77%)
Title : Cars.2.2011.2160p.BluRay.REMUX.HEVC.TrueHD.7.1.Atmos
Writing library : ATEME Titan File 3.9.0 (4.9.0.0)
Language : English
Default : No
Forced : No
Color range : Limited
Color primaries : BT.2020
Transfer characteristics : PQ
Matrix coefficients : BT.2020 non-constant
Mastering display color primaries : Display P3
Mastering display luminance : min: 0.0000 cd/m2, max: 1000 cd/m2

Audio #1
ID : 2
Format : MLP FBA 16-ch
Format/Info : Meridian Lossless Packing FBA with 16-channel presentation
Commercial name : Dolby TrueHD with Dolby Atmos
Codec ID : A_TRUEHD
Duration : 1 h 46 min
Bit rate mode : Variable
Bit rate : 7 474 kb/s
Maximum bit rate : 6 894 kb/s
Channel(s) : 8 channels
Channel layout : L R C LFE Ls Rs Lb Rb
Sampling rate : 48.0 kHz
Frame rate : 1 200.000 FPS (40 SPF)
Compression mode : Lossless
Stream size : 5.55 GiB (14%)
Title : Cars.2.2011.2160p.BluRay.REMUX.HEVC.TrueHD.7.1.Atmos
Language : English
Default : Yes
Forced : No
Number of dynamic objects : 13
Bed channel count : 1 channel
Bed channel configuration : LFE

Audio #2
ID : 3
Format : AC-3
Format/Info : Audio Coding 3
Commercial name : Dolby Digital
Codec ID : A_AC3
Duration : 1 h 46 min
Bit rate mode : Constant
Bit rate : 640 kb/s
Channel(s) : 6 channels
Channel layout : L R C LFE Ls Rs
Sampling rate : 48.0 kHz
Frame rate : 31.250 FPS (1536 SPF)
Bit depth : 16 bits
Compression mode : Lossy
Stream size : 486 MiB (1%)
Title : Cars.2.2011.2160p.BluRay.REMUX.HEVC.TrueHD.7.1.Atmos
Language : English
Service kind : Complete Main
Default : No
Forced : No

Audio #3
ID : 4
Format : E-AC-3
Format/Info : Enhanced AC-3
Commercial name : Dolby Digital Plus
Format profile : Blu-ray Disc
Codec ID : A_EAC3
Duration : 1 h 46 min
Bit rate mode : Constant
Bit rate : 896 kb/s
Channel(s) : 8 channels
Channel layout : L R C LFE Ls Rs Lb Rb
Sampling rate : 48.0 kHz
Frame rate : 31.250 FPS (1536 SPF)
Compression mode : Lossy
Stream size : 681 MiB (2%)
Title : Cars.2.2011.2160p.BluRay.REMUX.HEVC.TrueHD.7.1.Atmos
Language : English
Service kind : Complete Main
Default : No
Forced : No

Audio #4
ID : 5
Format : AC-3
Format/Info : Audio Coding 3
Commercial name : Dolby Digital
Codec ID : A_AC3
Duration : 1 h 46 min
Bit rate mode : Constant
Bit rate : 512 kb/s
Channel(s) : 6 channels
Channel layout : L R C LFE Ls Rs
Sampling rate : 48.0 kHz
Frame rate : 31.250 FPS (1536 SPF)
Bit depth : 16 bits
Compression mode : Lossy
Stream size : 389 MiB (1%)
Title : Cars.2.2011.2160p.BluRay.REMUX.HEVC.TrueHD.7.1.Atmos
Language : English
Service kind : Complete Main
Default : No
Forced : No

Audio #5
ID : 6
Format : AC-3
Format/Info : Audio Coding 3
Commercial name : Dolby Digital
Codec ID : A_AC3
Duration : 1 h 46 min
Bit rate mode : Constant
Bit rate : 640 kb/s
Channel(s) : 6 channels
Channel layout : L R C LFE Ls Rs
Sampling rate : 48.0 kHz
Frame rate : 31.250 FPS (1536 SPF)
Bit depth : 16 bits
Compression mode : Lossy
Stream size : 486 MiB (1%)
Title : Cars.2.2011.2160p.BluRay.REMUX.HEVC.TrueHD.7.1.Atmos
Language : English
Service kind : Complete Main
Default : No
Forced : No

Audio #6
ID : 7
Format : AC-3
Format/Info : Audio Coding 3
Commercial name : Dolby Digital
Codec ID : A_AC3
Duration : 1 h 46 min
Bit rate mode : Constant
Bit rate : 320 kb/s
Channel(s) : 2 channels
Channel layout : L R
Sampling rate : 48.0 kHz
Frame rate : 31.250 FPS (1536 SPF)
Bit depth : 16 bits
Compression mode : Lossy
Stream size : 243 MiB (1%)
Title : Cars.2.2011.2160p.BluRay.REMUX.HEVC.TrueHD.7.1.Atmos
Language : English
Service kind : Complete Main
Default : No
Forced : No

Audio #7
ID : 8
Format : AC-3
Format/Info : Audio Coding 3
Commercial name : Dolby Digital
Codec ID : A_AC3
Duration : 1 h 46 min
Bit rate mode : Constant
Bit rate : 320 kb/s
Channel(s) : 2 channels
Channel layout : L R
Sampling rate : 48.0 kHz
Frame rate : 31.250 FPS (1536 SPF)
Bit depth : 16 bits
Compression mode : Lossy
Stream size : 243 MiB (1%)
Title : Cars.2.2011.2160p.BluRay.REMUX.HEVC.TrueHD.7.1.Atmos
Language : English
Service kind : Complete Main
Default : No
Forced : No

Audio #8
ID : 9
Format : E-AC-3
Format/Info : Enhanced AC-3
Commercial name : Dolby Digital Plus
Format profile : Blu-ray Disc
Codec ID : A_EAC3
Duration : 1 h 46 min
Bit rate mode : Constant
Bit rate : 896 kb/s
Channel(s) : 8 channels
Channel layout : L R C LFE Ls Rs Lb Rb
Sampling rate : 48.0 kHz
Frame rate : 31.250 FPS (1536 SPF)
Compression mode : Lossy
Stream size : 681 MiB (2%)
Title : Cars.2.2011.2160p.BluRay.REMUX.HEVC.TrueHD.7.1.Atmos
Language : Spanish
Service kind : Complete Main
Default : No
Forced : No

Audio #9
ID : 10
Format : AC-3
Format/Info : Audio Coding 3
Commercial name : Dolby Digital
Codec ID : A_AC3
Duration : 1 h 46 min
Bit rate mode : Constant
Bit rate : 512 kb/s
Channel(s) : 6 channels
Channel layout : L R C LFE Ls Rs
Sampling rate : 48.0 kHz
Frame rate : 31.250 FPS (1536 SPF)
Bit depth : 16 bits
Compression mode : Lossy
Stream size : 389 MiB (1%)
Title : Cars.2.2011.2160p.BluRay.REMUX.HEVC.TrueHD.7.1.Atmos
Language : Spanish
Service kind : Complete Main
Default : No
Forced : No

Text #1
ID : 11
Format : UTF-8
Codec ID : S_TEXT/UTF8
Codec ID/Info : UTF-8 Plain Text
Duration : 1 h 37 min
Bit rate : 83 b/s
Count of elements : 1536
Stream size : 59.7 KiB (0%)
Title : English-SRT
Language : English
Default : Yes
Forced : No

Text #2
ID : 12
Format : PGS
Muxing mode : zlib
Codec ID : S_HDMV/PGS
Codec ID/Info : Picture based subtitle format used on BDs/HD-DVDs
Duration : 1 h 37 min
Bit rate : 61.9 kb/s
Count of elements : 3333
Stream size : 43.1 MiB (0%)
Title : English-PGS
Language : English
Default : No
Forced : No

Text #3
ID : 13
Format : PGS
Muxing mode : zlib
Codec ID : S_HDMV/PGS
Codec ID/Info : Picture based subtitle format used on BDs/HD-DVDs
Duration : 1 h 37 min
Bit rate : 50.8 kb/s
Count of elements : 2884
Stream size : 35.4 MiB (0%)
Title : Spanish-PGS
Language : Spanish
Default : No
Forced : No

Menu
00:00:00.000 : en:Chapter 01
00:01:30.006 : en:Chapter 02
00:04:48.329 : en:Chapter 03
00:07:44.464 : en:Chapter 04
00:12:08.519 : en:Chapter 05
00:17:49.777 : en:Chapter 06
00:20:02.159 : en:Chapter 07
00:22:52.329 : en:Chapter 08
00:26:35.343 : en:Chapter 09
00:30:30.995 : en:Chapter 10
00:32:42.794 : en:Chapter 11
00:34:14.343 : en:Chapter 12
00:37:16.400 : en:Chapter 13
00:40:44.859 : en:Chapter 14
00:42:53.988 : en:Chapter 15
00:46:19.401 : en:Chapter 16
00:46:58.732 : en:Chapter 17
00:49:49.361 : en:Chapter 18
00:53:57.234 : en:Chapter 19
00:54:58.086 : en:Chapter 20
00:57:37.036 : en:Chapter 21
00:59:28.565 : en:Chapter 22
01:02:17.608 : en:Chapter 23
01:05:57.036 : en:Chapter 24
01:12:32.598 : en:Chapter 25
01:14:06.733 : en:Chapter 26
01:15:25.020 : en:Chapter 27
01:21:13.618 : en:Chapter 28
01:23:23.081 : en:Chapter 29
01:29:07.759 : en:Chapter 30
01:31:48.961 : en:Chapter 31
01:32:42.056 : en:Chapter 32
01:38:19.393 : en:Chapter 33
movie BDRip Video
ID : 1
Format : HEVC
Format/Info : High Efficiency Video Coding
Format profile : Main 10@L5.1@High
HDR format : SMPTE ST 2086, HDR10 compatible
Codec ID : V_MPEGH/ISO/HEVC
Duration : 1 h 46 min
Bit rate : 6 650 kb/s
Width : 3 840 pixels
Height : 1 608 pixels
Display aspect ratio : 2.40:1
Frame rate mode : Constant
Frame rate : 23.976 (24000/1001) FPS
Color space : YUV
Chroma subsampling : 4:2:0 (Type 2)
Bit depth : 10 bits
Bits/(Pixel*Frame) : 0.045
Stream size : 4.94 GiB (45%)
Writing library : x265 3.1+11-de920e0a3183:[Windows][GCC 6.3.0][64 bit] 10bit
Encoding settings : cpuid=1176575 / frame-threads=5 / numa-pools=36 / wpp / no-pmode / no-pme / no-psnr / no-ssim / log-level=2 / input-csp=1 / input-res=3840x1608 / interlace=0 / total-frames=152851 / level-idc=51 / high-tier=1 / uhd-bd=0 / ref=4 / no-allow-non-conformance / repeat-headers / annexb / aud / hrd / info / hash=0 / no-temporal-layers / no-open-gop / min-keyint=1 / keyint=24 / gop-lookahead=0 / bframes=4 / b-adapt=2 / b-pyramid / bframe-bias=0 / rc-lookahead=25 / lookahead-slices=4 / scenecut=40 / radl=0 / no-splice / no-intra-refresh / ctu=64 / min-cu-size=8 / rect / no-amp / max-tu-size=32 / tu-inter-depth=1 / tu-intra-depth=1 / limit-tu=0 / rdoq-level=2 / dynamic-rd=0.00 / no-ssim-rd / signhide / no-tskip / nr-intra=0 / nr-inter=0 / no-constrained-intra / no-strong-intra-smoothing / max-merge=3 / limit-refs=3 / limit-modes / me=3 / subme=3 / merange=57 / temporal-mvp / no-hme / weightp / no-weightb / no-analyze-src-pics / deblock=-3:-3 / no-sao / no-sao-non-deblock / rd=4 / no-early-skip / rskip / no-fast-intra / no-tskip-fast / no-cu-lossless / no-b-intra / no-splitrd-skip / rdpenalty=0 / psy-rd=2.00 / psy-rdoq=1.00 / no-rd-refine / no-lossless / cbqpoffs=0 / crqpoffs=0 / rc=crf / crf=17.0 / qcomp=0.60 / qpstep=4 / stats-write=0 / stats-read=0 / vbv-maxrate=160000 / vbv-bufsize=160000 / vbv-init=0.9 / crf-max=0.0 / crf-min=0.0 / ipratio=1.40 / pbratio=1.30 / aq-mode=2 / aq-strength=1.00 / cutree / zone-count=0 / no-strict-cbr / qg-size=32 / no-rc-grain / qpmax=69 / qpmin=0 / no-const-vbv / sar=1 / overscan=0 / videoformat=5 / range=0 / colorprim=9 / transfer=16 / colormatrix=9 / chromaloc=1 / chromaloc-top=2 / chromaloc-bottom=2 / display-window=0 / master-display=G(13250,34500)B(7500,3000)R(34000,16000)WP(15635,16450)L(10000000,0)cll=0,0 / min-luma=0 / max-luma=1023 / log2-max-poc-lsb=8 / vui-timing-info / vui-hrd-info / slices=1 / no-opt-qp-pps / no-opt-ref-list-length-pps / no-multi-pass-opt-rps / scenecut-bias=0.05 / no-opt-cu-delta-qp / no-aq-motion / hdr / hdr-opt / no-dhdr10-opt / no-idr-recovery-sei / analysis-reuse-level=5 / scale-factor=0 / refine-intra=0 / refine-inter=0 / refine-mv=0 / refine-ctu-distortion=0 / no-limit-sao / ctu-info=0 / no-lowpass-dct / refine-analysis-type=0 / copy-pic=1 / max-ausize-factor=1.0 / no-dynamic-refine / no-single-sei / no-hevc-aq / no-svt / no-field / qp-adaptation-range=1.00
Default : Yes
Forced : No
Color range : Limited
Color primaries : BT.2020
Transfer characteristics : PQ
Matrix coefficients : BT.2020 non-constant
Mastering display color primaries : Display P3
Mastering display luminance : min: 0.0000 cd/m2, max: 1000 cd/m2

Audio #1
ID : 2
Format : MLP FBA 16-ch
Format/Info : Meridian Lossless Packing FBA with 16-channel presentation
Commercial name : Dolby TrueHD with Dolby Atmos
Codec ID : A_TRUEHD
Duration : 1 h 46 min
Bit rate mode : Variable
Bit rate : 7 474 kb/s
Maximum bit rate : 6 894 kb/s
Channel(s) : 8 channels
Channel layout : L R C LFE Ls Rs Lb Rb
Sampling rate : 48.0 kHz
Frame rate : 1 200.000 FPS (40 SPF)
Compression mode : Lossless
Stream size : 5.55 GiB (50%)
Language : English
Default : Yes
Forced : No
Number of dynamic objects : 13
Bed channel count : 1 channel
Bed channel configuration : LFE

Audio #2
ID : 3
Format : AC-3
Format/Info : Audio Coding 3
Commercial name : Dolby Digital
Codec ID : A_AC3
Duration : 1 h 46 min
Bit rate mode : Constant
Bit rate : 640 kb/s
Channel(s) : 6 channels
Channel layout : L R C LFE Ls Rs
Sampling rate : 48.0 kHz
Frame rate : 31.250 FPS (1536 SPF)
Bit depth : 16 bits
Compression mode : Lossy
Stream size : 486 MiB (4%)
Language : English
Service kind : Complete Main
Default : No
Forced : No

Text #1
ID : 4
Format : PGS
Muxing mode : zlib
Codec ID : S_HDMV/PGS
Codec ID/Info : Picture based subtitle format used on BDs/HD-DVDs
Duration : 1 h 37 min
Bit rate : 61.9 kb/s
Count of elements : 3333
Stream size : 43.1 MiB (0%)
Title : English SDH
Language : English
Default : No
Forced : No

Text #2
ID : 5
Format : PGS
Muxing mode : zlib
Codec ID : S_HDMV/PGS
Codec ID/Info : Picture based subtitle format used on BDs/HD-DVDs
Duration : 1 h 37 min
Bit rate : 50.8 kb/s
Count of elements : 2884
Stream size : 35.4 MiB (0%)
Title : Spanish
Language : Spanish
Default : No
Forced : No

Download

download 4k hdr movies

You bought a premium on Takefile. Contact the TakeFile support team, they will increase your traffic up to 512 gb every 48 hours.

download 4k hdr movies

Watch a movie trailer - Cars 2 4K 2011 Ultra HD 2160p
Comments and Feedback
Add your comment:
Your name:
Your E-Mail:
Enter the two words shown in the image: *