Select movie Search movie Close search My Account

The Huntsman: Winter's War 4K 2016 Ultra HD 2160p

The Huntsman: Winter's War 4K 2016 Ultra HD 2160p
BDRemux / BDRip
Country: USA
Time: 1h 54min
IMDB: 6.1
Director: Cedric Nicolas-Troyan
Actors: Chris Hemsworth, Charlize Theron, Jessica Chastain, Emily Blunt, Nick Frost, Rob Brydon, Sheridan Smith, Alexandra Roach, Sope Dirisu, Sam Hazeldine, Sam Claflin, Sophie Cookson, Conrad Khan, Niamh Walter, Nana Agyeman-Bediako...

Story Movie

Eric and fellow warrior Sara, raised as members of ice Queen Freya's army, try to conceal their forbidden love as they fight to survive the wicked intentions of both Freya and her sister Ravenna.

Review 4K Movie

I don't know why people complain about this one. I went in expecting a fantasy romp with beautiful but evil queens ... and that's exactly what I got! In spades! The other thing that stood out is that the actors are all top shelf. For guys like me, seeing *three* of the most gorgeous actresses appear together (Emily Blunt, Charlize Theron, Jessica Chastain) in a movie is a feast for the eyes. And they all can act! The supporting cast is great (bunch of awesome British guys) as well. The dialog is light- hearted and the love story believable. On top of all this, the story is pretty linear and makes sense. (In a fairy tale-way, of course, but what do you expect?) Most surprisingly, I did feel emotionally attached to the characters. Each had clear motivations and I felt for their plight. Lovers get separated then reunited, a mother loses a child and something snaps inside her, an evil queen wants revenge and power.

Overall, I can only recommend this movie. You won't get bored for a second and might even get emotional by the end.

Mediainfo

movie BDRemux Video
ID : 1
Format : HEVC
Format/Info : High Efficiency Video Coding
Format profile : Main 10@L5.1@High
Codec ID : V_MPEGH/ISO/HEVC
Duration : 2 h 0 min
Bit rate : 52.8 Mb/s
Width : 3 840 pixels
Height : 2 160 pixels
Display aspect ratio : 16:9
Frame rate mode : Constant
Frame rate : 23.976 (23976/1000) FPS
Original frame rate : 23.976 (24000/1001) FPS
Color space : YUV
Chroma subsampling : 4:2:0 (Type 2)
Bit depth : 10 bits
Bits/(Pixel*Frame) : 0.265
Stream size : 44.3 GiB (89%)
Title : The.Huntsman.Winters.War.2016.Extended.2160p.BluRay.REMUX.HEVC.DTS-X.7.1-FGT
Writing library : ATEME Titan KFE 3.7.3 (4.7.3.1003)
Default : Yes
Forced : No
Color range : Limited
Color primaries : BT.2020
Transfer characteristics : SMPTE ST 2084
Matrix coefficients : BT.2020 non-constant
Mastering display color primaries : R: x=0.680000 y=0.320000, G: x=0.265000 y=0.690000, B: x=0.150000 y=0.060000, White point: x=0.312700 y=0.329000
Mastering display luminance : min: 0.0050 cd/m2, max: 1000.0000 cd/m2
Maximum Content Light Level : 1000 cd/m2
Maximum Frame-Average Light Level : 400 cd/m2

Audio #1
ID : 2
Format : DTS
Format/Info : Digital Theater Systems
Format profile : X / MA / Core
Mode : 16
Format settings, Endianness : Big
Codec ID : A_DTS
Duration : 2 h 0 min
Bit rate mode : Variable / Variable / Constant
Bit rate : 3 840 kb/s / 3 840 kb/s / 1 509 kb/s
Channel(s) : Object Based / 8 channels / 6 channels
Channel positions : Object Based / Front: L C R, Side: L R, Back: L R, LFE / Front: L C R, Side: L R, LFE
Sampling rate : / 48.0 kHz / 48.0 kHz
Frame rate : 93.750 FPS (512 spf)
Bit depth : / 24 bits / 24 bits
Compression mode : / Lossless / Lossy
Stream size : 3.24 GiB (7%)
Title : The.Huntsman.Winters.War.2016.Extended.2160p.BluRay.REMUX.HEVC.DTS-X.7.1-FGT
Language : English
Default : Yes
Forced : No

Audio #2
ID : 3
Format : DTS
Format/Info : Digital Theater Systems
Mode : 16
Format settings, Endianness : Big
Codec ID : A_DTS
Duration : 2 h 0 min
Bit rate mode : Constant
Bit rate : 384 kb/s
Channel(s) : 2 channels
Channel positions : Front: L R
Sampling rate : 48.0 kHz
Frame rate : 93.750 FPS (512 spf)
Bit depth : 24 bits
Compression mode : Lossy
Stream size : 330 MiB (1%)
Title : The.Huntsman.Winters.War.2016.Extended.2160p.BluRay.REMUX.HEVC.DTS-X.7.1-FGT
Language : English
Default : No
Forced : No

Audio #3
ID : 4
Format : DTS
Format/Info : Digital Theater Systems
Mode : 16
Format settings, Endianness : Big
Codec ID : A_DTS
Duration : 2 h 0 min
Bit rate mode : Constant
Bit rate : 768 kb/s
Channel(s) : 6 channels
Channel positions : Front: L C R, Side: L R, LFE
Sampling rate : 48.0 kHz
Frame rate : 93.750 FPS (512 spf)
Bit depth : 24 bits
Compression mode : Lossy
Stream size : 660 MiB (1%)
Title : The.Huntsman.Winters.War.2016.Extended.2160p.BluRay.REMUX.HEVC.DTS-X.7.1-FGT
Language : Spanish
Default : No
Forced : No

Audio #4
ID : 5
Format : DTS
Format/Info : Digital Theater Systems
Mode : 16
Format settings, Endianness : Big
Codec ID : A_DTS
Duration : 2 h 0 min
Bit rate mode : Constant
Bit rate : 768 kb/s
Channel(s) : 6 channels
Channel positions : Front: L C R, Side: L R, LFE
Sampling rate : 48.0 kHz
Frame rate : 93.750 FPS (512 spf)
Bit depth : 24 bits
Compression mode : Lossy
Stream size : 660 MiB (1%)
Title : The.Huntsman.Winters.War.2016.Extended.2160p.BluRay.REMUX.HEVC.DTS-X.7.1-FGT
Language : French
Default : No
Forced : No

Audio #5
ID : 6
Format : AC-3
Format/Info : Audio Coding 3
Mode : Dolby Digital
Format settings, Endianness : Big
Codec ID : A_AC3
Duration : 2 h 0 min
Bit rate mode : Constant
Bit rate : 192 kb/s
Channel(s) : 2 channels
Channel positions : Front: L R
Sampling rate : 48.0 kHz
Frame rate : 31.250 FPS (1536 spf)
Bit depth : 16 bits
Compression mode : Lossy
Stream size : 165 MiB (0%)
Title : The.Huntsman.Winters.War.2016.Extended.2160p.BluRay.REMUX.HEVC.DTS-X.7.1-FGT
Language : English
Service kind : Complete Main
Default : No
Forced : No

Audio #6
ID : 7
Format : AC-3
Format/Info : Audio Coding 3
Mode : Dolby Digital
Format settings, Endianness : Big
Codec ID : A_AC3
Duration : 2 h 0 min
Bit rate mode : Constant
Bit rate : 192 kb/s
Channel(s) : 2 channels
Channel positions : Front: L R
Sampling rate : 48.0 kHz
Frame rate : 31.250 FPS (1536 spf)
Bit depth : 16 bits
Compression mode : Lossy
Stream size : 165 MiB (0%)
Title : The.Huntsman.Winters.War.2016.Extended.2160p.BluRay.REMUX.HEVC.DTS-X.7.1-FGT
Language : English
Service kind : Complete Main
Default : No
Forced : No

Text #1
ID : 8
Format : PGS
Muxing mode : zlib
Codec ID : S_HDMV/PGS
Codec ID/Info : Picture based subtitle format used on BDs/HD-DVDs
Duration : 1 h 59 min
Bit rate : 25.4 kb/s
Count of elements : 2652
Stream size : 21.7 MiB (0%)
Title : English-PGS
Language : English
Default : Yes
Forced : No

Text #2
ID : 9
Format : PGS
Muxing mode : zlib
Codec ID : S_HDMV/PGS
Codec ID/Info : Picture based subtitle format used on BDs/HD-DVDs
Duration : 1 h 59 min
Bit rate : 21.0 kb/s
Count of elements : 2276
Stream size : 17.9 MiB (0%)
Title : Spanish-PGS
Language : Spanish
Default : No
Forced : No

Text #3
ID : 10
Format : PGS
Muxing mode : zlib
Codec ID : S_HDMV/PGS
Codec ID/Info : Picture based subtitle format used on BDs/HD-DVDs
Duration : 1 h 59 min
Bit rate : 21.3 kb/s
Count of elements : 2202
Stream size : 18.2 MiB (0%)
Title : French-PGS
Language : French
Default : No
Forced : No

Text #4
ID : 11
Format : PGS
Muxing mode : zlib
Codec ID : S_HDMV/PGS
Codec ID/Info : Picture based subtitle format used on BDs/HD-DVDs
Duration : 1 h 58 min
Bit rate : 63 b/s
Count of elements : 22
Stream size : 54.9 KiB (0%)
Title : Spanish-FORCED-PGS
Language : Spanish
Default : No
Forced : No

Text #5
ID : 12
Format : PGS
Muxing mode : zlib
Codec ID : S_HDMV/PGS
Codec ID/Info : Picture based subtitle format used on BDs/HD-DVDs
Duration : 2 h 0 min
Bit rate : 53 b/s
Count of elements : 24
Stream size : 47.3 KiB (0%)
Title : French-FORCED-PGS
Language : French
Default : No
Forced : No

Menu
00:00:00.000 : en:Chapter 1
00:06:26.427 : en:Chapter 2
00:09:26.857 : en:Chapter 3
00:15:03.193 : en:Chapter 4
00:21:33.500 : en:Chapter 5
00:30:17.857 : en:Chapter 6
00:36:08.165 : en:Chapter 7
00:40:55.661 : en:Chapter 8
00:46:56.438 : en:Chapter 9
00:52:05.747 : en:Chapter 10
00:59:35.530 : en:Chapter 11
01:04:23.943 : en:Chapter 12
01:11:16.688 : en:Chapter 13
01:15:19.222 : en:Chapter 14
01:22:42.832 : en:Chapter 15
01:28:15.206 : en:Chapter 16
01:33:58.007 : en:Chapter 17
01:39:21.955 : en:Chapter 18
01:48:13.903 : en:Chapter 19
01:50:19.571 : en:Chapter 20
movie BDRip Video
ID : 1
Format : HEVC
Format/Info : High Efficiency Video Coding
Format profile : Main 10@L5.1@High
Codec ID : V_MPEGH/ISO/HEVC
Duration : 2 h 0 min
Bit rate : 13.6 Mb/s
Width : 3 840 pixels
Height : 1 600 pixels
Display aspect ratio : 2.40:1
Frame rate mode : Constant
Frame rate : 23.976 (24000/1001) FPS
Color space : YUV
Chroma subsampling : 4:2:0 (Type 2)
Bit depth : 10 bits
Bits/(Pixel*Frame) : 0.092
Stream size : 11.4 GiB (77%)
Writing library : x265 2.4+98-06217c0e0f5f:[Windows][GCC 6.2.1][64 bit] 10bit
Encoding settings : cpuid=1173503 / frame-threads=4 / numa-pools=20 / wpp / no-pmode / no-pme / no-psnr / no-ssim / log-level=2 / input-csp=1 / input-res=3840x1600 / interlace=0 / total-frames=172874 / level-idc=51 / high-tier=1 / uhd-bd=0 / ref=4 / no-allow-non-conformance / repeat-headers / annexb / aud / hrd / info / hash=0 / no-temporal-layers / no-open-gop / min-keyint=1 / keyint=24 / bframes=4 / b-adapt=2 / b-pyramid / bframe-bias=0 / rc-lookahead=25 / lookahead-slices=4 / scenecut=40 / no-intra-refresh / ctu=64 / min-cu-size=8 / rect / no-amp / max-tu-size=32 / tu-inter-depth=1 / tu-intra-depth=1 / limit-tu=0 / rdoq-level=2 / dynamic-rd=0.00 / no-ssim-rd / signhide / no-tskip / nr-intra=0 / nr-inter=0 / no-constrained-intra / no-strong-intra-smoothing / max-merge=3 / limit-refs=3 / limit-modes / me=3 / subme=3 / merange=57 / temporal-mvp / weightp / no-weightb / no-analyze-src-pics / deblock=-2:-2 / no-sao / no-sao-non-deblock / rd=4 / no-early-skip / rskip / no-fast-intra / no-tskip-fast / no-cu-lossless / no-b-intra / rdpenalty=0 / psy-rd=2.00 / psy-rdoq=1.00 / no-rd-refine / analysis-reuse-mode=0 / no-lossless / cbqpoffs=0 / crqpoffs=0 / rc=crf / crf=17.0 / qcomp=0.60 / qpstep=4 / stats-write=0 / stats-read=0 / vbv-maxrate=160000 / vbv-bufsize=160000 / vbv-init=0.9 / crf-max=0.0 / crf-min=0.0 / ipratio=1.40 / pbratio=1.30 / aq-mode=1 / aq-strength=1.00 / cutree / zone-count=0 / no-strict-cbr / qg-size=32 / no-rc-grain / qpmax=69 / qpmin=0 / no-const-vbv / sar=1 / overscan=0 / videoformat=5 / range=0 / colorprim=9 / transfer=16 / colormatrix=9 / chromaloc=1 / chromaloc-top=2 / chromaloc-bottom=2 / display-window=0 / master-display=G(13250,34500)B(7500,3000)R(34000,16000)WP(15635,16450)L(10000000,50) / max-cll=1000,400 / min-luma=0 / max-luma=1023 / log2-max-poc-lsb=8 / vui-timing-info / vui-hrd-info / slices=1 / opt-qp-pps / opt-ref-list-length-pps / no-multi-pass-opt-rps / scenecut-bias=0.05 / no-opt-cu-delta-qp / no-aq-motion / hdr / hdr-opt / no-dhdr10-opt / analysis-reuse-level=5 / scale-factor=0 / refine-intra=0 / refine-inter=0 / refine-mv=0 / no-limit-sao / ctu-info=0
Default : Yes
Forced : No
Color range : Limited
Color primaries : BT.2020
Transfer characteristics : SMPTE ST 2084
Matrix coefficients : BT.2020 non-constant
Mastering display color primaries : R: x=0.680000 y=0.320000, G: x=0.265000 y=0.690000, B: x=0.150000 y=0.060000, White point: x=0.312700 y=0.329000
Mastering display luminance : min: 0.0050 cd/m2, max: 1000.0000 cd/m2
Maximum Content Light Level : 1000 cd/m2
Maximum Frame-Average Light Level : 400 cd/m2

Audio #1
ID : 2
Format : DTS
Format/Info : Digital Theater Systems
Format profile : X / MA / Core
Mode : 16
Format settings, Endianness : Big
Codec ID : A_DTS
Duration : 2 h 0 min
Bit rate mode : Variable / Variable / Constant
Bit rate : 3 840 kb/s / 3 840 kb/s / 1 509 kb/s
Channel(s) : Object Based / 8 channels / 6 channels
Channel positions : Object Based / Front: L C R, Side: L R, Back: L R, LFE / Front: L C R, Side: L R, LFE
Sampling rate : / 48.0 kHz / 48.0 kHz
Frame rate : 93.750 FPS (512 spf)
Bit depth : / 24 bits / 24 bits
Compression mode : / Lossless / Lossy
Stream size : 3.24 GiB (22%)
Language : English
Default : Yes
Forced : No

Audio #2
ID : 3
Format : AAC
Format/Info : Advanced Audio Codec
Format profile : LC
Codec ID : A_AAC
Duration : 2 h 0 min
Bit rate : 114 kb/s
Channel(s) : 2 channels
Channel positions : Front: L R
Sampling rate : 48.0 kHz
Frame rate : 46.875 FPS (1024 spf)
Compression mode : Lossy
Delay relative to video : 9 ms
Stream size : 97.9 MiB (1%)
Title : Commentary 1 with Director Cedric Nicolas-Troyan
Language : English
Default : No
Forced : No

Audio #3
ID : 4
Format : AAC
Format/Info : Advanced Audio Codec
Format profile : LC
Codec ID : A_AAC
Duration : 2 h 0 min
Bit rate : 114 kb/s
Channel(s) : 2 channels
Channel positions : Front: L R
Sampling rate : 48.0 kHz
Frame rate : 46.875 FPS (1024 spf)
Compression mode : Lossy
Delay relative to video : 9 ms
Stream size : 97.9 MiB (1%)
Title : Commentary 2 with Director Cedric Nicolas-Troyan
Language : English
Default : No
Forced : No

Text #1
ID : 5
Format : PGS
Muxing mode : zlib
Codec ID : S_HDMV/PGS
Codec ID/Info : Picture based subtitle format used on BDs/HD-DVDs
Duration : 1 h 59 min
Bit rate : 25.4 kb/s
Count of elements : 2652
Stream size : 21.7 MiB (0%)
Title : English SDH (gray)
Language : English
Default : No
Forced : No

Text #2
ID : 6
Format : PGS
Muxing mode : zlib
Codec ID : S_HDMV/PGS
Codec ID/Info : Picture based subtitle format used on BDs/HD-DVDs
Duration : 1 h 59 min
Bit rate : 25.4 kb/s
Count of elements : 2652
Stream size : 21.7 MiB (0%)
Title : English SDH (white)
Language : English
Default : No
Forced : No

Text #3
ID : 7
Format : PGS
Muxing mode : zlib
Codec ID : S_HDMV/PGS
Codec ID/Info : Picture based subtitle format used on BDs/HD-DVDs
Duration : 1 h 59 min
Bit rate : 21.0 kb/s
Count of elements : 2276
Stream size : 17.9 MiB (0%)
Title : Spanish (gray)
Language : Spanish
Default : No
Forced : No

Text #4
ID : 8
Format : PGS
Muxing mode : zlib
Codec ID : S_HDMV/PGS
Codec ID/Info : Picture based subtitle format used on BDs/HD-DVDs
Duration : 1 h 59 min
Bit rate : 21.0 kb/s
Count of elements : 2276
Stream size : 17.9 MiB (0%)
Title : Spanish (white)
Language : Spanish
Default : No
Forced : No

Text #5
ID : 9
Format : PGS
Muxing mode : zlib
Codec ID : S_HDMV/PGS
Codec ID/Info : Picture based subtitle format used on BDs/HD-DVDs
Duration : 1 h 59 min
Bit rate : 21.3 kb/s
Count of elements : 2202
Stream size : 18.2 MiB (0%)
Title : French (gray)
Language : French
Default : No
Forced : No

Text #6
ID : 10
Format : PGS
Muxing mode : zlib
Codec ID : S_HDMV/PGS
Codec ID/Info : Picture based subtitle format used on BDs/HD-DVDs
Duration : 1 h 59 min
Bit rate : 21.3 kb/s
Count of elements : 2202
Stream size : 18.2 MiB (0%)
Title : French (white)
Language : French
Default : No
Forced : No

Menu
00:00:00.000 : en:0:00:00.000
00:06:26.427 : en:0:06:26.427
00:09:26.857 : en:0:09:26.857
00:15:03.193 : en:0:15:03.193
00:21:33.500 : en:0:21:33.500
00:30:17.857 : en:0:30:17.857
00:36:08.165 : en:0:36:08.165
00:40:55.661 : en:0:40:55.661
00:46:56.438 : en:0:46:56.438
00:52:05.747 : en:0:52:05.747
00:59:35.530 : en:0:59:35.530
01:04:23.943 : en:1:04:23.943
01:11:16.688 : en:1:11:16.688
01:15:19.222 : en:1:15:19.222
01:22:42.832 : en:1:22:42.832
01:28:15.206 : en:1:28:15.206
01:33:58.007 : en:1:33:58.007
01:39:21.955 : en:1:39:21.955
01:48:13.903 : en:1:48:13.903
01:50:19.571 : en:1:50:19.571

Download

download 4k hdr movies download 4k hdr movies

The Huntsman: Winter's War 4K 2016 Ultra HD 2160p


Watch a movie trailer - The Huntsman: Winter's War 4K 2016 Ultra HD 2160p
Comments and Feedback
Add your comment:
Your name:
Your E-Mail:
Enter the two words shown in the image: *