Select movie Search movie Close search My Account

Suicide Squad: Hell to Pay 4K 2018 Ultra HD 2160p

Suicide Squad: Hell to Pay 4K 2018 Ultra HD 2160p
BDRemux / BDRip
Country: USA
Time: 1h 26min
IMDB: 7.2
Director: Sam Liu
Actors: Christian Slater, Vanessa Williams, Billy Brown, Kristin Bauer van Straten, Gideon Emery, Liam McIntyre, Tara Strong, David Boat, Trevor Devall, Dave Fennoy, Greg Grunberg, C. Thomas Howell, Cissy Jones, Natalie Lander, Matthew Mercer

Story Movie

Suicide Squad: Hell to Pay 4K 2018 Ultra HD 2160p
Amanda Waller again wants to assemble Task Force X, consisting of Deadshoot, Harley Quinn, Captain Boomerang, Frost Killer, Copper Snake and Bronze Tiger. Their task is to find Steel Maxum, and get for Amanda a mystical black playing card with the inscription "Free outlet of their hell." But no one initially knows that in Suicide Squad: Hell to Pay animation 4k download all friends will be waiting for a fascinating journey.

Review 4K Movie

As far as the movie "Squad of suicides" is bad, this cartoon is so good. On this sentence, you can finish the entire review, but I'll still try to explain how the cartoon "Suicide Squad: Hell to Pay" animation 4k download cartoon is so good.

It is a pity that most of the moviegoers who speak "You" with a hick culture know about the "suicide squad" only in an incredibly nasty film in which exactly everything that can be done was done poorly or did not work. It's doubly unfortunate that the film attracted a significant part of this audience. If you relate yourself to this part, please take a look at this cartoon. And you will understand how David Eyre and Warner Brothers raped your eyes, brain, and just good taste.

Representatives of the geek community do not need to read this paragraph. Suffice it to say that this is an extremely canonical embodiment of the detachment, even on small screens.

"Severe punishment" is not the first attempt to show a squad of suicides in cartoons. There was also the "Assault on Arkham", which, by the way, is also an extremely worthy work. But it does not apply to the cartoon universe DC New52. This cartoon was a kind of spin-off for the games from Rocksteady (the most gorgeous games about the Dark Knight.) "Severe punishment" is a full-fledged cartoon of the New52 universe, and a direct continuation of Flashpoint. "Although, you understand, fit in one application" direct sequel "and" Flash "is not very correct.

I will not spoil the plot. Moreover, in the textual presentation, he looks extremely boring. But this is not so - you just have to watch the cartoon. He will surprise and a few plot twists, and chasing the local McGuffin looks like a very good decision. Briefly, the genre of the film can even be described as a Buddy movie. And these words are completely justified - most of the time the team of DC super villains together with a couple of antiheroes travel in a natural house on wheels. Approximately in the kind in which Heisenberg created his art.

Cartoon is incredibly drayvovy. It has everything for fans of DC, and maybe even for casual viewers, tired of watching pictures about knights in shining armor and dull, correct to the pointy Avengers. The local characters are just villains - they are cruel, do not shy away from the victims among those who get in the way, pursue their own interests, but sometimes they can afford some manifestations of humanity. And for such characters it is much more interesting to observe. Also in the film, a huge concentration of Mexican duels on one square centimeter and several opposing sides, arranging on the screen colorful kneads.

Mediainfo

movie BDRemux Video
ID : 1
Format : HEVC
Format/Info : High Efficiency Video Coding
Format profile : Main 10@L5.1@High
Codec ID : V_MPEGH/ISO/HEVC
Duration : 1 h 26 min
Bit rate : 51.2 Mb/s
Width : 3 840 pixels
Height : 2 160 pixels
Display aspect ratio : 16:9
Frame rate mode : Constant
Frame rate : 23.976 (24000/1001) FPS
Color space : YUV
Chroma subsampling : 4:2:0 (Type 2)
Bit depth : 10 bits
Bits/(Pixel*Frame) : 0.257
Stream size : 30.8 GiB (93%)
Title : Suicide.Squad.Hell.to.Pay.2018.2160p.BluRay.REMUX.HEVC.DTS-HD.5.1
Writing library : ATEME Titan File 3.8.13 (4.8.13.0)
Default : Yes
Forced : No
Color range : Limited
Color primaries : BT.2020
Transfer characteristics : PQ
Matrix coefficients : BT.2020 non-constant
Mastering display color primaries : Display P3
Mastering display luminance : min: 0.0050 cd/m2, max: 4000 cd/m2
Maximum Content Light Level : 1051 cd/m2
Maximum Frame-Average Light Level : 463 cd/m2

Audio #1
ID : 2
Format : DTS
Format/Info : Digital Theater Systems
Format profile : MA / Core
Codec ID : A_DTS
Duration : 1 h 26 min
Bit rate mode : Variable / Constant
Bit rate : 2 467 kb/s / 1 509 kb/s
Channel(s) : 6 channels
Channel positions : Front: L C R, Side: L R, LFE
Sampling rate : 48.0 kHz
Frame rate : 93.750 FPS (512 SPF)
Bit depth : 24 bits
Compression mode : Lossless / Lossy
Stream size : 1.48 GiB (4%)
Title : Suicide.Squad.Hell.to.Pay.2018.2160p.BluRay.REMUX.HEVC.DTS-HD.5.1
Language : English
Default : Yes
Forced : No

Audio #2
ID : 3
Format : AC-3
Format/Info : Audio Coding 3
Codec ID : A_AC3
Duration : 1 h 26 min
Bit rate mode : Constant
Bit rate : 640 kb/s
Channel(s) : 6 channels
Channel positions : Front: L C R, Side: L R, LFE
Sampling rate : 48.0 kHz
Frame rate : 31.250 FPS (1536 SPF)
Bit depth : 16 bits
Compression mode : Lossy
Stream size : 394 MiB (1%)
Title : Suicide.Squad.Hell.to.Pay.2018.2160p.BluRay.REMUX.HEVC.DTS-HD.5.1
Language : French
Service kind : Complete Main
Default : No
Forced : No

Audio #3
ID : 4
Format : AC-3
Format/Info : Audio Coding 3
Codec ID : A_AC3
Duration : 1 h 26 min
Bit rate mode : Constant
Bit rate : 192 kb/s
Channel(s) : 2 channels
Channel positions : Front: L R
Sampling rate : 48.0 kHz
Frame rate : 31.250 FPS (1536 SPF)
Bit depth : 16 bits
Compression mode : Lossy
Stream size : 118 MiB (0%)
Title : Suicide.Squad.Hell.to.Pay.2018.2160p.BluRay.REMUX.HEVC.DTS-HD.5.1
Language : Spanish
Service kind : Complete Main
Default : No
Forced : No

Audio #4
ID : 5
Format : AC-3
Format/Info : Audio Coding 3
Codec ID : A_AC3
Duration : 1 h 26 min
Bit rate mode : Constant
Bit rate : 640 kb/s
Channel(s) : 6 channels
Channel positions : Front: L C R, Side: L R, LFE
Sampling rate : 48.0 kHz
Frame rate : 31.250 FPS (1536 SPF)
Bit depth : 16 bits
Compression mode : Lossy
Stream size : 394 MiB (1%)
Title : Suicide.Squad.Hell.to.Pay.2018.2160p.BluRay.REMUX.HEVC.DTS-HD.5.1
Language : Spanish
Service kind : Complete Main
Default : No
Forced : No

Text #1
ID : 6
Format : PGS
Muxing mode : zlib
Codec ID : S_HDMV/PGS
Codec ID/Info : Picture based subtitle format used on BDs/HD-DVDs
Duration : 1 h 25 min
Bit rate : 29.8 kb/s
Count of elements : 2110
Stream size : 18.3 MiB (0%)
Title : English-PGS
Language : English
Default : Yes
Forced : No

Text #2
ID : 7
Format : PGS
Muxing mode : zlib
Codec ID : S_HDMV/PGS
Codec ID/Info : Picture based subtitle format used on BDs/HD-DVDs
Duration : 1 h 25 min
Bit rate : 26.7 kb/s
Count of elements : 1700
Stream size : 16.4 MiB (0%)
Title : French-PGS
Language : French
Default : No
Forced : No

Text #3
ID : 8
Format : PGS
Muxing mode : zlib
Codec ID : S_HDMV/PGS
Codec ID/Info : Picture based subtitle format used on BDs/HD-DVDs
Duration : 1 h 25 min
Bit rate : 26.0 kb/s
Count of elements : 1720
Stream size : 15.9 MiB (0%)
Title : Spanish-PGS
Language : Spanish
Default : No
Forced : No

Text #4
ID : 9
Format : PGS
Muxing mode : zlib
Codec ID : S_HDMV/PGS
Codec ID/Info : Picture based subtitle format used on BDs/HD-DVDs
Duration : 1 h 25 min
Bit rate : 24.6 kb/s
Count of elements : 1720
Stream size : 15.1 MiB (0%)
Title : Spanish-FORCED-PGS
Language : Spanish
Default : No
Forced : No

Menu
00:00:00.000 : en:Chapter 1
00:10:21.621 : en:Chapter 2
00:19:57.321 : en:Chapter 3
00:35:58.823 : en:Chapter 4
00:48:13.473 : en:Chapter 5
00:55:38.293 : en:Chapter 6
01:01:51.874 : en:Chapter 7
01:15:39.117 : en:Chapter 8
01:22:49.047 : en:Chapter 9
movie BDRip Video
ID : 1
Format : HEVC
Format/Info : High Efficiency Video Coding
Format profile : Main 10@L5.1@High
Codec ID : V_MPEGH/ISO/HEVC
Duration : 1 h 26 min
Bit rate : 5 001 kb/s
Width : 3 840 pixels
Height : 2 160 pixels
Display aspect ratio : 16:9
Frame rate mode : Constant
Frame rate : 23.976 (24000/1001) FPS
Color space : YUV
Chroma subsampling : 4:2:0 (Type 2)
Bit depth : 10 bits
Bits/(Pixel*Frame) : 0.025
Stream size : 3.01 GiB (67%)
Writing library : x265 2.7+15-b9f5b5d7bf95:[Windows][GCC 6.3.0][64 bit] 10bit
Encoding settings : cpuid=1173503 / frame-threads=4 / numa-pools=20 / wpp / no-pmode / no-pme / no-psnr / no-ssim / log-level=2 / input-csp=1 / input-res=3840x2160 / interlace=0 / total-frames=123764 / level-idc=51 / high-tier=1 / uhd-bd=1 / ref=4 / no-allow-non-conformance / repeat-headers / annexb / aud / hrd / info / hash=0 / no-temporal-layers / no-open-gop / min-keyint=1 / keyint=24 / gop-lookahead=0 / bframes=4 / b-adapt=2 / b-pyramid / bframe-bias=0 / rc-lookahead=25 / lookahead-slices=4 / scenecut=40 / radl=0 / no-intra-refresh / ctu=64 / min-cu-size=8 / rect / no-amp / max-tu-size=32 / tu-inter-depth=1 / tu-intra-depth=1 / limit-tu=0 / rdoq-level=2 / dynamic-rd=0.00 / no-ssim-rd / signhide / no-tskip / nr-intra=0 / nr-inter=0 / no-constrained-intra / no-strong-intra-smoothing / max-merge=3 / limit-refs=3 / limit-modes / me=3 / subme=3 / merange=57 / temporal-mvp / weightp / no-weightb / no-analyze-src-pics / deblock=-3:-3 / no-sao / no-sao-non-deblock / rd=4 / no-early-skip / rskip / no-fast-intra / no-tskip-fast / no-cu-lossless / no-b-intra / no-splitrd-skip / rdpenalty=0 / psy-rd=2.00 / psy-rdoq=1.00 / no-rd-refine / no-lossless / cbqpoffs=0 / crqpoffs=0 / rc=crf / crf=17.0 / qcomp=0.60 / qpstep=4 / stats-write=0 / stats-read=0 / vbv-maxrate=160000 / vbv-bufsize=160000 / vbv-init=0.9 / crf-max=0.0 / crf-min=0.0 / ipratio=1.40 / pbratio=1.30 / aq-mode=1 / aq-strength=1.00 / cutree / zone-count=0 / no-strict-cbr / qg-size=32 / no-rc-grain / qpmax=69 / qpmin=0 / no-const-vbv / sar=1 / overscan=0 / videoformat=5 / range=0 / colorprim=9 / transfer=16 / colormatrix=9 / chromaloc=1 / chromaloc-top=2 / chromaloc-bottom=2 / display-window=0 / master-display=G(13250,34500)B(7500,3000)R(34000,16000)WP(15635,16450)L(40000000,50) / max-cll=1051,463 / min-luma=0 / max-luma=1023 / log2-max-poc-lsb=8 / vui-timing-info / vui-hrd-info / slices=1 / no-opt-qp-pps / no-opt-ref-list-length-pps / no-multi-pass-opt-rps / scenecut-bias=0.05 / no-opt-cu-delta-qp / no-aq-motion / hdr / hdr-opt / no-dhdr10-opt / no-idr-recovery-sei / analysis-reuse-level=5 / scale-factor=0 / refine-intra=0 / refine-inter=0 / refine-mv=0 / no-limit-sao / ctu-info=0 / no-lowpass-dct / refine-mv-type=0 / copy-pic=1 / max-ausize-factor=1.0 / no-dynamic-refine
Default : Yes
Forced : No
Color range : Limited
Color primaries : BT.2020
Transfer characteristics : PQ
Matrix coefficients : BT.2020 non-constant
Mastering display color primaries : Display P3
Mastering display luminance : min: 0.0050 cd/m2, max: 4000 cd/m2
Maximum Content Light Level : 1051 cd/m2
Maximum Frame-Average Light Level : 463 cd/m2

Audio
ID : 2
Format : DTS
Format/Info : Digital Theater Systems
Format profile : MA / Core
Codec ID : A_DTS
Duration : 1 h 26 min
Bit rate mode : Variable / Constant
Bit rate : 2 467 kb/s / 1 509 kb/s
Channel(s) : 6 channels
Channel positions : Front: L C R, Side: L R, LFE
Sampling rate : 48.0 kHz
Frame rate : 93.750 FPS (512 SPF)
Bit depth : 24 bits
Compression mode : Lossless / Lossy
Stream size : 1.48 GiB (33%)
Language : English
Default : Yes
Forced : No

Text
ID : 3
Format : PGS
Muxing mode : zlib
Codec ID : S_HDMV/PGS
Codec ID/Info : Picture based subtitle format used on BDs/HD-DVDs
Duration : 1 h 25 min
Bit rate : 29.8 kb/s
Count of elements : 2110
Stream size : 18.3 MiB (0%)
Language : English
Default : No
Forced : No

Menu
00:00:00.000 : en:00:00:00.000
00:10:21.621 : en:00:10:21.621
00:19:57.321 : en:00:19:57.321
00:35:58.823 : en:00:35:58.823
00:48:13.474 : en:00:48:13.474
00:55:38.293 : en:00:55:38.293
01:01:51.875 : en:01:01:51.875
01:15:39.118 : en:01:15:39.118
01:22:49.047 : en:01:22:49.047

Download

download 4k hdr movies download 4k hdr movies

Watch a movie trailer - Suicide Squad: Hell to Pay 4K 2018 Ultra HD 2160p
Comments and Feedback
Add your comment:
Your name:
Your E-Mail:
Code:
reload, if the code cannot be seen
Enter code: