Select movie Search movie Close search My Account

Your Name 4K 2016 Ultra HD 2160p

Your Name 4K 2016 Ultra HD 2160p
BDRemux / BDRip
Country: Japan
Time: 1h 46min
IMDB: 8.4
Director: Makoto Shinkai
Actors: Ry?nosuke Kamiki, Mone Kamishiraishi, Ry? Narita, Aoi Y?ki, Nobunaga Shimazaki, Kaito Ishikawa, Kanon Tani, Masaki Terasoma, Sayaka ?hara, Kazuhiko Inoue, Chaf?rin, Kana Hanazawa, Yuka Terasaki, Takashi Onozuka, Y?hei Namekawa

Story Movie

Your Name 4K 2016 Ultra HD 2160p
Your Name 4k - when a young guy from Tokyo and a young girl from a small provincial village realize that they are connected by something unusual and inexplicable, they begin to constantly wait for a meeting with each other true 4k video, which happens in a strange way in a dream. They change bodies among themselves and begin to live life for each other and in a strange way start to understand each other more than other people on the

Review 4K Movie

What can unite the daughter of the mayor of a small provincial town and a high school senior from the capital? More than it might seem at first glance.

There was a comet. There was a phrase thrown into the hearts of the main character about the desire to live in the body of a beautiful boy from Tokyo. And there were also names. Yes, the names they had to remember ...

The idea with the exchange of bodies, of course, is not new. But much more important is how this idea was beaten true 4k video, and it is beaten perfectly. Further developments move from reality to reality, at different times, then to one, then to another place. However, it does not create a feeling of oversaturation with events, “porridge” from storylines. In my opinion, everything is built logically and consistently.

Minor characters play an unnoticeable role, which is why, however, history does not lose anything. The plot is tied up for two - Mitsuha and Taki, who by chance had to be in each other's bodies. The bond between the characters changes their lives forever.

At some moments there was a desire to cry. But, Your Name 4k despite the melodrama of the story, in the cartoon there is and where to smile. You believe the characters, sincerely empathize with them and want the story to end well. By the way, about the ending: it was appropriate, simple and successful, and therefore correctly completed the film.

I have never watched anime and did not think that this cartoon will make such a strong impression on me. Your name UHD is a touching story about invisible threads connecting the fates of people, wherever they are. And the one who searches, as you know, will always find ...

Mediainfo

movie BDRemux Video
ID : 1
Format : HEVC
Format/Info : High Efficiency Video Coding
Commercial name : HDR10
Format profile : Main 10@L5.1@High
Codec ID : V_MPEGH/ISO/HEVC
Duration : 1 h 46 min
Bit rate : 56.7 Mb/s
Width : 3 840 pixels
Height : 2 160 pixels
Display aspect ratio : 16:9
Frame rate mode : Constant
Frame rate : 23.976 (24000/1001) FPS
Color space : YUV
Chroma subsampling : 4:2:0 (Type 2)
Bit depth : 10 bits
Bits/(Pixel*Frame) : 0.285
Stream size : 42.2 GiB (84%)
Title : Your.Name.2016.JAPANESE.2160p.BluRay.REMUX.HEVC.DTS-HD.MA.5.1
Default : Yes
Forced : No
Color range : Limited
Color primaries : BT.2020
Transfer characteristics : PQ
Matrix coefficients : BT.2020 non-constant
Mastering display color primaries : BT.2020
Mastering display luminance : min: 0.0050 cd/m2, max: 1000 cd/m2
Maximum Content Light Level : 777 cd/m2
Maximum Frame-Average Light Level : 370 cd/m2

Audio #1
ID : 2
Format : DTS XLL
Format/Info : Digital Theater Systems
Commercial name : DTS-HD Master Audio
Codec ID : A_DTS
Duration : 1 h 46 min
Bit rate mode : Variable
Bit rate : 3 595 kb/s
Channel(s) : 6 channels
Channel layout : C L R Ls Rs LFE
Sampling rate : 48.0 kHz
Frame rate : 93.750 FPS (512 SPF)
Bit depth : 24 bits
Compression mode : Lossless
Stream size : 2.68 GiB (5%)
Title : Your.Name.2016.JAPANESE.2160p.BluRay.REMUX.HEVC.DTS-HD.MA.5.1
Language : Japanese
Default : Yes
Forced : No

Audio #2
ID : 3
Format : DTS XLL
Format/Info : Digital Theater Systems
Commercial name : DTS-HD Master Audio
Codec ID : A_DTS
Duration : 1 h 46 min
Bit rate mode : Variable
Bit rate : 1 641 kb/s
Channel(s) : 2 channels
Channel layout : L R
Sampling rate : 48.0 kHz
Frame rate : 93.750 FPS (512 SPF)
Bit depth : 24 bits
Compression mode : Lossless
Stream size : 1.22 GiB (2%)
Title : Your.Name.2016.JAPANESE.2160p.BluRay.REMUX.HEVC.DTS-HD.MA.5.1
Language : Japanese
Default : No
Forced : No

Audio #3
ID : 4
Format : DTS XLL
Format/Info : Digital Theater Systems
Commercial name : DTS-HD Master Audio
Codec ID : A_DTS
Duration : 1 h 46 min
Bit rate mode : Variable
Bit rate : 3 603 kb/s
Channel(s) : 6 channels
Channel layout : C L R Ls Rs LFE
Sampling rate : 48.0 kHz
Frame rate : 93.750 FPS (512 SPF)
Bit depth : 24 bits
Compression mode : Lossless
Stream size : 2.68 GiB (5%)
Title : Your.Name.2016.JAPANESE.2160p.BluRay.REMUX.HEVC.DTS-HD.MA.5.1
Language : Japanese
Default : No
Forced : No

Audio #4
ID : 5
Format : DTS XLL
Format/Info : Digital Theater Systems
Commercial name : DTS-HD Master Audio
Codec ID : A_DTS
Duration : 1 h 46 min
Bit rate mode : Variable
Bit rate : 1 666 kb/s
Channel(s) : 2 channels
Channel layout : L R
Sampling rate : 48.0 kHz
Frame rate : 93.750 FPS (512 SPF)
Bit depth : 24 bits
Compression mode : Lossless
Stream size : 1.24 GiB (2%)
Title : Your.Name.2016.JAPANESE.2160p.BluRay.REMUX.HEVC.DTS-HD.MA.5.1
Language : Japanese
Default : No
Forced : No

Text #1
ID : 6
Format : PGS
Muxing mode : zlib
Codec ID : S_HDMV/PGS
Codec ID/Info : Picture based subtitle format used on BDs/HD-DVDs
Duration : 1 h 45 min
Bit rate : 30.7 kb/s
Count of elements : 2456
Stream size : 23.2 MiB (0%)
Title : English-PGS
Language : English
Default : Yes
Forced : Yes

Text #2
ID : 7
Format : PGS
Muxing mode : zlib
Codec ID : S_HDMV/PGS
Codec ID/Info : Picture based subtitle format used on BDs/HD-DVDs
Duration : 1 h 45 min
Bit rate : 40.6 kb/s
Count of elements : 3515
Stream size : 30.6 MiB (0%)
Title : Japanese-PGS
Language : Japanese
Default : No
Forced : No

Text #3
ID : 8
Format : PGS
Muxing mode : zlib
Codec ID : S_HDMV/PGS
Codec ID/Info : Picture based subtitle format used on BDs/HD-DVDs
Duration : 1 h 45 min
Bit rate : 32.4 kb/s
Count of elements : 2919
Stream size : 24.4 MiB (0%)
Title : Chinese-PGS
Language : Chinese
Default : No
Forced : No

Text #4
ID : 9
Format : PGS
Muxing mode : zlib
Codec ID : S_HDMV/PGS
Codec ID/Info : Picture based subtitle format used on BDs/HD-DVDs
Duration : 1 h 45 min
Bit rate : 27.2 kb/s
Count of elements : 2297
Stream size : 20.5 MiB (0%)
Title : English-PGS
Language : English
Default : No
Forced : No

Menu
00:00:00.000 : :Chapter 1
00:01:34.094 : :Chapter 2
00:03:21.868 : :Chapter 3
00:05:13.271 : :Chapter 4
00:08:37.308 : :Chapter 5
00:12:11.313 : :Chapter 6
00:14:32.371 : :Chapter 7
00:17:22.499 : :Chapter 8
00:22:57.918 : :Chapter 9
00:27:05.624 : :Chapter 10
00:28:16.569 : :Chapter 11
00:29:53.541 : :Chapter 12
00:32:42.835 : :Chapter 13
00:37:26.994 : :Chapter 14
00:41:57.765 : :Chapter 15
00:44:30.334 : :Chapter 16
00:45:54.001 : :Chapter 17
00:48:28.655 : :Chapter 18
00:53:01.386 : :Chapter 19
00:56:53.868 : :Chapter 20
01:03:42.318 : :Chapter 21
01:06:03.793 : :Chapter 22
01:09:44.930 : :Chapter 23
01:12:41.815 : :Chapter 24
01:16:42.472 : :Chapter 25
01:21:21.710 : :Chapter 26
01:29:12.805 : :Chapter 27
01:32:51.857 : :Chapter 28
01:37:01.732 : :Chapter 29
01:41:19.615 : :Chapter 30
movie BDRip Video
ID : 1
Format : HEVC
Format/Info : High Efficiency Video Coding
Commercial name : HDR10
Format profile : Main 10@L5.1@High
Codec ID : V_MPEGH/ISO/HEVC
Duration : 1 h 46 min
Bit rate : 4 898 kb/s
Width : 3 840 pixels
Height : 2 160 pixels
Display aspect ratio : 16:9
Frame rate mode : Constant
Frame rate : 23.976 (24000/1001) FPS
Color space : YUV
Chroma subsampling : 4:2:0 (Type 2)
Bit depth : 10 bits
Bits/(Pixel*Frame) : 0.025
Stream size : 3.65 GiB (38%)
Title : Your.Name.2016.2160p.BluRay.x265.10bit.HDR.DTS-HD.MA.5.1-SWTYBLZ
Writing library : x265 2.8+1-478bfe2b7673:[Windows][GCC 7.3.0][64 bit] 10bit
Encoding settings : cpuid=1111039 / frame-threads=2 / numa-pools=6 / wpp / no-pmode / no-pme / no-psnr / no-ssim / log-level=2 / input-csp=1 / input-res=3840x2160 / interlace=0 / total-frames=153342 / level-idc=51 / high-tier=1 / uhd-bd=0 / ref=4 / no-allow-non-conformance / repeat-headers / annexb / aud / hrd / info / hash=0 / no-temporal-layers / no-open-gop / min-keyint=24 / keyint=250 / gop-lookahead=0 / bframes=4 / b-adapt=2 / b-pyramid / bframe-bias=0 / rc-lookahead=25 / lookahead-slices=4 / scenecut=40 / radl=0 / no-intra-refresh / ctu=64 / min-cu-size=8 / rect / no-amp / max-tu-size=32 / tu-inter-depth=1 / tu-intra-depth=1 / limit-tu=0 / rdoq-level=2 / dynamic-rd=0.00 / no-ssim-rd / signhide / no-tskip / nr-intra=0 / nr-inter=0 / no-constrained-intra / no-strong-intra-smoothing / max-merge=3 / limit-refs=3 / limit-modes / me=3 / subme=3 / merange=57 / temporal-mvp / weightp / no-weightb / no-analyze-src-pics / deblock=-3:-3 / no-sao / no-sao-non-deblock / rd=4 / no-early-skip / rskip / no-fast-intra / no-tskip-fast / no-cu-lossless / no-b-intra / no-splitrd-skip / rdpenalty=0 / psy-rd=2.00 / psy-rdoq=1.00 / no-rd-refine / no-lossless / cbqpoffs=0 / crqpoffs=0 / rc=crf / crf=17.0 / qcomp=0.60 / qpstep=4 / stats-write=0 / stats-read=0 / vbv-maxrate=160000 / vbv-bufsize=160000 / vbv-init=0.9 / crf-max=0.0 / crf-min=0.0 / ipratio=1.40 / pbratio=1.30 / aq-mode=1 / aq-strength=1.00 / cutree / zone-count=0 / no-strict-cbr / qg-size=32 / no-rc-grain / qpmax=69 / qpmin=0 / no-const-vbv / sar=1 / overscan=0 / videoformat=5 / range=0 / colorprim=9 / transfer=16 / colormatrix=9 / chromaloc=1 / chromaloc-top=2 / chromaloc-bottom=2 / display-window=0 / master-display=G(8500,39850)B(6550,2300)R(35400,14600)WP(15635,16450)L(10000000,50) / max-cll=777,370 / min-luma=0 / max-luma=1023 / log2-max-poc-lsb=8 / vui-timing-info / vui-hrd-info / slices=1 / no-opt-qp-pps / no-opt-ref-list-length-pps / no-multi-pass-opt-rps / scenecut-bias=0.00 / no-opt-cu-delta-qp / no-aq-motion / hdr / hdr-opt / no-dhdr10-opt / no-idr-recovery-sei / analysis-reuse-level=5 / scale-factor=0 / refine-intra=0 / refine-inter=0 / refine-mv=0 / no-limit-sao / ctu-info=0 / no-lowpass-dct / refine-mv-type=0 / copy-pic=1 / max-ausize-factor=1.0 / no-dynamic-refine / no-single-sei
Language : Japanese
Default : Yes
Forced : No
Color range : Limited
Color primaries : BT.2020
Transfer characteristics : PQ
Matrix coefficients : BT.2020 non-constant
Mastering display color primaries : BT.2020
Mastering display luminance : min: 0.0050 cd/m2, max: 1000 cd/m2
Maximum Content Light Level : 777 cd/m2
Maximum Frame-Average Light Level : 370 cd/m2

Audio #1
ID : 2
Format : DTS XLL
Format/Info : Digital Theater Systems
Commercial name : DTS-HD Master Audio
Codec ID : A_DTS
Duration : 1 h 46 min
Bit rate mode : Variable
Bit rate : 3 595 kb/s
Channel(s) : 6 channels
Channel layout : C L R Ls Rs LFE
Sampling rate : 48.0 kHz
Frame rate : 93.750 FPS (512 SPF)
Bit depth : 24 bits
Compression mode : Lossless
Stream size : 2.68 GiB (28%)
Title : Your.Name.2016.2160p.BluRay.x265.10bit.HDR.DTS-HD.MA.5.1-SWTYBLZ
Language : Japanese
Default : Yes
Forced : No

Audio #2
ID : 3
Format : AC-3
Format/Info : Audio Coding 3
Commercial name : Dolby Digital
Codec ID : A_AC3
Duration : 1 h 46 min
Bit rate mode : Constant
Bit rate : 640 kb/s
Channel(s) : 6 channels
Channel layout : L R C LFE Ls Rs
Sampling rate : 48.0 kHz
Frame rate : 31.250 FPS (1536 SPF)
Bit depth : 16 bits
Compression mode : Lossy
Stream size : 488 MiB (5%)
Title : Your.Name.2016.2160p.BluRay.x265.10bit.HDR.DTS-HD.MA.5.1-SWTYBLZ
Language : Japanese
Service kind : Complete Main
Default : No
Forced : No

Audio #3
ID : 4
Format : DTS XLL
Format/Info : Digital Theater Systems
Commercial name : DTS-HD Master Audio
Codec ID : A_DTS
Duration : 1 h 46 min
Bit rate mode : Variable
Bit rate : 3 094 kb/s
Channel(s) : 6 channels
Channel layout : C L R Ls Rs LFE
Sampling rate : 48.0 kHz
Frame rate : 93.750 FPS (512 SPF)
Bit depth : 24 bits
Compression mode : Lossless
Stream size : 2.30 GiB (24%)
Title : Your.Name.2016.2160p.BluRay.x265.10bit.HDR.DTS-HD.MA.5.1-SWTYBLZ
Language : English
Default : No
Forced : No

Audio #4
ID : 5
Format : AC-3
Format/Info : Audio Coding 3
Commercial name : Dolby Digital
Codec ID : A_AC3
Duration : 1 h 46 min
Bit rate mode : Constant
Bit rate : 640 kb/s
Channel(s) : 6 channels
Channel layout : L R C LFE Ls Rs
Sampling rate : 48.0 kHz
Frame rate : 31.250 FPS (1536 SPF)
Bit depth : 16 bits
Compression mode : Lossy
Stream size : 488 MiB (5%)
Title : Your.Name.2016.2160p.BluRay.x265.10bit.HDR.DTS-HD.MA.5.1-SWTYBLZ
Language : English
Service kind : Complete Main
Default : No
Forced : No

Text #1
ID : 6
Format : UTF-8
Codec ID : S_TEXT/UTF8
Codec ID/Info : UTF-8 Plain Text
Duration : 1 h 45 min
Bit rate : 47 b/s
Count of elements : 1154
Stream size : 36.5 KiB (0%)
Title : English-SRT
Language : English
Default : Yes
Forced : Yes

Text #2
ID : 7
Format : PGS
Muxing mode : zlib
Codec ID : S_HDMV/PGS
Codec ID/Info : Picture based subtitle format used on BDs/HD-DVDs
Duration : 1 h 45 min
Bit rate : 30.7 kb/s
Count of elements : 2456
Stream size : 23.2 MiB (0%)
Title : English-PGS
Language : English
Default : No
Forced : Yes

Text #3
ID : 8
Format : PGS
Muxing mode : zlib
Codec ID : S_HDMV/PGS
Codec ID/Info : Picture based subtitle format used on BDs/HD-DVDs
Duration : 1 h 45 min
Bit rate : 40.6 kb/s
Count of elements : 3515
Stream size : 30.6 MiB (0%)
Title : Japanese-PGS
Language : Japanese
Default : No
Forced : No

Text #4
ID : 9
Format : PGS
Muxing mode : zlib
Codec ID : S_HDMV/PGS
Codec ID/Info : Picture based subtitle format used on BDs/HD-DVDs
Duration : 1 h 45 min
Bit rate : 32.4 kb/s
Count of elements : 2919
Stream size : 24.4 MiB (0%)
Title : Chinese-PGS
Language : Chinese
Default : No
Forced : No

Text #5
ID : 10
Format : PGS
Muxing mode : zlib
Codec ID : S_HDMV/PGS
Codec ID/Info : Picture based subtitle format used on BDs/HD-DVDs
Duration : 1 h 45 min
Bit rate : 27.2 kb/s
Count of elements : 2297
Stream size : 20.5 MiB (0%)
Title : English-Theme-Song-PGS
Language : English
Default : No
Forced : No

Menu
00:00:00.000 : :Chapter 1
00:01:34.094 : :Chapter 2
00:03:21.868 : :Chapter 3
00:05:13.271 : :Chapter 4
00:08:37.308 : :Chapter 5
00:12:11.313 : :Chapter 6
00:14:32.371 : :Chapter 7
00:17:22.499 : :Chapter 8
00:22:57.918 : :Chapter 9
00:27:05.624 : :Chapter 10
00:28:16.569 : :Chapter 11
00:29:53.541 : :Chapter 12
00:32:42.835 : :Chapter 13
00:37:26.994 : :Chapter 14
00:41:57.765 : :Chapter 15
00:44:30.334 : :Chapter 16
00:45:54.001 : :Chapter 17
00:48:28.655 : :Chapter 18
00:53:01.386 : :Chapter 19
00:56:53.868 : :Chapter 20
01:03:42.318 : :Chapter 21
01:06:03.793 : :Chapter 22
01:09:44.930 : :Chapter 23
01:12:41.815 : :Chapter 24
01:16:42.472 : :Chapter 25
01:21:21.710 : :Chapter 26
01:29:12.805 : :Chapter 27
01:32:51.857 : :Chapter 28
01:37:01.732 : :Chapter 29
01:41:19.615 : :Chapter 30

Download

download 4k hdr movies download 4k hdr movies

Watch a movie trailer - Your Name 4K 2016 Ultra HD 2160p
Comments and Feedback
Add your comment:
Your name:
Your E-Mail:
Code:
reload, if the code cannot be seen
Enter code: