Select movie Search movie Close search My Account

The Lion King 4K 2019 Ultra HD 2160p

The Lion King 4K 2019 Ultra HD 2160p
BDRemux / BDRip
Country: USA
Time: 1h 58min
IMDB: 7.1
Director: Jon Favreau
Actors: Chiwetel Ejiofor, John Oliver, James Earl Jones, John Kani, Alfre Woodard, JD McCrary, Shahadi Wright Joseph, Penny Johnson, Keegan-Michael Key, Eric Andr, Florence Kasumba, Seth Rogen, Billy Eichner, Amy Sedaris, Chance the Rapper.

Story Movie

The Lion King 4K 2019 Ultra HD 2160p
The story of a brave lion cub named Simba. Heroes familiar from childhood grow up, fall in love, know themselves and the world around them, make mistakes and make the right choice. Native 4k content The Lion King 2019 UHD.

Review 4K Movie

As soon as the studio bosses from Walt Disney took up the film remakes of the original and iconic cartoon films of the studio over the years, the world stood still. The 1994 “The Lion King 4K” not only occupies a special place in the history of the studio, but also has a special emotional effect for several generations. The cartoon became a kind of Walt Disney calling card, and the game remake of The The Lion King 2160p was just a matter of time. All this gamble did not bode well, because despite the already quite extensive number of remakes, the studio still failed to release at least one worthy successor to the original on the movie screens.

For the “The Lion King 4K” was perhaps the lover of the old Disney worst of all. This cartoon is too important for several generations at once. And here it’s worth making an astonished face, because there never has been such a thing, and here again: “The Lion King UHD” of 2019, directed by the skilled John Favreau, is a soulless technical demo. The film should be perceived as a pure experiment and, in part, the picture is a new word in the development of computer graphics. It is very difficult to describe what the picture looks like, photorealism is a terribly beautiful and fragile toy in the hands of ambitious authors. Surprisingly, the shooting of the tape took place in virtual reality, which actually suggests that the “The Lion King Ultra HD” is one big expensive and high-quality special effect.

The picture is incredibly detailed, vibrant and very beautiful. The first ten minutes of the film drive the viewer, who lost his own jaw somewhere among the seats of the cinema, into shock. Nature, the physics of water, wool, microparticles, weather conditions, dust, sand, the weight of computer models of animals and so on are hitherto unattainable levels. Photorealism in cinema is not a novelty, but the “The Lion King 4K” definitely raises it to a whole new level. And if the studio shot frame by frame only the opening scene of the original “The Lion King 4K”, then there would be no remake of the price. Unfortunately, the film lasts almost two hours, almost half an hour longer than the original, for which the eyes very quickly get used to all the beauty demonstrated by the tape.

The picture very quickly ceases to amaze, the WOW effect disappears very quickly. This is due not only to the fact that the eyes quickly adapt to the picture, but also to the fact that the remake has huge problems with locations. In pursuit of realism, the authors had to completely abandon many aspects of cinema language. Many scenes that work flawlessly in the original do not work at all in the remake. All scenes are similar to each other, the differences between them are minimal. They do not particularly differ visually, by color palette or by level of emotions, since the real savannah does not look like in the 1994 cartoon. And about its inhabitants and talk will be superfluous. The entire menagerie presented in the picture, smoothly moving from the original, again, with external changes - they are realistic. Because of this, it often becomes difficult to make out which particular character flaunts on the screen at some point.

So, for example, having external differences in the original, hyenas and lions had certain features in the structure of the body and facial features, conditionally painted in one way or another solely for the sake of emphasizing the characters. In the remake, these differences are so minimal that the very hyenas for whom they changed their names for some reason differ by the audience only by their voices, which, by the way, is not an easy task. All this raises a lot of questions regarding whether the “Lion King” has at least a gram of artistic value. Photorealism stops working exactly at the moment when the characters begin to open their mouths and say something. All the magic and illusion of a certain excursion around the animal kingdom evaporates, and in their place flat, sluggishly spoken dialogues stand up, faintly resembling what was in the original.

Moreover, a very important minus: computer animations give themselves away. This is not the fault of specialists in visual effects, on the contrary, they coped with their task by 110%. The falseness of the movements simulated on a computer is striking because human eyesight is so arranged. Throughout his life, a person has somehow been watching how other people and animals move. A person knows what kind of smoothness and how the animal moves. This is a simple human nature, which even a whole staff of highly qualified specialists cannot deceive. Therefore, the idea of ​​the “Lion King” fully drawn on the computer begins to seem even more absurd. To recreate the environment - please, the viewer will believe in it, but no fantastic detailing of animals will not be able to hide the artificiality of their movements.

Mediainfo

movie BDRemux Video
ID : 1
Format : HEVC
Format/Info : High Efficiency Video Coding
Format profile : Main 10@L5.1@High
HDR format : SMPTE ST 2086, HDR10 compatible
Codec ID : V_MPEGH/ISO/HEVC
Duration : 1 h 58 min
Bit rate : 54.3 Mb/s
Width : 3 840 pixels
Height : 2 160 pixels
Display aspect ratio : 16:9
Frame rate mode : Constant
Frame rate : 23.976 (24000/1001) FPS
Color space : YUV
Chroma subsampling : 4:2:0 (Type 2)
Bit depth : 10 bits
Bits/(Pixel*Frame) : 0.273
Stream size : 44.8 GiB (76%)
Title : The.Lion.King.2019.2160p.BluRay.REMUX.HEVC.DTS-HD.MA.TrueHD.7.1
Writing library : ATEME Titan File 3.9.0 (4.9.0.0)
Language : English
Default : No
Forced : No
Color range : Limited
Color primaries : BT.2020
Transfer characteristics : PQ
Matrix coefficients : BT.2020 non-constant
Mastering display color primaries : Display P3
Mastering display luminance : min: 0.0001 cd/m2, max: 1000 cd/m2

Audio #1
ID : 2
Format : MLP FBA 16-ch
Format/Info : Meridian Lossless Packing FBA with 16-channel presentation
Commercial name : Dolby TrueHD with Dolby Atmos
Codec ID : A_TRUEHD
Duration : 1 h 58 min
Bit rate mode : Variable
Bit rate : 4 929 kb/s
Maximum bit rate : 7 332 kb/s
Channel(s) : 8 channels
Channel layout : L R C LFE Ls Rs Lb Rb
Sampling rate : 48.0 kHz
Frame rate : 1 200.000 FPS (40 SPF)
Compression mode : Lossless
Stream size : 4.07 GiB (7%)
Title : The.Lion.King.2019.2160p.BluRay.REMUX.HEVC.DTS-HD.MA.TrueHD.7.1
Language : English
Default : Yes
Forced : No
Number of dynamic objects : 13
Bed channel count : 1 channel
Bed channel configuration : LFE

Audio #2
ID : 3
Format : AC-3
Format/Info : Audio Coding 3
Commercial name : Dolby Digital
Codec ID : A_AC3
Duration : 1 h 58 min
Bit rate mode : Constant
Bit rate : 640 kb/s
Channel(s) : 6 channels
Channel layout : L R C LFE Ls Rs
Sampling rate : 48.0 kHz
Frame rate : 31.250 FPS (1536 SPF)
Bit depth : 16 bits
Compression mode : Lossy
Stream size : 541 MiB (1%)
Title : The.Lion.King.2019.2160p.BluRay.REMUX.HEVC.DTS-HD.MA.TrueHD.7.1
Language : English
Service kind : Complete Main
Default : No
Forced : No

Audio #3
ID : 4
Format : DTS XLL
Format/Info : Digital Theater Systems
Commercial name : DTS-HD Master Audio
Codec ID : A_DTS
Duration : 1 h 58 min
Bit rate mode : Variable
Bit rate : 4 033 kb/s
Channel(s) : 8 channels
Channel layout : C L R LFE Lb Rb Lss Rss
Sampling rate : 48.0 kHz
Frame rate : 93.750 FPS (512 SPF)
Bit depth : 24 bits
Compression mode : Lossless
Stream size : 3.33 GiB (6%)
Title : The.Lion.King.2019.2160p.BluRay.REMUX.HEVC.DTS-HD.MA.TrueHD.7.1
Language : English
Default : No
Forced : No

Audio #4
ID : 5
Format : AC-3
Format/Info : Audio Coding 3
Commercial name : Dolby Digital
Codec ID : A_AC3
Duration : 1 h 58 min
Bit rate mode : Constant
Bit rate : 320 kb/s
Channel(s) : 2 channels
Channel layout : L R
Sampling rate : 48.0 kHz
Frame rate : 31.250 FPS (1536 SPF)
Bit depth : 16 bits
Compression mode : Lossy
Stream size : 271 MiB (0%)
Title : The.Lion.King.2019.2160p.BluRay.REMUX.HEVC.DTS-HD.MA.TrueHD.7.1
Language : English
Service kind : Complete Main
Default : No
Forced : No

Audio #5
ID : 6
Format : E-AC-3
Format/Info : Enhanced AC-3
Commercial name : Dolby Digital Plus
Format profile : Blu-ray Disc
Codec ID : A_EAC3
Duration : 1 h 58 min
Bit rate mode : Constant
Bit rate : 1 024 kb/s
Channel(s) : 8 channels
Channel layout : L R C LFE Ls Rs Lb Rb
Sampling rate : 48.0 kHz
Frame rate : 31.250 FPS (1536 SPF)
Compression mode : Lossy
Stream size : 866 MiB (1%)
Title : The.Lion.King.2019.2160p.BluRay.REMUX.HEVC.DTS-HD.MA.TrueHD.7.1
Language : French
Service kind : Complete Main
Default : No
Forced : No

Audio #6
ID : 7
Format : AC-3
Format/Info : Audio Coding 3
Commercial name : Dolby Digital
Codec ID : A_AC3
Duration : 1 h 58 min
Bit rate mode : Constant
Bit rate : 576 kb/s
Channel(s) : 6 channels
Channel layout : L R C LFE Ls Rs
Sampling rate : 48.0 kHz
Frame rate : 31.250 FPS (1536 SPF)
Bit depth : 16 bits
Compression mode : Lossy
Stream size : 487 MiB (1%)
Title : The.Lion.King.2019.2160p.BluRay.REMUX.HEVC.DTS-HD.MA.TrueHD.7.1
Language : French
Service kind : Complete Main
Default : No
Forced : No

Audio #7
ID : 8
Format : AC-3
Format/Info : Audio Coding 3
Commercial name : Dolby Digital
Codec ID : A_AC3
Duration : 1 h 58 min
Bit rate mode : Constant
Bit rate : 640 kb/s
Channel(s) : 6 channels
Channel layout : L R C LFE Ls Rs
Sampling rate : 48.0 kHz
Frame rate : 31.250 FPS (1536 SPF)
Bit depth : 16 bits
Compression mode : Lossy
Stream size : 541 MiB (1%)
Title : The.Lion.King.2019.2160p.BluRay.REMUX.HEVC.DTS-HD.MA.TrueHD.7.1
Language : French
Service kind : Complete Main
Default : No
Forced : No

Audio #8
ID : 9
Format : E-AC-3
Format/Info : Enhanced AC-3
Commercial name : Dolby Digital Plus
Format profile : Blu-ray Disc
Codec ID : A_EAC3
Duration : 1 h 58 min
Bit rate mode : Constant
Bit rate : 1 024 kb/s
Channel(s) : 8 channels
Channel layout : L R C LFE Ls Rs Lb Rb
Sampling rate : 48.0 kHz
Frame rate : 31.250 FPS (1536 SPF)
Compression mode : Lossy
Stream size : 866 MiB (1%)
Title : The.Lion.King.2019.2160p.BluRay.REMUX.HEVC.DTS-HD.MA.TrueHD.7.1
Language : Spanish
Service kind : Complete Main
Default : No
Forced : No

Audio #9
ID : 10
Format : AC-3
Format/Info : Audio Coding 3
Commercial name : Dolby Digital
Codec ID : A_AC3
Duration : 1 h 58 min
Bit rate mode : Constant
Bit rate : 576 kb/s
Channel(s) : 6 channels
Channel layout : L R C LFE Ls Rs
Sampling rate : 48.0 kHz
Frame rate : 31.250 FPS (1536 SPF)
Bit depth : 16 bits
Compression mode : Lossy
Stream size : 487 MiB (1%)
Title : The.Lion.King.2019.2160p.BluRay.REMUX.HEVC.DTS-HD.MA.TrueHD.7.1
Language : Spanish
Service kind : Complete Main
Default : No
Forced : No

Audio #10
ID : 11
Format : E-AC-3
Format/Info : Enhanced AC-3
Commercial name : Dolby Digital Plus
Format profile : Blu-ray Disc
Codec ID : A_EAC3
Duration : 1 h 58 min
Bit rate mode : Constant
Bit rate : 1 024 kb/s
Channel(s) : 8 channels
Channel layout : L R C LFE Ls Rs Lb Rb
Sampling rate : 48.0 kHz
Frame rate : 31.250 FPS (1536 SPF)
Compression mode : Lossy
Stream size : 866 MiB (1%)
Title : The.Lion.King.2019.2160p.BluRay.REMUX.HEVC.DTS-HD.MA.TrueHD.7.1
Language : Italian
Service kind : Complete Main
Default : No
Forced : No

Audio #11
ID : 12
Format : AC-3
Format/Info : Audio Coding 3
Commercial name : Dolby Digital
Codec ID : A_AC3
Duration : 1 h 58 min
Bit rate mode : Constant
Bit rate : 576 kb/s
Channel(s) : 6 channels
Channel layout : L R C LFE Ls Rs
Sampling rate : 48.0 kHz
Frame rate : 31.250 FPS (1536 SPF)
Bit depth : 16 bits
Compression mode : Lossy
Stream size : 487 MiB (1%)
Title : The.Lion.King.2019.2160p.BluRay.REMUX.HEVC.DTS-HD.MA.TrueHD.7.1
Language : Italian
Service kind : Complete Main
Default : No
Forced : No

Audio #12
ID : 13
Format : E-AC-3
Format/Info : Enhanced AC-3
Commercial name : Dolby Digital Plus
Format profile : Blu-ray Disc
Codec ID : A_EAC3
Duration : 1 h 58 min
Bit rate mode : Constant
Bit rate : 1 024 kb/s
Channel(s) : 8 channels
Channel layout : L R C LFE Ls Rs Lb Rb
Sampling rate : 48.0 kHz
Frame rate : 31.250 FPS (1536 SPF)
Compression mode : Lossy
Stream size : 866 MiB (1%)
Title : The.Lion.King.2019.2160p.BluRay.REMUX.HEVC.DTS-HD.MA.TrueHD.7.1
Language : German
Service kind : Complete Main
Default : No
Forced : No

Audio #13
ID : 14
Format : AC-3
Format/Info : Audio Coding 3
Commercial name : Dolby Digital
Codec ID : A_AC3
Duration : 1 h 58 min
Bit rate mode : Constant
Bit rate : 576 kb/s
Channel(s) : 6 channels
Channel layout : L R C LFE Ls Rs
Sampling rate : 48.0 kHz
Frame rate : 31.250 FPS (1536 SPF)
Bit depth : 16 bits
Compression mode : Lossy
Stream size : 487 MiB (1%)
Title : The.Lion.King.2019.2160p.BluRay.REMUX.HEVC.DTS-HD.MA.TrueHD.7.1
Language : German
Service kind : Complete Main
Default : No
Forced : No

Text #1
ID : 15
Format : UTF-8
Codec ID : S_TEXT/UTF8
Codec ID/Info : UTF-8 Plain Text
Duration : 1 h 50 min
Bit rate : 49 b/s
Count of elements : 1547
Stream size : 40.0 KiB (0%)
Title : English-SRT
Language : English
Default : Yes
Forced : No

Text #2
ID : 16
Format : UTF-8
Codec ID : S_TEXT/UTF8
Codec ID/Info : UTF-8 Plain Text
Duration : 1 h 52 min
Bit rate : 55 b/s
Count of elements : 1738
Stream size : 45.1 KiB (0%)
Title : English-SDH-SRT
Language : English
Default : No
Forced : No

Text #3
ID : 17
Format : PGS
Muxing mode : zlib
Codec ID : S_HDMV/PGS
Codec ID/Info : Picture based subtitle format used on BDs/HD-DVDs
Duration : 1 h 52 min
Bit rate : 37.3 kb/s
Count of elements : 3420
Stream size : 29.8 MiB (0%)
Title : English-PGS
Language : English
Default : No
Forced : No

Text #4
ID : 18
Format : PGS
Muxing mode : zlib
Codec ID : S_HDMV/PGS
Codec ID/Info : Picture based subtitle format used on BDs/HD-DVDs
Duration : 1 h 55 min
Bit rate : 25.9 kb/s
Count of elements : 2556
Stream size : 21.5 MiB (0%)
Title : French-PGS
Language : French
Default : No
Forced : No

Text #5
ID : 19
Format : PGS
Muxing mode : zlib
Codec ID : S_HDMV/PGS
Codec ID/Info : Picture based subtitle format used on BDs/HD-DVDs
Duration : 1 h 56 min
Bit rate : 31.4 kb/s
Count of elements : 2788
Stream size : 26.2 MiB (0%)
Title : French-PGS
Language : French
Default : No
Forced : No

Text #6
ID : 20
Format : PGS
Muxing mode : zlib
Codec ID : S_HDMV/PGS
Codec ID/Info : Picture based subtitle format used on BDs/HD-DVDs
Duration : 1 h 46 min
Bit rate : 32.7 kb/s
Count of elements : 2742
Stream size : 24.8 MiB (0%)
Title : Spanish-PGS
Language : Spanish
Default : No
Forced : No

Text #7
ID : 21
Format : PGS
Muxing mode : zlib
Codec ID : S_HDMV/PGS
Codec ID/Info : Picture based subtitle format used on BDs/HD-DVDs
Duration : 1 h 55 min
Bit rate : 28.1 kb/s
Count of elements : 2716
Stream size : 23.3 MiB (0%)
Title : Italian-PGS
Language : Italian
Default : No
Forced : No

Text #8
ID : 22
Format : PGS
Muxing mode : zlib
Codec ID : S_HDMV/PGS
Codec ID/Info : Picture based subtitle format used on BDs/HD-DVDs
Duration : 1 h 55 min
Bit rate : 28.9 kb/s
Count of elements : 2850
Stream size : 24.0 MiB (0%)
Title : German-PGS
Language : German
Default : No
Forced : No

Text #9
ID : 23
Format : PGS
Muxing mode : zlib
Codec ID : S_HDMV/PGS
Codec ID/Info : Picture based subtitle format used on BDs/HD-DVDs
Duration : 1 h 55 min
Bit rate : 25.9 kb/s
Count of elements : 2716
Stream size : 21.4 MiB (0%)
Title : Norwegian-PGS
Language : Norwegian
Default : No
Forced : No

Text #10
ID : 24
Format : PGS
Muxing mode : zlib
Codec ID : S_HDMV/PGS
Codec ID/Info : Picture based subtitle format used on BDs/HD-DVDs
Duration : 1 h 55 min
Bit rate : 24.1 kb/s
Count of elements : 1890
Stream size : 20.0 MiB (0%)
Title : Swedish-PGS
Language : Swedish
Default : No
Forced : No

Text #11
ID : 25
Format : PGS
Muxing mode : zlib
Codec ID : S_HDMV/PGS
Codec ID/Info : Picture based subtitle format used on BDs/HD-DVDs
Duration : 1 h 43 min
Bit rate : 22 b/s
Count of elements : 4
Stream size : 17.2 KiB (0%)
Title : French-FORCED-PGS
Language : French
Default : No
Forced : No

Text #12
ID : 26
Format : PGS
Muxing mode : zlib
Codec ID : S_HDMV/PGS
Codec ID/Info : Picture based subtitle format used on BDs/HD-DVDs
Duration : 1 h 49 min
Bit rate : 399 b/s
Count of elements : 48
Stream size : 320 KiB (0%)
Title : French-FORCED-PGS
Language : French
Default : No
Forced : No

Text #13
ID : 27
Format : PGS
Muxing mode : zlib
Codec ID : S_HDMV/PGS
Codec ID/Info : Picture based subtitle format used on BDs/HD-DVDs
Duration : 1 h 43 min
Bit rate : 21 b/s
Count of elements : 4
Stream size : 16.0 KiB (0%)
Title : Spanish-FORCED-PGS
Language : Spanish
Default : No
Forced : No

Text #14
ID : 28
Format : PGS
Muxing mode : zlib
Codec ID : S_HDMV/PGS
Codec ID/Info : Picture based subtitle format used on BDs/HD-DVDs
Duration : 5 s 444 ms
Bit rate : 12.0 kb/s
Count of elements : 2
Stream size : 7.99 KiB (0%)
Title : Italian-FORCED-PGS
Language : Italian
Default : No
Forced : No

Text #15
ID : 29
Format : PGS
Muxing mode : zlib
Codec ID : S_HDMV/PGS
Codec ID/Info : Picture based subtitle format used on BDs/HD-DVDs
Duration : 4 s 609 ms
Bit rate : 29.1 kb/s
Count of elements : 2
Stream size : 16.3 KiB (0%)
Title : German-FORCED-PGS
Language : German
Default : No
Forced : No

Menu
00:00:00.000 : en:Chapter 01
00:04:50.373 : en:Chapter 02
00:10:51.067 : en:Chapter 03
00:17:47.691 : en:Chapter 04
00:23:52.764 : en:Chapter 05
00:29:59.756 : en:Chapter 06
00:33:05.066 : en:Chapter 07
00:37:09.310 : en:Chapter 08
00:43:42.911 : en:Chapter 09
00:50:47.335 : en:Chapter 10
00:55:02.716 : en:Chapter 11
00:59:48.459 : en:Chapter 12
01:06:27.233 : en:Chapter 13
01:14:32.092 : en:Chapter 14
01:18:26.118 : en:Chapter 15
01:23:07.524 : en:Chapter 16
01:28:04.654 : en:Chapter 17
01:33:10.876 : en:Chapter 18
01:37:13.744 : en:Chapter 19
01:44:39.189 : en:Chapter 20
01:47:47.043 : en:Chapter 21
movie BDRip Video
ID : 1
Format : HEVC
Format/Info : High Efficiency Video Coding
Format profile : Main 10@L5.1@High
HDR format : SMPTE ST 2086, HDR10 compatible
Codec ID : V_MPEGH/ISO/HEVC
Duration : 1 h 58 min
Bit rate : 13.4 Mb/s
Width : 3 840 pixels
Height : 2 160 pixels
Display aspect ratio : 16:9
Frame rate mode : Constant
Frame rate : 23.976 (24000/1001) FPS
Color space : YUV
Chroma subsampling : 4:2:0 (Type 2)
Bit depth : 10 bits
Bits/(Pixel*Frame) : 0.067
Stream size : 11.1 GiB (70%)
Writing library : x265 3.2+6-f46aa2bc1c34:[Windows][GCC 9.2.0][64 bit] 10bit
Encoding settings : cpuid=1111039 / frame-threads=6 / numa-pools=36 / wpp / no-pmode / no-pme / no-psnr / no-ssim / log-level=2 / input-csp=1 / input-res=3840x2160 / interlace=0 / total-frames=170099 / level-idc=51 / high-tier=1 / uhd-bd=1 / ref=4 / no-allow-non-conformance / repeat-headers / annexb / aud / hrd / info / hash=0 / no-temporal-layers / no-open-gop / min-keyint=1 / keyint=24 / gop-lookahead=0 / bframes=4 / b-adapt=2 / b-pyramid / bframe-bias=0 / rc-lookahead=25 / lookahead-slices=4 / scenecut=40 / radl=0 / no-splice / no-intra-refresh / ctu=64 / min-cu-size=8 / rect / no-amp / max-tu-size=32 / tu-inter-depth=1 / tu-intra-depth=1 / limit-tu=0 / rdoq-level=2 / dynamic-rd=0.00 / no-ssim-rd / signhide / no-tskip / nr-intra=0 / nr-inter=0 / no-constrained-intra / no-strong-intra-smoothing / max-merge=3 / limit-refs=3 / limit-modes / me=3 / subme=3 / merange=57 / temporal-mvp / no-frame-dup / no-hme / weightp / no-weightb / no-analyze-src-pics / deblock=-3:-3 / no-sao / no-sao-non-deblock / rd=4 / selective-sao=0 / no-early-skip / rskip / no-fast-intra / no-tskip-fast / no-cu-lossless / no-b-intra / no-splitrd-skip / rdpenalty=0 / psy-rd=2.00 / psy-rdoq=1.00 / no-rd-refine / no-lossless / cbqpoffs=0 / crqpoffs=0 / rc=crf / crf=17.0 / qcomp=0.60 / qpstep=4 / stats-write=0 / stats-read=0 / vbv-maxrate=160000 / vbv-bufsize=160000 / vbv-init=0.9 / crf-max=0.0 / crf-min=0.0 / ipratio=1.40 / pbratio=1.30 / aq-mode=2 / aq-strength=1.00 / cutree / zone-count=0 / no-strict-cbr / qg-size=32 / no-rc-grain / qpmax=69 / qpmin=0 / no-const-vbv / sar=1 / overscan=0 / videoformat=5 / range=0 / colorprim=9 / transfer=16 / colormatrix=9 / chromaloc=1 / chromaloc-top=2 / chromaloc-bottom=2 / display-window=0 / master-display=G(13250,34500)B(7500,3000)R(34000,16000)WP(15635,16450)L(10000000,1) / cll=0,0 / min-luma=0 / max-luma=1023 / log2-max-poc-lsb=8 / vui-timing-info / vui-hrd-info / slices=1 / no-opt-qp-pps / no-opt-ref-list-length-pps / no-multi-pass-opt-rps / scenecut-bias=0.05 / no-opt-cu-delta-qp / no-aq-motion / hdr / hdr-opt / no-dhdr10-opt / no-idr-recovery-sei / analysis-reuse-level=5 / scale-factor=0 / refine-intra=0 / refine-inter=0 / refine-mv=1 / refine-ctu-distortion=0 / no-limit-sao / ctu-info=0 / no-lowpass-dct / refine-analysis-type=0 / copy-pic=1 / max-ausize-factor=1.0 / no-dynamic-refine / no-single-sei / no-hevc-aq / no-svt / no-field / qp-adaptation-range=1.00
Default : Yes
Forced : No
Color range : Limited
Color primaries : BT.2020
Transfer characteristics : PQ
Matrix coefficients : BT.2020 non-constant
Mastering display color primaries : Display P3
Mastering display luminance : min: 0.0001 cd/m2, max: 1000 cd/m2

Audio #1
ID : 2
Format : MLP FBA 16-ch
Format/Info : Meridian Lossless Packing FBA with 16-channel presentation
Commercial name : Dolby TrueHD with Dolby Atmos
Codec ID : A_TRUEHD
Duration : 1 h 58 min
Bit rate mode : Variable
Bit rate : 4 929 kb/s
Maximum bit rate : 7 332 kb/s
Channel(s) : 8 channels
Channel layout : L R C LFE Ls Rs Lb Rb
Sampling rate : 48.0 kHz
Frame rate : 1 200.000 FPS (40 SPF)
Compression mode : Lossless
Stream size : 4.07 GiB (26%)
Language : English
Default : Yes
Forced : No
Number of dynamic objects : 13
Bed channel count : 1 channel
Bed channel configuration : LFE

Audio #2
ID : 3
Format : AC-3
Format/Info : Audio Coding 3
Commercial name : Dolby Digital
Codec ID : A_AC3
Duration : 1 h 58 min
Bit rate mode : Constant
Bit rate : 640 kb/s
Channel(s) : 6 channels
Channel layout : L R C LFE Ls Rs
Sampling rate : 48.0 kHz
Frame rate : 31.250 FPS (1536 SPF)
Bit depth : 16 bits
Compression mode : Lossy
Stream size : 541 MiB (3%)
Language : English
Service kind : Complete Main
Default : No
Forced : No

Text #1
ID : 4
Format : PGS
Muxing mode : zlib
Codec ID : S_HDMV/PGS
Codec ID/Info : Picture based subtitle format used on BDs/HD-DVDs
Duration : 1 h 52 min
Bit rate : 37.3 kb/s
Count of elements : 3420
Stream size : 29.8 MiB (0%)
Language : English
Default : No
Forced : No

Text #2
ID : 5
Format : PGS
Muxing mode : zlib
Codec ID : S_HDMV/PGS
Codec ID/Info : Picture based subtitle format used on BDs/HD-DVDs
Duration : 1 h 55 min
Bit rate : 25.9 kb/s
Count of elements : 2556
Stream size : 21.5 MiB (0%)
Language : French
Default : No
Forced : No

Text #3
ID : 6
Format : PGS
Muxing mode : zlib
Codec ID : S_HDMV/PGS
Codec ID/Info : Picture based subtitle format used on BDs/HD-DVDs
Duration : 1 h 56 min
Bit rate : 31.4 kb/s
Count of elements : 2788
Stream size : 26.2 MiB (0%)
Language : French
Default : No
Forced : No

Text #4
ID : 7
Format : PGS
Muxing mode : zlib
Codec ID : S_HDMV/PGS
Codec ID/Info : Picture based subtitle format used on BDs/HD-DVDs
Duration : 1 h 46 min
Bit rate : 32.7 kb/s
Count of elements : 2742
Stream size : 24.8 MiB (0%)
Language : Spanish
Default : No
Forced : No

Text #5
ID : 8
Format : PGS
Muxing mode : zlib
Codec ID : S_HDMV/PGS
Codec ID/Info : Picture based subtitle format used on BDs/HD-DVDs
Duration : 1 h 55 min
Bit rate : 28.1 kb/s
Count of elements : 2716
Stream size : 23.3 MiB (0%)
Language : Italian
Default : No
Forced : No

Text #6
ID : 9
Format : PGS
Muxing mode : zlib
Codec ID : S_HDMV/PGS
Codec ID/Info : Picture based subtitle format used on BDs/HD-DVDs
Duration : 1 h 55 min
Bit rate : 28.9 kb/s
Count of elements : 2850
Stream size : 24.0 MiB (0%)
Language : German
Default : No
Forced : No

Text #7
ID : 10
Format : PGS
Muxing mode : zlib
Codec ID : S_HDMV/PGS
Codec ID/Info : Picture based subtitle format used on BDs/HD-DVDs
Duration : 1 h 55 min
Bit rate : 25.9 kb/s
Count of elements : 2716
Stream size : 21.4 MiB (0%)
Language : Norwegian
Default : No
Forced : No

Text #8
ID : 11
Format : PGS
Muxing mode : zlib
Codec ID : S_HDMV/PGS
Codec ID/Info : Picture based subtitle format used on BDs/HD-DVDs
Duration : 1 h 55 min
Bit rate : 24.1 kb/s
Count of elements : 1890
Stream size : 20.0 MiB (0%)
Language : Swedish
Default : No
Forced : No

Menu
00:00:00.000 : en:Chapter 01
00:04:50.499 : en:Chapter 02
00:10:51.067 : en:Chapter 03
00:17:47.692 : en:Chapter 04
00:23:53.015 : en:Chapter 05
00:30:00.132 : en:Chapter 06
00:33:05.066 : en:Chapter 07
00:37:09.310 : en:Chapter 08
00:43:42.912 : en:Chapter 09
00:50:47.336 : en:Chapter 10
00:55:02.716 : en:Chapter 11
00:59:48.460 : en:Chapter 12
01:06:27.233 : en:Chapter 13
01:14:32.093 : en:Chapter 14
01:18:26.410 : en:Chapter 15
01:23:07.900 : en:Chapter 16
01:28:04.654 : en:Chapter 17
01:33:10.877 : en:Chapter 18
01:37:13.745 : en:Chapter 19
01:44:39.190 : en:Chapter 20
01:47:47.336 : en:Chapter 21

Download

download 4k hdr movies download 4k hdr movies

Watch a movie trailer - The Lion King 4K 2019 Ultra HD 2160p
Comments and Feedback
  1. - 0 +
    Deepak  пишет:
    10 November 2019 07:08
    The download link for Lion King movie is not available. Please help
Add your comment:
Your name:
Your E-Mail:
Code:
reload, if the code cannot be seen
Enter code: