Select movie Search movie Close search My Account

Fifty Shades of Grey 4K 2015 Ultra HD 2160p

Fifty Shades of Grey 4K 2015 Ultra HD 2160p
BDRemux / BDRip
Country: USA
Time: 2h 5min
IMDB: 4.1
Director: Sam Taylor-Johnson
Actors: Dakota Johnson, Jamie Dornan, Jennifer Ehle, Eloise Mumford, Victor Rasuk, Luke Grimes, Marcia Gay Harden, Rita Ora, Max Martini, Callum Keith Rennie, Andrew Airlie, Dylan Neal, Elliat Albrecht, Rachel Skarsten, Emily Fonda...

Story Movie

Literature student Anastasia Steele's life changes forever when she meets handsome, yet tormented, billionaire Christian Grey.

When Anastasia Steele, a literature student, goes to interview the wealthy Christian Grey as a favor to her roommate Kate Kavanagh, she encounters a beautiful, brilliant and intimidating man. The innocent and naive Ana starts to realize she wants him. Despite his enigmatic reserve and advice, she finds herself desperate to get close to him. Not able to resist Ana's beauty and independent spirit, Christian Grey admits he wants her too, but on his own terms. Ana hesitates as she discovers the singular tastes of Christian Grey - despite the embellishments of success, his multinational businesses, his vast wealth, and his loving family, Grey is consumed by the need to control everything.

Review 4K Movie

I don't know what people were expecting. I hadn't read the books before seeing the movie and I am assuming that maybe this was a good thing. I enjoyed the film. I do not agree with the lack of chemistry either. There was a weird chemistry which I believe made sense because of the unusual relationship. He is an odd character and she is intimidated and is also very innocent therefore it isn't going to be the usual sexual chemistry that you would find in a romantic film. A lot of people have said there was not enough sex or it was not raunchy enough. Firstly, if there were any more sex scenes it would have got quite boring, and instead we got to see a bit of a story line. Also there is only so much that they can show in a film, surely? What were people expecting? Also one final point in relation to the comments I have seen regarding the film giving S&M a bad name; I don't agree. This is a specific story about one guy who is into specific things and goes about things a particular way. It was all consensual (and it is made clear that it must be). The whole point of the story is that Christian Grey's sexual desires are confusing for Anatasia to understand and that the relationship is quite complicated due to their mutual feelings for each other. I have also seen comments that this film is sexist and degrades women. This film does not promote that at all it merely shows a story of someone who practises in S&M and in this instance the man is the dominant. She has a choice as to whether she wants to engage in this and the film does not say "this is okay" and "woman should do this". The character was not forced to do anything. I do not get why people feel the need to accuse films of implying or portraying such things.

Obviously this film is not perfect and there are things that could have been better but I enjoyed this film and personally would recommend it to others. I can get quite bored in films but I was not bored at all, I have paid more to see films that are A LOT worse than this.

Mediainfo

movie BDRemux Video
ID : 1
Format : HEVC
Format/Info : High Efficiency Video Coding
Format profile : Main 10@L5.1@High
Codec ID : V_MPEGH/ISO/HEVC
Duration : 2 h 8 min
Bit rate : 41.9 Mb/s
Width : 3 840 pixels
Height : 2 160 pixels
Display aspect ratio : 16:9
Frame rate mode : Constant
Frame rate : 23.976 (24000/1001) FPS
Color space : YUV
Chroma subsampling : 4:2:0 (Type 2)
Bit depth : 10 bits
Bits/(Pixel*Frame) : 0.211
Stream size : 37.6 GiB (82%)
Title : Fifty.Shades.of.Grey.2015.UNRATED.2160p.BluRay.REMUX.HEVC.DTS-X.7.1-FGT
Writing library : ATEME Titan File 3.7.9 (4.7.9.0)
Default : Yes
Forced : No
Color range : Limited
Color primaries : BT.2020
Transfer characteristics : SMPTE ST 2084
Matrix coefficients : BT.2020 non-constant
Mastering display color primaries : R: x=0.680000 y=0.320000, G: x=0.265000 y=0.690000, B: x=0.150000 y=0.060000, White point: x=0.312700 y=0.329000
Mastering display luminance : min: 0.0050 cd/m2, max: 1000.0000 cd/m2
Maximum Content Light Level : 1000 cd/m2
Maximum Frame-Average Light Level : 96 cd/m2

Audio #1
ID : 2
Format : DTS
Format/Info : Digital Theater Systems
Format profile : X / MA / Core
Mode : 16
Format settings, Endianness : Big
Codec ID : A_DTS
Duration : 2 h 8 min
Bit rate mode : Variable / Variable / Constant
Bit rate : 5 956 kb/s / 5 956 kb/s / 1 509 kb/s
Channel(s) : Object Based / 8 channels / 6 channels
Channel positions : Object Based / Front: L C R, Side: L R, Back: L R, LFE / Front: L C R, Side: L R, LFE
Sampling rate : / 48.0 kHz / 48.0 kHz
Frame rate : 93.750 FPS (512 spf)
Bit depth : / 24 bits / 24 bits
Compression mode : / Lossless / Lossy
Stream size : 5.35 GiB (12%)
Title : Fifty.Shades.of.Grey.2015.UNRATED.2160p.BluRay.REMUX.HEVC.DTS-X.7.1-FGT
Language : English
Default : Yes
Forced : No

Audio #2
ID : 3
Format : DTS
Format/Info : Digital Theater Systems
Mode : 16
Format settings, Endianness : Big
Codec ID : A_DTS
Duration : 2 h 8 min
Bit rate mode : Constant
Bit rate : 255 kb/s
Channel(s) : 2 channels
Channel positions : Front: L R
Sampling rate : 48.0 kHz
Frame rate : 93.750 FPS (512 spf)
Bit depth : 24 bits
Compression mode : Lossy
Stream size : 234 MiB (0%)
Title : Fifty.Shades.of.Grey.2015.UNRATED.2160p.BluRay.REMUX.HEVC.DTS-X.7.1-FGT
Language : English
Default : No
Forced : No

Audio #3
ID : 4
Format : DTS
Format/Info : Digital Theater Systems
Mode : 16
Format settings, Endianness : Big
Codec ID : A_DTS
Duration : 2 h 8 min
Bit rate mode : Constant
Bit rate : 768 kb/s
Channel(s) : 6 channels
Channel positions : Front: L C R, Side: L R, LFE
Sampling rate : 48.0 kHz
Frame rate : 93.750 FPS (512 spf)
Bit depth : 24 bits
Compression mode : Lossy
Stream size : 706 MiB (1%)
Title : Fifty.Shades.of.Grey.2015.UNRATED.2160p.BluRay.REMUX.HEVC.DTS-X.7.1-FGT
Language : French
Default : No
Forced : No

Audio #4
ID : 5
Format : DTS
Format/Info : Digital Theater Systems
Mode : 16
Format settings, Endianness : Big
Codec ID : A_DTS
Duration : 2 h 8 min
Bit rate mode : Constant
Bit rate : 768 kb/s
Channel(s) : 6 channels
Channel positions : Front: L C R, Side: L R, LFE
Sampling rate : 48.0 kHz
Frame rate : 93.750 FPS (512 spf)
Bit depth : 24 bits
Compression mode : Lossy
Stream size : 706 MiB (1%)
Title : Fifty.Shades.of.Grey.2015.UNRATED.2160p.BluRay.REMUX.HEVC.DTS-X.7.1-FGT
Language : Spanish
Default : No
Forced : No

Audio #5
ID : 6
Format : DTS
Format/Info : Digital Theater Systems
Mode : 16
Format settings, Endianness : Big
Codec ID : A_DTS
Duration : 2 h 8 min
Bit rate mode : Constant
Bit rate : 768 kb/s
Channel(s) : 6 channels
Channel positions : Front: L C R, Side: L R, LFE
Sampling rate : 48.0 kHz
Frame rate : 93.750 FPS (512 spf)
Bit depth : 24 bits
Compression mode : Lossy
Stream size : 706 MiB (1%)
Title : Fifty.Shades.of.Grey.2015.UNRATED.2160p.BluRay.REMUX.HEVC.DTS-X.7.1-FGT
Language : Japanese
Default : No
Forced : No

Audio #6
ID : 7
Format : DTS
Format/Info : Digital Theater Systems
Mode : 16
Format settings, Endianness : Big
Codec ID : A_DTS
Duration : 2 h 8 min
Bit rate mode : Constant
Bit rate : 768 kb/s
Channel(s) : 6 channels
Channel positions : Front: L C R, Side: L R, LFE
Sampling rate : 48.0 kHz
Frame rate : 93.750 FPS (512 spf)
Bit depth : 24 bits
Compression mode : Lossy
Stream size : 706 MiB (1%)
Title : Fifty.Shades.of.Grey.2015.UNRATED.2160p.BluRay.REMUX.HEVC.DTS-X.7.1-FGT
Language : Portuguese
Default : No
Forced : No

Text #1
ID : 8
Format : PGS
Muxing mode : zlib
Codec ID : S_HDMV/PGS
Codec ID/Info : Picture based subtitle format used on BDs/HD-DVDs
Duration : 1 h 59 min
Bit rate : 32.0 kb/s
Count of elements : 3272
Stream size : 27.4 MiB (0%)
Title : English-PGS
Language : English
Default : Yes
Forced : No

Text #2
ID : 9
Format : PGS
Muxing mode : zlib
Codec ID : S_HDMV/PGS
Codec ID/Info : Picture based subtitle format used on BDs/HD-DVDs
Duration : 1 h 59 min
Bit rate : 27.5 kb/s
Count of elements : 2782
Stream size : 23.5 MiB (0%)
Title : French-PGS
Language : French
Default : No
Forced : No

Text #3
ID : 10
Format : PGS
Muxing mode : zlib
Codec ID : S_HDMV/PGS
Codec ID/Info : Picture based subtitle format used on BDs/HD-DVDs
Duration : 1 h 58 min
Bit rate : 26.1 kb/s
Count of elements : 2762
Stream size : 22.1 MiB (0%)
Title : Spanish-PGS
Language : Spanish
Default : No
Forced : No

Text #4
ID : 11
Format : PGS
Muxing mode : zlib
Codec ID : S_HDMV/PGS
Codec ID/Info : Picture based subtitle format used on BDs/HD-DVDs
Duration : 1 h 58 min
Bit rate : 16.7 kb/s
Count of elements : 2439
Stream size : 14.2 MiB (0%)
Title : Japanese-PGS
Language : Japanese
Default : No
Forced : No

Text #5
ID : 12
Format : PGS
Muxing mode : zlib
Codec ID : S_HDMV/PGS
Codec ID/Info : Picture based subtitle format used on BDs/HD-DVDs
Duration : 2 h 7 min
Bit rate : 22.7 kb/s
Count of elements : 2790
Stream size : 20.7 MiB (0%)
Title : Portuguese-PGS
Language : Portuguese
Default : No
Forced : No

Text #6
ID : 13
Format : PGS
Muxing mode : zlib
Codec ID : S_HDMV/PGS
Codec ID/Info : Picture based subtitle format used on BDs/HD-DVDs
Duration : 1 h 59 min
Bit rate : 3 761 b/s
Count of elements : 298
Stream size : 3.21 MiB (0%)
Title : French-FORCED-PGS
Language : French
Default : No
Forced : No

Text #7
ID : 14
Format : PGS
Muxing mode : zlib
Codec ID : S_HDMV/PGS
Codec ID/Info : Picture based subtitle format used on BDs/HD-DVDs
Duration : 1 h 58 min
Bit rate : 971 b/s
Count of elements : 86
Stream size : 844 KiB (0%)
Title : Spanish-FORCED-PGS
Language : Spanish
Default : No
Forced : No

Text #8
ID : 15
Format : PGS
Muxing mode : zlib
Codec ID : S_HDMV/PGS
Codec ID/Info : Picture based subtitle format used on BDs/HD-DVDs
Duration : 1 h 58 min
Bit rate : 413 b/s
Count of elements : 68
Stream size : 360 KiB (0%)
Title : Japanese-FORCED-PGS
Language : Japanese
Default : No
Forced : No

Text #9
ID : 16
Format : PGS
Muxing mode : zlib
Codec ID : S_HDMV/PGS
Codec ID/Info : Picture based subtitle format used on BDs/HD-DVDs
Duration : 2 h 7 min
Bit rate : 504 b/s
Count of elements : 60
Stream size : 471 KiB (0%)
Title : Portuguese-FORCED-PGS
Language : Portuguese
Default : No
Forced : No

Menu
00:00:00.000 : en:Chapter 1
00:10:26.917 : en:Chapter 2
00:14:28.158 : en:Chapter 3
00:20:31.563 : en:Chapter 4
00:24:05.318 : en:Chapter 5
00:29:49.579 : en:Chapter 6
00:35:07.980 : en:Chapter 7
00:40:18.958 : en:Chapter 8
00:46:33.749 : en:Chapter 9
00:50:22.394 : en:Chapter 10
00:57:05.213 : en:Chapter 11
01:02:19.986 : en:Chapter 12
01:06:50.798 : en:Chapter 13
01:14:28.088 : en:Chapter 14
01:22:16.264 : en:Chapter 15
01:31:11.882 : en:Chapter 16
01:38:14.805 : en:Chapter 17
01:46:21.166 : en:Chapter 18
01:53:19.751 : en:Chapter 19
02:01:42.419 : en:Chapter 20
movie BDRip Video
ID : 1
Format : HEVC
Format/Info : High Efficiency Video Coding
Format profile : Main 10@L5.1@High
Codec ID : V_MPEGH/ISO/HEVC
Duration : 2 h 8 min
Bit rate : 5 024 kb/s
Width : 3 840 pixels
Height : 1 600 pixels
Display aspect ratio : 2.40:1
Frame rate mode : Constant
Frame rate : 23.976 (24000/1001) FPS
Color space : YUV
Chroma subsampling : 4:2:0 (Type 2)
Bit depth : 10 bits
Bits/(Pixel*Frame) : 0.034
Stream size : 4.51 GiB (46%)
Writing library : x265 2.5+27-0e168bdeb48b:[Windows][GCC 6.2.1][64 bit] 10bit
Encoding settings : cpuid=1173503 / frame-threads=4 / numa-pools=20 / wpp / no-pmode / no-pme / no-psnr / no-ssim / log-level=2 / input-csp=1 / input-res=3840x1600 / interlace=0 / total-frames=184880 / level-idc=51 / high-tier=1 / uhd-bd=0 / ref=4 / no-allow-non-conformance / repeat-headers / annexb / aud / hrd / info / hash=0 / no-temporal-layers / no-open-gop / min-keyint=1 / keyint=24 / bframes=4 / b-adapt=2 / b-pyramid / bframe-bias=0 / rc-lookahead=25 / lookahead-slices=4 / scenecut=40 / no-intra-refresh / ctu=64 / min-cu-size=8 / rect / no-amp / max-tu-size=32 / tu-inter-depth=1 / tu-intra-depth=1 / limit-tu=0 / rdoq-level=2 / dynamic-rd=0.00 / no-ssim-rd / signhide / no-tskip / nr-intra=0 / nr-inter=0 / no-constrained-intra / no-strong-intra-smoothing / max-merge=3 / limit-refs=3 / limit-modes / me=3 / subme=3 / merange=57 / temporal-mvp / weightp / no-weightb / no-analyze-src-pics / deblock=-3:-3 / no-sao / no-sao-non-deblock / rd=4 / no-early-skip / rskip / no-fast-intra / no-tskip-fast / no-cu-lossless / no-b-intra / no-splitrd-skip / rdpenalty=0 / psy-rd=2.00 / psy-rdoq=1.00 / no-rd-refine / analysis-reuse-mode=0 / no-lossless / cbqpoffs=0 / crqpoffs=0 / rc=crf / crf=17.0 / qcomp=0.60 / qpstep=4 / stats-write=0 / stats-read=0 / vbv-maxrate=160000 / vbv-bufsize=160000 / vbv-init=0.9 / crf-max=0.0 / crf-min=0.0 / ipratio=1.40 / pbratio=1.30 / aq-mode=1 / aq-strength=1.00 / cutree / zone-count=0 / no-strict-cbr / qg-size=32 / no-rc-grain / qpmax=69 / qpmin=0 / no-const-vbv / sar=1 / overscan=0 / videoformat=5 / range=0 / colorprim=9 / transfer=16 / colormatrix=9 / chromaloc=1 / chromaloc-top=2 / chromaloc-bottom=2 / display-window=0 / master-display=G(13250,34500)B(7500,3000)R(34000,16000)WP(15635,16450)L(10000000,50) / max-cll=1000,96 / min-luma=0 / max-luma=1023 / log2-max-poc-lsb=8 / vui-timing-info / vui-hrd-info / slices=1 / opt-qp-pps / opt-ref-list-length-pps / no-multi-pass-opt-rps / scenecut-bias=0.05 / no-opt-cu-delta-qp / no-aq-motion / hdr / hdr-opt / no-dhdr10-opt / analysis-reuse-level=5 / scale-factor=0 / refine-intra=0 / refine-inter=0 / refine-mv=0 / no-limit-sao / ctu-info=0
Default : Yes
Forced : No
Color range : Limited
Color primaries : BT.2020
Transfer characteristics : SMPTE ST 2084
Matrix coefficients : BT.2020 non-constant
Mastering display color primaries : R: x=0.680000 y=0.320000, G: x=0.265000 y=0.690000, B: x=0.150000 y=0.060000, White point: x=0.312700 y=0.329000
Mastering display luminance : min: 0.0050 cd/m2, max: 1000.0000 cd/m2
Maximum Content Light Level : 1000 cd/m2
Maximum Frame-Average Light Level : 96 cd/m2

Audio
ID : 2
Format : DTS
Format/Info : Digital Theater Systems
Format profile : X / MA / Core
Mode : 16
Format settings, Endianness : Big
Codec ID : A_DTS
Duration : 2 h 8 min
Bit rate mode : Variable / Variable / Constant
Bit rate : 5 956 kb/s / 5 956 kb/s / 1 509 kb/s
Channel(s) : Object Based / 8 channels / 6 channels
Channel positions : Object Based / Front: L C R, Side: L R, Back: L R, LFE / Front: L C R, Side: L R, LFE
Sampling rate : / 48.0 kHz / 48.0 kHz
Frame rate : 93.750 FPS (512 spf)
Bit depth : / 24 bits / 24 bits
Compression mode : / Lossless / Lossy
Stream size : 5.35 GiB (54%)
Language : English
Default : Yes
Forced : No

Text #1
ID : 3
Format : PGS
Muxing mode : zlib
Codec ID : S_HDMV/PGS
Codec ID/Info : Picture based subtitle format used on BDs/HD-DVDs
Duration : 1 h 59 min
Bit rate : 32.0 kb/s
Count of elements : 3272
Stream size : 27.4 MiB (0%)
Title : SDH
Language : English
Default : No
Forced : No

Text #2
ID : 4
Format : PGS
Muxing mode : zlib
Codec ID : S_HDMV/PGS
Codec ID/Info : Picture based subtitle format used on BDs/HD-DVDs
Duration : 1 h 59 min
Bit rate : 27.5 kb/s
Count of elements : 2782
Stream size : 23.5 MiB (0%)
Language : French
Default : No
Forced : No

Text #3
ID : 5
Format : PGS
Muxing mode : zlib
Codec ID : S_HDMV/PGS
Codec ID/Info : Picture based subtitle format used on BDs/HD-DVDs
Duration : 1 h 58 min
Bit rate : 26.1 kb/s
Count of elements : 2762
Stream size : 22.1 MiB (0%)
Language : Spanish
Default : No
Forced : No

Text #4
ID : 6
Format : PGS
Muxing mode : zlib
Codec ID : S_HDMV/PGS
Codec ID/Info : Picture based subtitle format used on BDs/HD-DVDs
Duration : 1 h 58 min
Bit rate : 16.7 kb/s
Count of elements : 2439
Stream size : 14.2 MiB (0%)
Language : Japanese
Default : No
Forced : No

Text #5
ID : 7
Format : PGS
Muxing mode : zlib
Codec ID : S_HDMV/PGS
Codec ID/Info : Picture based subtitle format used on BDs/HD-DVDs
Duration : 2 h 7 min
Bit rate : 22.7 kb/s
Count of elements : 2790
Stream size : 20.7 MiB (0%)
Language : Portuguese
Default : No
Forced : No

Menu
00:00:00.000 : en:00:00:00.000
00:10:26.918 : en:00:10:26.918
00:14:28.159 : en:00:14:28.159
00:20:31.564 : en:00:20:31.564
00:24:05.319 : en:00:24:05.319
00:29:49.579 : en:00:29:49.579
00:35:07.981 : en:00:35:07.981
00:40:18.958 : en:00:40:18.958
00:46:33.749 : en:00:46:33.749
00:50:22.394 : en:00:50:22.394
00:57:05.213 : en:00:57:05.213
01:02:19.986 : en:01:02:19.986
01:06:50.798 : en:01:06:50.798
01:14:28.089 : en:01:14:28.089
01:22:16.265 : en:01:22:16.265
01:31:11.883 : en:01:31:11.883
01:38:14.805 : en:01:38:14.805
01:46:21.166 : en:01:46:21.166
01:53:19.751 : en:01:53:19.751
02:01:42.420 : en:02:01:42.420

Download

download 4k hdr movies download 4k hdr movies

Fifty Shades of Grey 4K 2015 Ultra HD 2160p


Watch a movie trailer - Fifty Shades of Grey 4K 2015 Ultra HD 2160p
Comments and Feedback
Add your comment:
Your name:
Your E-Mail:
Enter the two words shown in the image: *