Select movie Search movie Close search My Account

Batman: Assault on Arkham 4K 2014 Ultra HD 2160p

Batman: Assault on Arkham 4K 2014 Ultra HD 2160p
BDRemux / BDRip
Country: USA
Time: 1h 16min
IMDB: 7.5
Director: Jay Oliva, Ethan Spaulding
Actors: Kevin Conroy, Neal McDonough, Hynden Walch, Matthew Gray, Troy Baker, Eric Bauza, Chris Cox, John DiMaggio, Greg Ellis, Giancarlo Esposito, Jennifer Hale, Martin Jarvis, Peter Jessop, Christian Lanz, Nolan North

Story Movie

Batman: Assault on Arkham 4K 2014 Ultra HD 2160p
In order to penetrate Arkham closed psychiatric hospital and extract secret information from one of the prisoners, the government creates a secret team that includes frightened criminals and murderers, this is how this part of the Batman movie begins - Batman: Assault on Arkham 4k uhd download movies. But the situation is out of control in the most unexpected way and its permission to completely fall on the shoulders of a super hero.

Review 4K Movie

"Batman: Assault on Arkham" 4k uhd download movies is a great DC animation project that appears to be part of the Batman: Arkham universe and tells about the next task of the Suicide Squad - a special team of selected supervillains for whom there are only two scenarios - to perform suicidal mission or die.

So, Amanda Waller catches the worst of the worst for a special task of penetrating the infamous Arkham asylum. Dedshot, Harley Quinn, Killer Frost, King Shark, Black Spider, and Captain Boomerang have fallen into the assembled squad of supervillains. Waller deprives the alternatives of a freshly assembled Detachment by implanting explosives in their necks (the slightest sign of disobedience and - boom) and explains that the villains must quietly enter the hospital, quietly pick up some data and leave just as quietly. But quietly - this is not part of the team of notorious criminals and murderers, so from that moment all the fun begins.

In addition to the stated Detachment X, the film throws up the viewer and other villains - the Joker, Penguin, Riddler, and small cameo is also enough - Bane, Poison Ivy, Zassas. As for Batman himself, there are not so many of his in “The Arkham Attack”, but each appearance of the Dark Knight on the screen is something cool, and in the end, Bats also plays an important role in the plot.

It is noteworthy that the external images of the characters and some locations are taken from the Arkham game universe, so for its fans this is another plus. The film itself is quite an adult, here you have blood, outright cruelty, and near-erotic scenes. Action at a height, every fight, every shootout I want to review.

Bottom line: "Batman: Assault on Arkham" Ultra HD is a really great project, which I recommend for viewing to absolutely everyone. Those familiar with the comics will be able to once again look at their favorite characters in action, and the rest will see that there is a downside to superheroes.

Mediainfo

movie BDRemux Video
ID : 1
Format : HEVC
Format/Info : High Efficiency Video Coding
Commercial name : HDR10
Format profile : Main 10@L5.1@High
Codec ID : V_MPEGH/ISO/HEVC
Duration : 1 h 15 min
Bit rate : 83.8 Mb/s
Width : 3 840 pixels
Height : 2 160 pixels
Display aspect ratio : 16:9
Frame rate mode : Constant
Frame rate : 23.976 (24000/1001) FPS
Color space : YUV
Chroma subsampling : 4:2:0 (Type 2)
Bit depth : 10 bits
Bits/(Pixel*Frame) : 0.421
Stream size : 44.4 GiB (94%)
Title : Batman.Assault.on.Arkham.2014.2160p.BluRay.REMUX.HEVC.DTS-HD.MA.5.1
Writing library : ATEME Titan File 3.8.16 (4.8.16.0)
Default : Yes
Forced : No
Color range : Limited
Color primaries : BT.2020
Transfer characteristics : PQ
Matrix coefficients : BT.2020 non-constant
Mastering display color primaries : Display P3
Mastering display luminance : min: 0.0050 cd/m2, max: 4000 cd/m2
Maximum Content Light Level : 943 cd/m2
Maximum Frame-Average Light Level : 601 cd/m2

Audio #1
ID : 2
Format : DTS
Format/Info : Digital Theater Systems
Format profile : MA / Core
Codec ID : A_DTS
Duration : 1 h 15 min
Bit rate mode : Variable / Constant
Bit rate : 4 389 kb/s / 1 509 kb/s
Channel(s) : 6 channels
Channel positions : Front: L C R, Side: L R, LFE
Sampling rate : 48.0 kHz
Frame rate : 93.750 FPS (512 SPF)
Bit depth : 24 bits
Compression mode : Lossless / Lossy
Stream size : 2.33 GiB (5%)
Title : Batman.Assault.on.Arkham.2014.2160p.BluRay.REMUX.HEVC.DTS-HD.MA.5.1
Language : English
Default : Yes
Forced : No

Audio #2
ID : 3
Format : AC-3
Format/Info : Audio Coding 3
Codec ID : A_AC3
Duration : 1 h 15 min
Bit rate mode : Constant
Bit rate : 640 kb/s
Channel(s) : 6 channels
Channel positions : Front: L C R, Side: L R, LFE
Sampling rate : 48.0 kHz
Frame rate : 31.250 FPS (1536 SPF)
Bit depth : 16 bits
Compression mode : Lossy
Stream size : 347 MiB (1%)
Title : Batman.Assault.on.Arkham.2014.2160p.BluRay.REMUX.HEVC.DTS-HD.MA.5.1
Language : French
Service kind : Complete Main
Default : No
Forced : No

Audio #3
ID : 4
Format : AC-3
Format/Info : Audio Coding 3
Codec ID : A_AC3
Duration : 1 h 15 min
Bit rate mode : Constant
Bit rate : 192 kb/s
Channel(s) : 2 channels
Channel positions : Front: L R
Sampling rate : 48.0 kHz
Frame rate : 31.250 FPS (1536 SPF)
Bit depth : 16 bits
Compression mode : Lossy
Stream size : 104 MiB (0%)
Title : Batman.Assault.on.Arkham.2014.2160p.BluRay.REMUX.HEVC.DTS-HD.MA.5.1
Language : Spanish
Service kind : Complete Main
Default : No
Forced : No

Audio #4
ID : 5
Format : AC-3
Format/Info : Audio Coding 3
Codec ID : A_AC3
Duration : 1 h 15 min
Bit rate mode : Constant
Bit rate : 192 kb/s
Channel(s) : 2 channels
Channel positions : Front: L R
Sampling rate : 48.0 kHz
Frame rate : 31.250 FPS (1536 SPF)
Bit depth : 16 bits
Compression mode : Lossy
Stream size : 104 MiB (0%)
Title : Batman.Assault.on.Arkham.2014.2160p.BluRay.REMUX.HEVC.DTS-HD.MA.5.1
Language : English
Service kind : Complete Main
Default : No
Forced : No

Text #1
ID : 6
Format : PGS
Muxing mode : zlib
Codec ID : S_HDMV/PGS
Codec ID/Info : Picture based subtitle format used on BDs/HD-DVDs
Duration : 1 h 15 min
Bit rate : 28.4 kb/s
Count of elements : 2092
Stream size : 15.4 MiB (0%)
Title : English-PGS
Language : English
Default : Yes
Forced : No

Text #2
ID : 7
Format : PGS
Muxing mode : zlib
Codec ID : S_HDMV/PGS
Codec ID/Info : Picture based subtitle format used on BDs/HD-DVDs
Duration : 1 h 15 min
Bit rate : 26.4 kb/s
Count of elements : 1430
Stream size : 14.3 MiB (0%)
Title : French-PGS
Language : French
Default : No
Forced : No

Text #3
ID : 8
Format : PGS
Muxing mode : zlib
Codec ID : S_HDMV/PGS
Codec ID/Info : Picture based subtitle format used on BDs/HD-DVDs
Duration : 1 h 15 min
Bit rate : 22.8 kb/s
Count of elements : 1434
Stream size : 12.3 MiB (0%)
Title : Spanish-PGS
Language : Spanish
Default : No
Forced : No

Menu
00:00:00.000 : :Chapter 1
00:09:50.631 : :Chapter 2
00:20:56.797 : :Chapter 3
00:30:06.721 : :Chapter 4
00:38:57.418 : :Chapter 5
00:50:28.692 : :Chapter 6
00:59:18.471 : :Chapter 7
01:09:11.856 : :Chapter 8
01:12:53.160 : :Chapter 9
movie BDRip Video
ID : 6
Format : HEVC
Format/Info : High Efficiency Video Coding
Commercial name : HDR10
Format profile : Main 10@L5.1@High
Codec ID : V_MPEGH/ISO/HEVC
Duration : 1 h 15 min
Bit rate : 7 037 kb/s
Width : 3 840 pixels
Height : 2 160 pixels
Display aspect ratio : 16:9
Frame rate mode : Constant
Frame rate : 23.976 (24000/1001) FPS
Color space : YUV
Chroma subsampling : 4:2:0 (Type 2)
Bit depth : 10 bits
Bits/(Pixel*Frame) : 0.035
Stream size : 3.73 GiB (80%)
Writing library : x265 2.8+10-703eade86b53:[Windows][MSVC 1914][64 bit] 10bit
Encoding settings : cpuid=1111039 / frame-threads=4 / numa-pools=20 / wpp / no-pmode / no-pme / no-psnr / no-ssim / log-level=2 / input-csp=1 / input-res=3840x2160 / interlace=0 / total-frames=109200 / level-idc=51 / high-tier=1 / uhd-bd=1 / ref=4 / no-allow-non-conformance / repeat-headers / annexb / aud / hrd / info / hash=0 / no-temporal-layers / no-open-gop / min-keyint=1 / keyint=24 / gop-lookahead=0 / bframes=4 / b-adapt=2 / b-pyramid / bframe-bias=0 / rc-lookahead=25 / lookahead-slices=4 / scenecut=40 / radl=0 / no-intra-refresh / ctu=64 / min-cu-size=8 / rect / no-amp / max-tu-size=32 / tu-inter-depth=1 / tu-intra-depth=1 / limit-tu=0 / rdoq-level=2 / dynamic-rd=0.00 / no-ssim-rd / signhide / no-tskip / nr-intra=0 / nr-inter=0 / no-constrained-intra / no-strong-intra-smoothing / max-merge=3 / limit-refs=3 / limit-modes / me=3 / subme=3 / merange=57 / temporal-mvp / weightp / no-weightb / no-analyze-src-pics / deblock=-3:-3 / no-sao / no-sao-non-deblock / rd=4 / no-early-skip / rskip / no-fast-intra / no-tskip-fast / no-cu-lossless / no-b-intra / no-splitrd-skip / rdpenalty=0 / psy-rd=2.00 / psy-rdoq=1.00 / no-rd-refine / no-lossless / cbqpoffs=0 / crqpoffs=0 / rc=crf / crf=17.0 / qcomp=0.60 / qpstep=4 / stats-write=0 / stats-read=0 / vbv-maxrate=160000 / vbv-bufsize=160000 / vbv-init=0.9 / crf-max=0.0 / crf-min=0.0 / ipratio=1.40 / pbratio=1.30 / aq-mode=1 / aq-strength=1.00 / cutree / zone-count=0 / no-strict-cbr / qg-size=32 / no-rc-grain / qpmax=69 / qpmin=0 / no-const-vbv / sar=1 / overscan=0 / videoformat=5 / range=0 / colorprim=9 / transfer=16 / colormatrix=9 / chromaloc=1 / chromaloc-top=2 / chromaloc-bottom=2 / display-window=0 / master-display=G(13250,34500)B(7500,3000)R(34000,16000)WP(15635,16450)L(40000000,50) / max-cll=943,601 / min-luma=0 / max-luma=1023 / log2-max-poc-lsb=8 / vui-timing-info / vui-hrd-info / slices=1 / no-opt-qp-pps / no-opt-ref-list-length-pps / no-multi-pass-opt-rps / scenecut-bias=0.05 / no-opt-cu-delta-qp / no-aq-motion / hdr / hdr-opt / no-dhdr10-opt / no-idr-recovery-sei / analysis-reuse-level=5 / scale-factor=0 / refine-intra=0 / refine-inter=0 / refine-mv=0 / no-limit-sao / ctu-info=0 / no-lowpass-dct / refine-mv-type=0 / copy-pic=1 / max-ausize-factor=1.0 / no-dynamic-refine / no-single-sei
Default : Yes
Forced : No
Color range : Limited
Color primaries : BT.2020
Transfer characteristics : PQ
Matrix coefficients : BT.2020 non-constant
Mastering display color primaries : Display P3
Mastering display luminance : min: 0.0050 cd/m2, max: 4000 cd/m2
Maximum Content Light Level : 943 cd/m2
Maximum Frame-Average Light Level : 601 cd/m2

Audio #1
ID : 1
Format : DTS
Format/Info : Digital Theater Systems
Codec ID : A_DTS
Duration : 1 h 15 min
Bit rate mode : Constant
Bit rate : 1 509 kb/s
Channel(s) : 6 channels
Channel positions : Front: L C R, Side: L R, LFE
Sampling rate : 48.0 kHz
Frame rate : 93.750 FPS (512 SPF)
Bit depth : 24 bits
Compression mode : Lossy
Stream size : 819 MiB (17%)
Language : English
Default : Yes
Forced : No

Audio #2
ID : 2
Format : AC-3
Format/Info : Audio Coding 3
Codec ID : A_AC3
Duration : 1 h 15 min
Bit rate mode : Constant
Bit rate : 192 kb/s
Channel(s) : 2 channels
Channel positions : Front: L R
Sampling rate : 48.0 kHz
Frame rate : 31.250 FPS (1536 SPF)
Bit depth : 16 bits
Compression mode : Lossy
Stream size : 104 MiB (2%)
Title : Commentary
Language : English
Service kind : Complete Main
Default : No
Forced : No

Text #1
ID : 3
Format : PGS
Muxing mode : zlib
Codec ID : S_HDMV/PGS
Codec ID/Info : Picture based subtitle format used on BDs/HD-DVDs
Duration : 1 h 15 min
Bit rate : 28.4 kb/s
Count of elements : 2092
Stream size : 15.4 MiB (0%)
Language : English
Default : No
Forced : No

Text #2
ID : 4
Format : PGS
Muxing mode : zlib
Codec ID : S_HDMV/PGS
Codec ID/Info : Picture based subtitle format used on BDs/HD-DVDs
Duration : 1 h 15 min
Bit rate : 26.4 kb/s
Count of elements : 1430
Stream size : 14.3 MiB (0%)
Language : French
Default : No
Forced : No

Text #3
ID : 5
Format : PGS
Muxing mode : zlib
Codec ID : S_HDMV/PGS
Codec ID/Info : Picture based subtitle format used on BDs/HD-DVDs
Duration : 1 h 15 min
Bit rate : 22.8 kb/s
Count of elements : 1434
Stream size : 12.3 MiB (0%)
Language : Spanish
Default : No
Forced : No

Download

download 4k hdr movies download 4k hdr movies

Watch a movie trailer - Batman: Assault on Arkham 4K 2014 Ultra HD 2160p
Comments and Feedback
Add your comment:
Your name:
Your E-Mail:
Code:
reload, if the code cannot be seen
Enter code: