Select movie Search movie Close search My Account

The Bridge on the River Kwai 4K 1957 Ultra HD 2160p

The Bridge on the River Kwai 4K 1957 Ultra HD 2160p
BDRemux / BDRip
Country: UK | USA
Time: 2h 41min
IMDB: 8.2
Director: David Lean
Actors: William Holden, Alec Guinness, Jack Hawkins, Sessue Hayakawa, James Donald, Geoffrey Horne, Andr Morell, Peter Williams, John Boxer, Percy Herbert, Harold Goodwin, Ann Sears, Heihachir kawa, Keiichir Katsumoto, M.R.B. Chakrabandhu...

Story Movie

After settling his differences with a Japanese PoW camp commander, a British colonel co-operates to oversee his men's construction of a railway bridge for their captors - while oblivious to a plan by the Allies to destroy it. Movie The Bridge on the River Kwai 1957 year in quality BDRemux and BDRip for download now.

The film deals with the situation of British prisoners of war during World War II who are ordered to build a bridge to accommodate the Burma-Siam railway. Their instinct is to sabotage the bridge but, under the leadership of Colonel Nicholson, they are persuaded that the bridge should be constructed as a symbol of British morale, spirit and dignity in adverse circumstances. At first, the prisoners admire Nicholson when he bravely endures torture rather than compromise his principles for the benefit of the Japanese commandant Saito. He is an honorable but arrogant man, who is slowly revealed to be a deluded obsessive. He convinces himself that the bridge is a monument to British character, but actually is a monument to himself, and his insistence on its construction becomes a subtle form of collaboration with the enemy. Unknown to him, the Allies have sent a mission into the jungle, led by Warden and an American, Shears, to blow up the bridge.

Review 4K Movie

Of all war movies this is the one with the best idea behind it. Think how easy it is to make a bad war movie. A group of people must blow up a bridge, and this is the story of their quest ... Actually, that DID serve as the premise for a film: it was called `Force Ten from Navarone', and it was dire. Or how about this one: we see close up the brutalities of war. (Then we see them again. Then we see some more of the brutalities of war. Then we see the credits.) Or how about this: a humble American soldier, with the pragmatism native to his breed, rejects his superiors' highfalutin talk of honour and glory and asserts his basic humanity in trying to stay alive. Or this one: we see English prisoners of war maintain their dignity in the face of Japanese brutality.

They're all present, in a sort of a way: but ALSO present is a magnificent, long, suspenseful, tight story, around which these apparent clichés wrap naturally. If the clichés don't wrap naturally then they, not the story, are bent out of shape. Just when we think that the American pragmatist will turn out to be the hero, we see him cut a rather shabby figure, and it seems that there really WAS something to that highfalutin talk of honour and glory, after all. But then we discover that he has standards of his own, and they appear to be better ones. But THEN it seems that ... I could go on indefinitely, since there are many people here with something to be said for them, and it requires some thought to see who has the most to be said for him in the end.

There's almost no need to mention the excellent performances, photography and music. The only thing one might have qualms about is historical accuracy. Nothing like this ever happened. Still, that makes the movie much less dishonest than those that base themselves on historical events, and then proceed to get them all wrong. You can only be misled by `The Bridge on the River Kwai' if you don't know that it's pure fiction. Well - you know now.

Mediainfo

movie BDRemux Video
ID : 1
Format : HEVC
Format/Info : High Efficiency Video Coding
Format profile : Main 10@L5.1@High
Codec ID : V_MPEGH/ISO/HEVC
Duration : 2 h 41 min
Bit rate : 55.8 Mb/s
Width : 3 840 pixels
Height : 2 160 pixels
Display aspect ratio : 16:9
Frame rate mode : Constant
Frame rate : 23.976 (24000/1001) FPS
Color space : YUV
Chroma subsampling : 4:2:0 (Type 2)
Bit depth : 10 bits
Bits/(Pixel*Frame) : 0.281
Stream size : 63.0 GiB (73%)
Title : The.Bridge.on.the.River.Kwai.1957.2160p.BluRay.REMUX.HEVC.DTS-HD.MA.TrueHD.7.1.Atmos-FGT
Default : Yes
Forced : No
Color range : Limited
Color primaries : BT.2020
Transfer characteristics : PQ
Matrix coefficients : BT.2020 non-constant
Mastering display color primaries : R: x=0.680000 y=0.320000, G: x=0.265000 y=0.690000, B: x=0.150000 y=0.060000, White point: x=0.312700 y=0.329000
Mastering display luminance : min: 0.0050 cd/m2, max: 4000.0000 cd/m2
Maximum Content Light Level : 10000 cd/m2
Maximum Frame-Average Light Level : 272 cd/m2

Audio #1
ID : 2
Format : TrueHD
Format profile : TrueHD+Atmos / TrueHD
Codec ID : A_TRUEHD
Duration : 2 h 41 min
Bit rate mode : Variable
Bit rate : 4 718 kb/s
Maximum bit rate : 7 050 kb/s
Channel(s) : Object Based / 8 channels
Channel positions : Object Based / Front: L C R, Side: L R, Back: L R, LFE
Sampling rate : / 48.0 kHz
Frame rate : 1 200.000 FPS (40 SPF)
Compression mode : Lossless
Stream size : 5.32 GiB (6%)
Title : The.Bridge.on.the.River.Kwai.1957.2160p.BluRay.REMUX.HEVC.DTS-HD.MA.TrueHD.7.1.Atmos-FGT
Language : English
Default : Yes
Forced : No

Audio #2
ID : 3
Format : DTS
Format/Info : Digital Theater Systems
Format profile : MA / Core
Codec ID : A_DTS
Duration : 2 h 41 min
Bit rate mode : Variable / Constant
Bit rate : 3 840 kb/s / 1 509 kb/s
Channel(s) : 8 channels / 6 channels
Channel positions : Front: L C R, Side: L R, Back: L R, LFE / Front: L C R, Side: L R, LFE
Sampling rate : 48.0 kHz
Frame rate : 93.750 FPS (512 SPF)
Bit depth : 24 bits
Compression mode : Lossless / Lossy
Stream size : 4.26 GiB (5%)
Title : The.Bridge.on.the.River.Kwai.1957.2160p.BluRay.REMUX.HEVC.DTS-HD.MA.TrueHD.7.1.Atmos-FGT
Language : English
Default : No
Forced : No

Audio #3
ID : 4
Format : AC-3
Format/Info : Audio Coding 3
Codec ID : A_AC3
Duration : 2 h 41 min
Bit rate mode : Constant
Bit rate : 640 kb/s
Channel(s) : 6 channels
Channel positions : Front: L C R, Side: L R, LFE
Sampling rate : 48.0 kHz
Frame rate : 31.250 FPS (1536 SPF)
Bit depth : 16 bits
Compression mode : Lossy
Stream size : 739 MiB (1%)
Title : The.Bridge.on.the.River.Kwai.1957.2160p.BluRay.REMUX.HEVC.DTS-HD.MA.TrueHD.7.1.Atmos-FGT
Language : English
Service kind : Complete Main
Default : No
Forced : No

Audio #4
ID : 5
Format : DTS
Format/Info : Digital Theater Systems
Format profile : MA / Core
Codec ID : A_DTS
Duration : 2 h 41 min
Bit rate mode : Variable / Constant
Bit rate : 3 693 kb/s / 1 509 kb/s
Channel(s) : 6 channels
Channel positions : Front: L C R, Side: L R, LFE
Sampling rate : 48.0 kHz
Frame rate : 93.750 FPS (512 SPF)
Bit depth : 24 bits
Compression mode : Lossless / Lossy
Stream size : 4.17 GiB (5%)
Title : The.Bridge.on.the.River.Kwai.1957.2160p.BluRay.REMUX.HEVC.DTS-HD.MA.TrueHD.7.1.Atmos-FGT
Language : English
Default : No
Forced : No

Audio #5
ID : 6
Format : AC-3
Format/Info : Audio Coding 3
Codec ID : A_AC3
Duration : 2 h 41 min
Bit rate mode : Constant
Bit rate : 640 kb/s
Channel(s) : 6 channels
Channel positions : Front: L C R, Side: L R, LFE
Sampling rate : 48.0 kHz
Frame rate : 31.250 FPS (1536 SPF)
Bit depth : 16 bits
Compression mode : Lossy
Delay relative to video : 15 ms
Stream size : 739 MiB (1%)
Title : The.Bridge.on.the.River.Kwai.1957.2160p.BluRay.REMUX.HEVC.DTS-HD.MA.TrueHD.7.1.Atmos-FGT
Language : Czech
Service kind : Complete Main
Default : No
Forced : No

Audio #6
ID : 7
Format : AC-3
Format/Info : Audio Coding 3
Codec ID : A_AC3
Duration : 2 h 41 min
Bit rate mode : Constant
Bit rate : 640 kb/s
Channel(s) : 6 channels
Channel positions : Front: L C R, Side: L R, LFE
Sampling rate : 48.0 kHz
Frame rate : 31.250 FPS (1536 SPF)
Bit depth : 16 bits
Compression mode : Lossy
Delay relative to video : 15 ms
Stream size : 739 MiB (1%)
Title : The.Bridge.on.the.River.Kwai.1957.2160p.BluRay.REMUX.HEVC.DTS-HD.MA.TrueHD.7.1.Atmos-FGT
Language : French
Service kind : Complete Main
Default : No
Forced : No

Audio #7
ID : 8
Format : AC-3
Format/Info : Audio Coding 3
Codec ID : A_AC3
Duration : 2 h 41 min
Bit rate mode : Constant
Bit rate : 640 kb/s
Channel(s) : 6 channels
Channel positions : Front: L C R, Side: L R, LFE
Sampling rate : 48.0 kHz
Frame rate : 31.250 FPS (1536 SPF)
Bit depth : 16 bits
Compression mode : Lossy
Delay relative to video : 15 ms
Stream size : 739 MiB (1%)
Title : The.Bridge.on.the.River.Kwai.1957.2160p.BluRay.REMUX.HEVC.DTS-HD.MA.TrueHD.7.1.Atmos-FGT
Language : German
Service kind : Complete Main
Default : No
Forced : No

Audio #8
ID : 9
Format : AC-3
Format/Info : Audio Coding 3
Codec ID : A_AC3
Duration : 2 h 41 min
Bit rate mode : Constant
Bit rate : 640 kb/s
Channel(s) : 6 channels
Channel positions : Front: L C R, Side: L R, LFE
Sampling rate : 48.0 kHz
Frame rate : 31.250 FPS (1536 SPF)
Bit depth : 16 bits
Compression mode : Lossy
Delay relative to video : 15 ms
Stream size : 739 MiB (1%)
Title : The.Bridge.on.the.River.Kwai.1957.2160p.BluRay.REMUX.HEVC.DTS-HD.MA.TrueHD.7.1.Atmos-FGT
Language : Hungarian
Service kind : Complete Main
Default : No
Forced : No

Audio #9
ID : 10
Format : AC-3
Format/Info : Audio Coding 3
Codec ID : A_AC3
Duration : 2 h 41 min
Bit rate mode : Constant
Bit rate : 640 kb/s
Channel(s) : 6 channels
Channel positions : Front: L C R, Side: L R, LFE
Sampling rate : 48.0 kHz
Frame rate : 31.250 FPS (1536 SPF)
Bit depth : 16 bits
Compression mode : Lossy
Delay relative to video : 15 ms
Stream size : 739 MiB (1%)
Title : The.Bridge.on.the.River.Kwai.1957.2160p.BluRay.REMUX.HEVC.DTS-HD.MA.TrueHD.7.1.Atmos-FGT
Language : Italian
Service kind : Complete Main
Default : No
Forced : No

Audio #10
ID : 11
Format : AC-3
Format/Info : Audio Coding 3
Codec ID : A_AC3
Duration : 2 h 41 min
Bit rate mode : Constant
Bit rate : 640 kb/s
Channel(s) : 6 channels
Channel positions : Front: L C R, Side: L R, LFE
Sampling rate : 48.0 kHz
Frame rate : 31.250 FPS (1536 SPF)
Bit depth : 16 bits
Compression mode : Lossy
Delay relative to video : 15 ms
Stream size : 739 MiB (1%)
Title : The.Bridge.on.the.River.Kwai.1957.2160p.BluRay.REMUX.HEVC.DTS-HD.MA.TrueHD.7.1.Atmos-FGT
Language : Japanese
Service kind : Complete Main
Default : No
Forced : No

Audio #11
ID : 12
Format : AC-3
Format/Info : Audio Coding 3
Codec ID : A_AC3
Duration : 2 h 41 min
Bit rate mode : Constant
Bit rate : 640 kb/s
Channel(s) : 6 channels
Channel positions : Front: L C R, Side: L R, LFE
Sampling rate : 48.0 kHz
Frame rate : 31.250 FPS (1536 SPF)
Bit depth : 16 bits
Compression mode : Lossy
Delay relative to video : 15 ms
Stream size : 739 MiB (1%)
Title : The.Bridge.on.the.River.Kwai.1957.2160p.BluRay.REMUX.HEVC.DTS-HD.MA.TrueHD.7.1.Atmos-FGT
Language : Polish
Service kind : Complete Main
Default : No
Forced : No

Audio #12
ID : 13
Format : AC-3
Format/Info : Audio Coding 3
Codec ID : A_AC3
Duration : 2 h 41 min
Bit rate mode : Constant
Bit rate : 640 kb/s
Channel(s) : 6 channels
Channel positions : Front: L C R, Side: L R, LFE
Sampling rate : 48.0 kHz
Frame rate : 31.250 FPS (1536 SPF)
Bit depth : 16 bits
Compression mode : Lossy
Delay relative to video : 15 ms
Stream size : 739 MiB (1%)
Title : The.Bridge.on.the.River.Kwai.1957.2160p.BluRay.REMUX.HEVC.DTS-HD.MA.TrueHD.7.1.Atmos-FGT
Language : Portuguese
Service kind : Complete Main
Default : No
Forced : No

Audio #13
ID : 14
Format : AC-3
Format/Info : Audio Coding 3
Codec ID : A_AC3
Duration : 2 h 41 min
Bit rate mode : Constant
Bit rate : 640 kb/s
Channel(s) : 6 channels
Channel positions : Front: L C R, Side: L R, LFE
Sampling rate : 48.0 kHz
Frame rate : 31.250 FPS (1536 SPF)
Bit depth : 16 bits
Compression mode : Lossy
Delay relative to video : 15 ms
Stream size : 739 MiB (1%)
Title : The.Bridge.on.the.River.Kwai.1957.2160p.BluRay.REMUX.HEVC.DTS-HD.MA.TrueHD.7.1.Atmos-FGT
Language : Russian
Service kind : Complete Main
Default : No
Forced : No

Audio #14
ID : 15
Format : AC-3
Format/Info : Audio Coding 3
Codec ID : A_AC3
Duration : 2 h 41 min
Bit rate mode : Constant
Bit rate : 640 kb/s
Channel(s) : 6 channels
Channel positions : Front: L C R, Side: L R, LFE
Sampling rate : 48.0 kHz
Frame rate : 31.250 FPS (1536 SPF)
Bit depth : 16 bits
Compression mode : Lossy
Delay relative to video : 15 ms
Stream size : 739 MiB (1%)
Title : The.Bridge.on.the.River.Kwai.1957.2160p.BluRay.REMUX.HEVC.DTS-HD.MA.TrueHD.7.1.Atmos-FGT
Language : Spanish
Service kind : Complete Main
Default : No
Forced : No

Audio #15
ID : 16
Format : AC-3
Format/Info : Audio Coding 3
Codec ID : A_AC3
Duration : 2 h 41 min
Bit rate mode : Constant
Bit rate : 640 kb/s
Channel(s) : 6 channels
Channel positions : Front: L C R, Side: L R, LFE
Sampling rate : 48.0 kHz
Frame rate : 31.250 FPS (1536 SPF)
Bit depth : 16 bits
Compression mode : Lossy
Delay relative to video : 15 ms
Stream size : 739 MiB (1%)
Title : The.Bridge.on.the.River.Kwai.1957.2160p.BluRay.REMUX.HEVC.DTS-HD.MA.TrueHD.7.1.Atmos-FGT
Language : Spanish
Service kind : Complete Main
Default : No
Forced : No

Text #1
ID : 17
Format : PGS
Muxing mode : zlib
Codec ID : S_HDMV/PGS
Codec ID/Info : Picture based subtitle format used on BDs/HD-DVDs
Duration : 2 h 40 min
Bit rate : 28.7 kb/s
Count of elements : 3130
Stream size : 32.9 MiB (0%)
Title : English-PGS
Language : English
Default : Yes
Forced : No

Text #2
ID : 18
Format : PGS
Muxing mode : zlib
Codec ID : S_HDMV/PGS
Codec ID/Info : Picture based subtitle format used on BDs/HD-DVDs
Duration : 2 h 36 min
Bit rate : 26.2 kb/s
Count of elements : 2760
Stream size : 29.4 MiB (0%)
Title : English-SDH-PGS
Language : English
Default : No
Forced : No

Text #3
ID : 19
Format : PGS
Muxing mode : zlib
Codec ID : S_HDMV/PGS
Codec ID/Info : Picture based subtitle format used on BDs/HD-DVDs
Duration : 2 h 41 min
Bit rate : 28.6 kb/s
Count of elements : 3131
Stream size : 32.9 MiB (0%)
Title : English-PGS
Language : English
Default : No
Forced : No

Text #4
ID : 20
Format : PGS
Muxing mode : zlib
Codec ID : S_HDMV/PGS
Codec ID/Info : Picture based subtitle format used on BDs/HD-DVDs
Duration : 2 h 36 min
Bit rate : 26.2 kb/s
Count of elements : 2780
Stream size : 29.4 MiB (0%)
Title : English-SDH-PGS
Language : English
Default : No
Forced : No

Text #5
ID : 21
Format : PGS
Muxing mode : zlib
Codec ID : S_HDMV/PGS
Codec ID/Info : Picture based subtitle format used on BDs/HD-DVDs
Duration : 2 h 34 min
Bit rate : 12.6 kb/s
Count of elements : 2637
Stream size : 13.9 MiB (0%)
Title : Arabic-PGS
Language : Arabic
Default : No
Forced : No

Text #6
ID : 22
Format : PGS
Muxing mode : zlib
Codec ID : S_HDMV/PGS
Codec ID/Info : Picture based subtitle format used on BDs/HD-DVDs
Duration : 2 h 36 min
Bit rate : 23.3 kb/s
Count of elements : 2776
Stream size : 26.1 MiB (0%)
Title : Chinese-PGS
Language : Chinese
Default : No
Forced : No

Text #7
ID : 23
Format : PGS
Muxing mode : zlib
Codec ID : S_HDMV/PGS
Codec ID/Info : Picture based subtitle format used on BDs/HD-DVDs
Duration : 2 h 35 min
Bit rate : 19.0 kb/s
Count of elements : 2776
Stream size : 21.0 MiB (0%)
Title : Chinese-PGS
Language : Chinese
Default : No
Forced : No

Text #8
ID : 24
Format : PGS
Muxing mode : zlib
Codec ID : S_HDMV/PGS
Codec ID/Info : Picture based subtitle format used on BDs/HD-DVDs
Duration : 2 h 34 min
Bit rate : 22.8 kb/s
Count of elements : 2635
Stream size : 25.3 MiB (0%)
Title : Czech-PGS
Language : Czech
Default : No
Forced : No

Text #9
ID : 25
Format : PGS
Muxing mode : zlib
Codec ID : S_HDMV/PGS
Codec ID/Info : Picture based subtitle format used on BDs/HD-DVDs
Duration : 2 h 35 min
Bit rate : 23.8 kb/s
Count of elements : 2286
Stream size : 26.4 MiB (0%)
Title : Danish-PGS
Language : Danish
Default : No
Forced : No

Text #10
ID : 26
Format : PGS
Muxing mode : zlib
Codec ID : S_HDMV/PGS
Codec ID/Info : Picture based subtitle format used on BDs/HD-DVDs
Duration : 2 h 35 min
Bit rate : 20.9 kb/s
Count of elements : 1998
Stream size : 23.2 MiB (0%)
Title : Dutch-PGS
Language : Dutch
Default : No
Forced : No

Text #11
ID : 27
Format : PGS
Muxing mode : zlib
Codec ID : S_HDMV/PGS
Codec ID/Info : Picture based subtitle format used on BDs/HD-DVDs
Duration : 2 h 34 min
Bit rate : 20.3 kb/s
Count of elements : 1789
Stream size : 22.5 MiB (0%)
Title : Finnish-PGS
Language : Finnish
Default : No
Forced : No

Text #12
ID : 28
Format : PGS
Muxing mode : zlib
Codec ID : S_HDMV/PGS
Codec ID/Info : Picture based subtitle format used on BDs/HD-DVDs
Duration : 2 h 36 min
Bit rate : 22.5 kb/s
Count of elements : 2609
Stream size : 25.3 MiB (0%)
Title : French-PGS
Language : French
Default : No
Forced : No

Text #13
ID : 29
Format : PGS
Muxing mode : zlib
Codec ID : S_HDMV/PGS
Codec ID/Info : Picture based subtitle format used on BDs/HD-DVDs
Duration : 2 h 35 min
Bit rate : 27.4 kb/s
Count of elements : 2768
Stream size : 30.4 MiB (0%)
Title : German-PGS
Language : German
Default : No
Forced : No

Text #14
ID : 30
Format : PGS
Muxing mode : zlib
Codec ID : S_HDMV/PGS
Codec ID/Info : Picture based subtitle format used on BDs/HD-DVDs
Duration : 2 h 36 min
Bit rate : 21.7 kb/s
Count of elements : 2770
Stream size : 24.3 MiB (0%)
Title : Greek-PGS
Language : Greek
Default : No
Forced : No

Text #15
ID : 31
Format : PGS
Muxing mode : zlib
Codec ID : S_HDMV/PGS
Codec ID/Info : Picture based subtitle format used on BDs/HD-DVDs
Duration : 2 h 35 min
Bit rate : 18.5 kb/s
Count of elements : 2776
Stream size : 20.6 MiB (0%)
Title : Hebrew-PGS
Language : Hebrew
Default : No
Forced : No

Text #16
ID : 32
Format : PGS
Muxing mode : zlib
Codec ID : S_HDMV/PGS
Codec ID/Info : Picture based subtitle format used on BDs/HD-DVDs
Duration : 2 h 35 min
Bit rate : 19.6 kb/s
Count of elements : 2716
Stream size : 21.7 MiB (0%)
Title : Hungarian-PGS
Language : Hungarian
Default : No
Forced : No

Text #17
ID : 33
Format : PGS
Muxing mode : zlib
Codec ID : S_HDMV/PGS
Codec ID/Info : Picture based subtitle format used on BDs/HD-DVDs
Duration : 2 h 36 min
Bit rate : 28.7 kb/s
Count of elements : 2744
Stream size : 32.3 MiB (0%)
Title : Indonesian-PGS
Language : Indonesian
Default : No
Forced : No

Text #18
ID : 34
Format : PGS
Muxing mode : zlib
Codec ID : S_HDMV/PGS
Codec ID/Info : Picture based subtitle format used on BDs/HD-DVDs
Duration : 2 h 35 min
Bit rate : 24.5 kb/s
Count of elements : 2784
Stream size : 27.2 MiB (0%)
Title : Italian-PGS
Language : Italian
Default : No
Forced : No

Text #19
ID : 35
Format : PGS
Muxing mode : zlib
Codec ID : S_HDMV/PGS
Codec ID/Info : Picture based subtitle format used on BDs/HD-DVDs
Duration : 2 h 34 min
Bit rate : 17.0 kb/s
Count of elements : 1984
Stream size : 18.8 MiB (0%)
Title : Japanese-PGS
Language : Japanese
Default : No
Forced : No

Text #20
ID : 36
Format : PGS
Muxing mode : zlib
Codec ID : S_HDMV/PGS
Codec ID/Info : Picture based subtitle format used on BDs/HD-DVDs
Duration : 2 h 38 min
Bit rate : 19.5 kb/s
Count of elements : 2784
Stream size : 22.1 MiB (0%)
Title : Korean-PGS
Language : Korean
Default : No
Forced : No

Text #21
ID : 37
Format : PGS
Muxing mode : zlib
Codec ID : S_HDMV/PGS
Codec ID/Info : Picture based subtitle format used on BDs/HD-DVDs
Duration : 2 h 35 min
Bit rate : 18.6 kb/s
Count of elements : 1754
Stream size : 20.6 MiB (0%)
Title : Norwegian-PGS
Language : Norwegian
Default : No
Forced : No

Text #22
ID : 38
Format : PGS
Muxing mode : zlib
Codec ID : S_HDMV/PGS
Codec ID/Info : Picture based subtitle format used on BDs/HD-DVDs
Duration : 2 h 35 min
Bit rate : 18.2 kb/s
Count of elements : 2698
Stream size : 20.2 MiB (0%)
Title : Polish-PGS
Language : Polish
Default : No
Forced : No

Text #23
ID : 39
Format : PGS
Muxing mode : zlib
Codec ID : S_HDMV/PGS
Codec ID/Info : Picture based subtitle format used on BDs/HD-DVDs
Duration : 2 h 38 min
Bit rate : 22.4 kb/s
Count of elements : 2778
Stream size : 25.4 MiB (0%)
Title : Portuguese-PGS
Language : Portuguese
Default : No
Forced : No

Text #24
ID : 40
Format : PGS
Muxing mode : zlib
Codec ID : S_HDMV/PGS
Codec ID/Info : Picture based subtitle format used on BDs/HD-DVDs
Duration : 2 h 38 min
Bit rate : 24.4 kb/s
Count of elements : 2660
Stream size : 27.6 MiB (0%)
Title : Portuguese-PGS
Language : Portuguese
Default : No
Forced : No

Text #25
ID : 41
Format : PGS
Muxing mode : zlib
Codec ID : S_HDMV/PGS
Codec ID/Info : Picture based subtitle format used on BDs/HD-DVDs
Duration : 2 h 36 min
Bit rate : 23.6 kb/s
Count of elements : 2704
Stream size : 26.4 MiB (0%)
Title : Slovak-PGS
Language : Slovak
Default : No
Forced : No

Text #26
ID : 42
Format : PGS
Muxing mode : zlib
Codec ID : S_HDMV/PGS
Codec ID/Info : Picture based subtitle format used on BDs/HD-DVDs
Duration : 2 h 34 min
Bit rate : 21.6 kb/s
Count of elements : 2703
Stream size : 24.0 MiB (0%)
Title : Spanish-PGS
Language : Spanish
Default : No
Forced : No

Text #27
ID : 43
Format : PGS
Muxing mode : zlib
Codec ID : S_HDMV/PGS
Codec ID/Info : Picture based subtitle format used on BDs/HD-DVDs
Duration : 2 h 38 min
Bit rate : 28.0 kb/s
Count of elements : 2952
Stream size : 31.7 MiB (0%)
Title : Spanish-PGS
Language : Spanish
Default : No
Forced : No

Text #28
ID : 44
Format : PGS
Muxing mode : zlib
Codec ID : S_HDMV/PGS
Codec ID/Info : Picture based subtitle format used on BDs/HD-DVDs
Duration : 2 h 36 min
Bit rate : 18.0 kb/s
Count of elements : 1741
Stream size : 20.2 MiB (0%)
Title : Swedish-PGS
Language : Swedish
Default : No
Forced : No

Text #29
ID : 45
Format : PGS
Muxing mode : zlib
Codec ID : S_HDMV/PGS
Codec ID/Info : Picture based subtitle format used on BDs/HD-DVDs
Duration : 2 h 35 min
Bit rate : 22.9 kb/s
Count of elements : 2776
Stream size : 25.3 MiB (0%)
Title : Thai-PGS
Language : Thai
Default : No
Forced : No

Text #30
ID : 46
Format : PGS
Muxing mode : zlib
Codec ID : S_HDMV/PGS
Codec ID/Info : Picture based subtitle format used on BDs/HD-DVDs
Duration : 2 h 35 min
Bit rate : 25.8 kb/s
Count of elements : 2776
Stream size : 28.6 MiB (0%)
Title : Turkish-PGS
Language : Turkish
Default : No
Forced : No

Text #31
ID : 47
Format : PGS
Muxing mode : zlib
Codec ID : S_HDMV/PGS
Codec ID/Info : Picture based subtitle format used on BDs/HD-DVDs
Duration : 1 h 32 min
Bit rate : 94 b/s
Count of elements : 6
Stream size : 63.6 KiB (0%)
Title : Japanese-FORCED-PGS
Language : Japanese
Default : No
Forced : No

Text #32
ID : 48
Format : PGS
Muxing mode : zlib
Codec ID : S_HDMV/PGS
Codec ID/Info : Picture based subtitle format used on BDs/HD-DVDs
Duration : 2 h 40 min
Bit rate : 164 b/s
Count of elements : 24
Stream size : 193 KiB (0%)
Title : Russian-FORCED-PGS
Language : Russian
Default : No
Forced : No

Menu
00:00:00.000 : en:Chapter 1
00:10:54.737 : en:Chapter 2
00:21:00.801 : en:Chapter 3
00:31:06.114 : en:Chapter 4
00:38:43.237 : en:Chapter 5
00:50:24.271 : en:Chapter 6
01:00:10.607 : en:Chapter 7
01:09:42.803 : en:Chapter 8
01:20:59.271 : en:Chapter 9
01:32:47.853 : en:Chapter 10
01:41:14.109 : en:Chapter 11
01:50:34.628 : en:Chapter 12
02:03:20.267 : en:Chapter 13
02:14:36.693 : en:Chapter 14
02:24:37.960 : en:Chapter 15
02:32:33.102 : en:Chapter 16
movie BDRip Video
ID : 1
Format : HEVC
Format/Info : High Efficiency Video Coding
Format profile : Main 10@L5.1@High
Codec ID : V_MPEGH/ISO/HEVC
Duration : 2 h 41 min
Bit rate : 30.3 Mb/s
Width : 3 840 pixels
Height : 1 504 pixels
Display aspect ratio : 2.553
Frame rate mode : Constant
Frame rate : 23.976 (24000/1001) FPS
Color space : YUV
Chroma subsampling : 4:2:0 (Type 2)
Bit depth : 10 bits
Bits/(Pixel*Frame) : 0.219
Stream size : 34.2 GiB (84%)
Writing library : x265 2.5+58-06979c042350:[Windows][GCC 6.2.1][64 bit] 10bit
Encoding settings : cpuid=1173503 / frame-threads=4 / numa-pools=20 / wpp / no-pmode / no-pme / no-psnr / no-ssim / log-level=2 / input-csp=1 / input-res=3840x1504 / interlace=0 / total-frames=232296 / level-idc=51 / high-tier=1 / uhd-bd=0 / ref=4 / no-allow-non-conformance / repeat-headers / annexb / aud / hrd / info / hash=0 / no-temporal-layers / no-open-gop / min-keyint=1 / keyint=24 / bframes=4 / b-adapt=2 / b-pyramid / bframe-bias=0 / rc-lookahead=25 / lookahead-slices=4 / scenecut=40 / no-intra-refresh / ctu=64 / min-cu-size=8 / rect / no-amp / max-tu-size=32 / tu-inter-depth=1 / tu-intra-depth=1 / limit-tu=0 / rdoq-level=2 / dynamic-rd=0.00 / no-ssim-rd / signhide / no-tskip / nr-intra=0 / nr-inter=0 / no-constrained-intra / no-strong-intra-smoothing / max-merge=3 / limit-refs=3 / limit-modes / me=3 / subme=3 / merange=57 / temporal-mvp / weightp / no-weightb / no-analyze-src-pics / deblock=-3:-3 / no-sao / no-sao-non-deblock / rd=4 / no-early-skip / rskip / no-fast-intra / no-tskip-fast / no-cu-lossless / no-b-intra / no-splitrd-skip / rdpenalty=0 / psy-rd=2.00 / psy-rdoq=1.00 / no-rd-refine / analysis-reuse-mode=0 / no-lossless / cbqpoffs=0 / crqpoffs=0 / rc=crf / crf=20.0 / qcomp=0.60 / qpstep=4 / stats-write=0 / stats-read=0 / vbv-maxrate=160000 / vbv-bufsize=160000 / vbv-init=0.9 / crf-max=0.0 / crf-min=0.0 / ipratio=1.40 / pbratio=1.30 / aq-mode=1 / aq-strength=1.00 / cutree / zone-count=0 / no-strict-cbr / qg-size=32 / no-rc-grain / qpmax=69 / qpmin=0 / no-const-vbv / sar=1 / overscan=0 / videoformat=5 / range=0 / colorprim=9 / transfer=16 / colormatrix=9 / chromaloc=1 / chromaloc-top=2 / chromaloc-bottom=2 / display-window=0 / master-display=G(13250,34500)B(7500,3000)R(34000,16000)WP(15635,16450)L(40000000,50) / max-cll=10000,272 / min-luma=0 / max-luma=1023 / log2-max-poc-lsb=8 / vui-timing-info / vui-hrd-info / slices=1 / no-opt-qp-pps / no-opt-ref-list-length-pps / no-multi-pass-opt-rps / scenecut-bias=0.05 / no-opt-cu-delta-qp / no-aq-motion / hdr / hdr-opt / no-dhdr10-opt / analysis-reuse-level=5 / scale-factor=0 / refine-intra=0 / refine-inter=0 / refine-mv=0 / no-limit-sao / ctu-info=0 / no-lowpass-dct / refine-mv-type=0 / copy-pic=1
Default : Yes
Forced : No
Color range : Limited
Color primaries : BT.2020
Transfer characteristics : PQ
Matrix coefficients : BT.2020 non-constant
Mastering display color primaries : R: x=0.680000 y=0.320000, G: x=0.265000 y=0.690000, B: x=0.150000 y=0.060000, White point: x=0.312700 y=0.329000
Mastering display luminance : min: 0.0050 cd/m2, max: 4000.0000 cd/m2
Maximum Content Light Level : 10000 cd/m2
Maximum Frame-Average Light Level : 272 cd/m2

Audio #1
ID : 2
Format : TrueHD
Format profile : TrueHD+Atmos / TrueHD
Codec ID : A_TRUEHD
Duration : 2 h 41 min
Bit rate mode : Variable
Bit rate : 4 718 kb/s
Maximum bit rate : 7 050 kb/s
Channel(s) : Object Based / 8 channels
Channel positions : Object Based / Front: L C R, Side: L R, Back: L R, LFE
Sampling rate : / 48.0 kHz
Frame rate : 1 200.000 FPS (40 SPF)
Compression mode : Lossless
Stream size : 5.32 GiB (13%)
Language : English
Default : Yes
Forced : No

Audio #2
ID : 3
Format : AC-3
Format/Info : Audio Coding 3
Codec ID : A_AC3
Duration : 2 h 41 min
Bit rate mode : Constant
Bit rate : 640 kb/s
Channel(s) : 6 channels
Channel positions : Front: L C R, Side: L R, LFE
Sampling rate : 48.0 kHz
Frame rate : 31.250 FPS (1536 SPF)
Bit depth : 16 bits
Compression mode : Lossy
Stream size : 739 MiB (2%)
Language : English
Service kind : Complete Main
Default : No
Forced : No

Text #1
ID : 4
Format : PGS
Muxing mode : zlib
Codec ID : S_HDMV/PGS
Codec ID/Info : Picture based subtitle format used on BDs/HD-DVDs
Duration : 2 h 36 min
Bit rate : 26.2 kb/s
Count of elements : 2760
Stream size : 29.4 MiB (0%)
Title : American English
Language : English
Default : No
Forced : No

Text #2
ID : 5
Format : PGS
Muxing mode : zlib
Codec ID : S_HDMV/PGS
Codec ID/Info : Picture based subtitle format used on BDs/HD-DVDs
Duration : 2 h 40 min
Bit rate : 28.7 kb/s
Count of elements : 3130
Stream size : 32.9 MiB (0%)
Title : American English SDH
Language : English
Default : No
Forced : No

Text #3
ID : 6
Format : PGS
Muxing mode : zlib
Codec ID : S_HDMV/PGS
Codec ID/Info : Picture based subtitle format used on BDs/HD-DVDs
Duration : 2 h 36 min
Bit rate : 26.2 kb/s
Count of elements : 2780
Stream size : 29.4 MiB (0%)
Title : British English
Language : English
Default : No
Forced : No

Text #4
ID : 7
Format : PGS
Muxing mode : zlib
Codec ID : S_HDMV/PGS
Codec ID/Info : Picture based subtitle format used on BDs/HD-DVDs
Duration : 2 h 41 min
Bit rate : 28.6 kb/s
Count of elements : 3131
Stream size : 32.9 MiB (0%)
Title : British English SDH
Language : English
Default : No
Forced : No

Text #5
ID : 8
Format : PGS
Muxing mode : zlib
Codec ID : S_HDMV/PGS
Codec ID/Info : Picture based subtitle format used on BDs/HD-DVDs
Duration : 2 h 34 min
Bit rate : 12.6 kb/s
Count of elements : 2637
Stream size : 13.9 MiB (0%)
Language : Arabic
Default : No
Forced : No

Text #6
ID : 9
Format : PGS
Muxing mode : zlib
Codec ID : S_HDMV/PGS
Codec ID/Info : Picture based subtitle format used on BDs/HD-DVDs
Duration : 2 h 36 min
Bit rate : 23.3 kb/s
Count of elements : 2776
Stream size : 26.1 MiB (0%)
Language : Chinese
Default : No
Forced : No

Text #7
ID : 10
Format : PGS
Muxing mode : zlib
Codec ID : S_HDMV/PGS
Codec ID/Info : Picture based subtitle format used on BDs/HD-DVDs
Duration : 2 h 35 min
Bit rate : 19.0 kb/s
Count of elements : 2776
Stream size : 21.0 MiB (0%)
Language : Chinese
Default : No
Forced : No

Text #8
ID : 11
Format : PGS
Muxing mode : zlib
Codec ID : S_HDMV/PGS
Codec ID/Info : Picture based subtitle format used on BDs/HD-DVDs
Duration : 2 h 34 min
Bit rate : 22.8 kb/s
Count of elements : 2635
Stream size : 25.3 MiB (0%)
Language : Czech
Default : No
Forced : No

Text #9
ID : 12
Format : PGS
Muxing mode : zlib
Codec ID : S_HDMV/PGS
Codec ID/Info : Picture based subtitle format used on BDs/HD-DVDs
Duration : 2 h 35 min
Bit rate : 23.8 kb/s
Count of elements : 2286
Stream size : 26.4 MiB (0%)
Language : Danish
Default : No
Forced : No

Text #10
ID : 13
Format : PGS
Muxing mode : zlib
Codec ID : S_HDMV/PGS
Codec ID/Info : Picture based subtitle format used on BDs/HD-DVDs
Duration : 2 h 35 min
Bit rate : 20.9 kb/s
Count of elements : 1998
Stream size : 23.2 MiB (0%)
Language : Dutch
Default : No
Forced : No

Text #11
ID : 14
Format : PGS
Muxing mode : zlib
Codec ID : S_HDMV/PGS
Codec ID/Info : Picture based subtitle format used on BDs/HD-DVDs
Duration : 2 h 34 min
Bit rate : 20.3 kb/s
Count of elements : 1789
Stream size : 22.5 MiB (0%)
Language : Finnish
Default : No
Forced : No

Text #12
ID : 15
Format : PGS
Muxing mode : zlib
Codec ID : S_HDMV/PGS
Codec ID/Info : Picture based subtitle format used on BDs/HD-DVDs
Duration : 2 h 36 min
Bit rate : 22.5 kb/s
Count of elements : 2609
Stream size : 25.3 MiB (0%)
Language : French
Default : No
Forced : No

Text #13
ID : 16
Format : PGS
Muxing mode : zlib
Codec ID : S_HDMV/PGS
Codec ID/Info : Picture based subtitle format used on BDs/HD-DVDs
Duration : 2 h 35 min
Bit rate : 27.4 kb/s
Count of elements : 2768
Stream size : 30.4 MiB (0%)
Language : German
Default : No
Forced : No

Text #14
ID : 17
Format : PGS
Muxing mode : zlib
Codec ID : S_HDMV/PGS
Codec ID/Info : Picture based subtitle format used on BDs/HD-DVDs
Duration : 2 h 36 min
Bit rate : 21.7 kb/s
Count of elements : 2770
Stream size : 24.3 MiB (0%)
Language : Greek
Default : No
Forced : No

Text #15
ID : 18
Format : PGS
Muxing mode : zlib
Codec ID : S_HDMV/PGS
Codec ID/Info : Picture based subtitle format used on BDs/HD-DVDs
Duration : 2 h 35 min
Bit rate : 18.5 kb/s
Count of elements : 2776
Stream size : 20.6 MiB (0%)
Language : Hebrew
Default : No
Forced : No

Text #16
ID : 19
Format : PGS
Muxing mode : zlib
Codec ID : S_HDMV/PGS
Codec ID/Info : Picture based subtitle format used on BDs/HD-DVDs
Duration : 2 h 35 min
Bit rate : 19.6 kb/s
Count of elements : 2716
Stream size : 21.7 MiB (0%)
Language : Hungarian
Default : No
Forced : No

Text #17
ID : 20
Format : PGS
Muxing mode : zlib
Codec ID : S_HDMV/PGS
Codec ID/Info : Picture based subtitle format used on BDs/HD-DVDs
Duration : 2 h 36 min
Bit rate : 28.7 kb/s
Count of elements : 2744
Stream size : 32.3 MiB (0%)
Language : Indonesian
Default : No
Forced : No

Text #18
ID : 21
Format : PGS
Muxing mode : zlib
Codec ID : S_HDMV/PGS
Codec ID/Info : Picture based subtitle format used on BDs/HD-DVDs
Duration : 2 h 35 min
Bit rate : 24.5 kb/s
Count of elements : 2784
Stream size : 27.2 MiB (0%)
Language : Italian
Default : No
Forced : No

Text #19
ID : 22
Format : PGS
Muxing mode : zlib
Codec ID : S_HDMV/PGS
Codec ID/Info : Picture based subtitle format used on BDs/HD-DVDs
Duration : 2 h 34 min
Bit rate : 17.0 kb/s
Count of elements : 1984
Stream size : 18.8 MiB (0%)
Language : Japanese
Default : No
Forced : No

Text #20
ID : 23
Format : PGS
Muxing mode : zlib
Codec ID : S_HDMV/PGS
Codec ID/Info : Picture based subtitle format used on BDs/HD-DVDs
Duration : 2 h 38 min
Bit rate : 19.5 kb/s
Count of elements : 2784
Stream size : 22.1 MiB (0%)
Language : Korean
Default : No
Forced : No

Text #21
ID : 24
Format : PGS
Muxing mode : zlib
Codec ID : S_HDMV/PGS
Codec ID/Info : Picture based subtitle format used on BDs/HD-DVDs
Duration : 2 h 35 min
Bit rate : 18.6 kb/s
Count of elements : 1754
Stream size : 20.6 MiB (0%)
Language : Norwegian
Default : No
Forced : No

Text #22
ID : 25
Format : PGS
Muxing mode : zlib
Codec ID : S_HDMV/PGS
Codec ID/Info : Picture based subtitle format used on BDs/HD-DVDs
Duration : 2 h 35 min
Bit rate : 18.2 kb/s
Count of elements : 2698
Stream size : 20.2 MiB (0%)
Language : Polish
Default : No
Forced : No

Text #23
ID : 26
Format : PGS
Muxing mode : zlib
Codec ID : S_HDMV/PGS
Codec ID/Info : Picture based subtitle format used on BDs/HD-DVDs
Duration : 2 h 38 min
Bit rate : 22.4 kb/s
Count of elements : 2778
Stream size : 25.4 MiB (0%)
Language : Portuguese
Default : No
Forced : No

Text #24
ID : 27
Format : PGS
Muxing mode : zlib
Codec ID : S_HDMV/PGS
Codec ID/Info : Picture based subtitle format used on BDs/HD-DVDs
Duration : 2 h 38 min
Bit rate : 24.4 kb/s
Count of elements : 2660
Stream size : 27.6 MiB (0%)
Language : Portuguese
Default : No
Forced : No

Text #25
ID : 28
Format : PGS
Muxing mode : zlib
Codec ID : S_HDMV/PGS
Codec ID/Info : Picture based subtitle format used on BDs/HD-DVDs
Duration : 2 h 36 min
Bit rate : 23.6 kb/s
Count of elements : 2704
Stream size : 26.4 MiB (0%)
Language : Slovak
Default : No
Forced : No

Text #26
ID : 29
Format : PGS
Muxing mode : zlib
Codec ID : S_HDMV/PGS
Codec ID/Info : Picture based subtitle format used on BDs/HD-DVDs
Duration : 2 h 34 min
Bit rate : 21.6 kb/s
Count of elements : 2703
Stream size : 24.0 MiB (0%)
Language : Spanish
Default : No
Forced : No

Text #27
ID : 30
Format : PGS
Muxing mode : zlib
Codec ID : S_HDMV/PGS
Codec ID/Info : Picture based subtitle format used on BDs/HD-DVDs
Duration : 2 h 38 min
Bit rate : 28.0 kb/s
Count of elements : 2952
Stream size : 31.7 MiB (0%)
Language : Spanish
Default : No
Forced : No

Text #28
ID : 31
Format : PGS
Muxing mode : zlib
Codec ID : S_HDMV/PGS
Codec ID/Info : Picture based subtitle format used on BDs/HD-DVDs
Duration : 2 h 36 min
Bit rate : 18.0 kb/s
Count of elements : 1741
Stream size : 20.2 MiB (0%)
Language : Swedish
Default : No
Forced : No

Text #29
ID : 32
Format : PGS
Muxing mode : zlib
Codec ID : S_HDMV/PGS
Codec ID/Info : Picture based subtitle format used on BDs/HD-DVDs
Duration : 2 h 35 min
Bit rate : 22.9 kb/s
Count of elements : 2776
Stream size : 25.3 MiB (0%)
Language : Thai
Default : No
Forced : No

Text #30
ID : 33
Format : PGS
Muxing mode : zlib
Codec ID : S_HDMV/PGS
Codec ID/Info : Picture based subtitle format used on BDs/HD-DVDs
Duration : 2 h 35 min
Bit rate : 25.8 kb/s
Count of elements : 2776
Stream size : 28.6 MiB (0%)
Language : Turkish
Default : No
Forced : No

Menu
00:00:00.000 : en:00:00:00.000
00:10:54.737 : en:00:10:54.737
00:21:00.801 : en:00:21:00.801
00:31:06.114 : en:00:31:06.114
00:38:43.238 : en:00:38:43.238
00:50:24.271 : en:00:50:24.271
01:00:10.607 : en:01:00:10.607
01:09:42.804 : en:01:09:42.804
01:20:59.271 : en:01:20:59.271
01:32:47.854 : en:01:32:47.854
01:41:14.110 : en:01:41:14.110
01:50:34.628 : en:01:50:34.628
02:03:20.268 : en:02:03:20.268
02:14:36.694 : en:02:14:36.694
02:24:37.961 : en:02:24:37.961

Download

download 4k hdr movies download 4k hdr movies

The Bridge on the River Kwai 4K 1957 Ultra HD 2160p


Watch a movie trailer - The Bridge on the River Kwai 4K 1957 Ultra HD 2160p
Comments and Feedback
Add your comment:
Your name:
Your E-Mail:
Code:
reload, if the code cannot be seen
Enter code: