Select movie Search movie Close search My Account

Marrowbone 4K 2017 Ultra HD 2160p

Marrowbone 4K 2017 Ultra HD 2160p
BDRemux / BDRip
Country: Spain
Time: 1h 50min
IMDB: 6.6
Director: Sergio G. Sanchez
Actors: George MacKay, Anya Taylor-Joy, Charlie Heaton, Mia Goth, Matthew Stagg, Nicola Harrison, Kyle Soller, Tom Fisher, Myra Kathryn Pearse, Paul Jesson, Robert Nairne

Story Movie

Marrowbone 4K 2017 Ultra HD 2160p
In the plot of the film Marrowbone 4k movie download website of a large child mother, raising three sons and a daughter. it is necessary to hide. This is her secret and she carefully conceals it. The family finds solitude in a large old house where they decide to stop and settle. The only person with whom she communicates. become a neighbor of Ellie, with which a woman becomes a friend. But soon she dies, and the house is shaken by a series of terrible events. The guy has to wait for his age to become a guardian for his sisters.

Review 4K Movie

The debut of another Spanish name in the modern direction of Sergio H. Sánchez "Marrowbone" 4k movie download website turns out to be a good movie though not so much scary, but still day to day exciting. Sanchez does not put the spectator at the head of the scare, although if he had that goal, then it feels like he would have easily achieved it. Sinister mirrors, mysterious dark spots on the ceiling, various mystical attributes and a certain ghost, as an accompanying element of all this in the end are parts of the puzzle, which in the end is assembled into a single whole. Elements of horror, while encircling the film, look only a certain genre belonging to horror, as the picture itself is more of a mystical thriller than a dramatic horror.

The elements of this very horror film, one way or another, is impregnated, but they are undoubtedly not a priority for the director. Since the main theme of the narrative around which the plot is built is the difficult fate of a family of four different ages of children. After the death of the mother, they remain alone and start life at first, trying to survive in a world of bureaucratic laws, because of which they can be separated. At the same time, the mysterious and frightening past associated with their father, one way or another, can not help but affect what is happening here and now, starting off in a mysterious ball, which is beautiful in its culminating phase and the subsequent denouement.

What is especially valuable in this case and that is inherent in all well-proven Spanish directors of recent years, whether Juan Antonio Bayona or Jaume Balaguero, is the ability to reveal the characters in the allotted time. It is thanks to this warm and warm moments that the spectator also lives with the heroes on the screen as brightly and emotionally, feelings of anxiety and despair cause genuine empathy, and moments of threat to life the children grow into fear. Ability to work with characters is an important factor in the success of such projects, so for the subsequent work of director Sergio H. Sanchez will now be doubly curious to watch, as with his debut he puts a high bar for himself for the future.

Together with the wonderful musical accompaniment "Marrowbone" UHD can be described in words in an atmospheric and penetrating manner, since, after what has been seen, there remains only a train of positive emotions. With an excellent production and a good narrative story, stylistically adjusted and musically adapted this movie, which is simply interesting to watch. And it seems like there is a feeling that the new one does not bring anything, but he does not need it. Wandering in the genre between the mystical thriller and the dramatic horror "Marrowbone" Ultra HD absorbs various forms, without losing the balance of genre elements, frightening and making you experience when viewing simultaneously.

Mediainfo

movie BDRemux Video
ID : 1
Format : HEVC
Format/Info : High Efficiency Video Coding
Commercial name : HDR10
Format profile : Main 10@L5.1@High
Codec ID : V_MPEGH/ISO/HEVC
Duration : 1 h 50 min
Bit rate : 59.1 Mb/s
Width : 3 840 pixels
Height : 2 160 pixels
Display aspect ratio : 16:9
Frame rate mode : Constant
Frame rate : 23.976 (24000/1001) FPS
Color space : YUV
Chroma subsampling : 4:2:0 (Type 2)
Bit depth : 10 bits
Bits/(Pixel*Frame) : 0.297
Stream size : 45.5 GiB (88%)
Title : Marrowbone.2017.2160p.BluRay.REMUX.HEVC.DTS-HD.MA.TrueHD.7.1.Atmos
Default : Yes
Forced : No
Color range : Limited
Color primaries : BT.2020
Transfer characteristics : PQ
Matrix coefficients : BT.2020 non-constant
Mastering display color primaries : R: x=0.340000 y=0.160000, G: x=0.132500 y=0.345000, B: x=0.750000 y=0.300000, White point: x=0.156340 y=0.164500
Mastering display luminance : min: 0.0000 cd/m2, max: 4000 cd/m2
Maximum Content Light Level : 1518 cd/m2
Maximum Frame-Average Light Level : 706 cd/m2

Audio #1
ID : 2
Format : TrueHD
Format profile : TrueHD+Atmos / TrueHD
Codec ID : A_TRUEHD
Duration : 1 h 50 min
Bit rate mode : Variable
Bit rate : 3 792 kb/s
Maximum bit rate : 7 902 kb/s
Channel(s) : Object Based / 8 channels
Channel positions : Object Based / Front: L C R, Side: L R, Back: L R, LFE
Sampling rate : / 48.0 kHz
Frame rate : 1 200.000 FPS (40 SPF)
Compression mode : Lossless
Stream size : 2.92 GiB (6%)
Title : Marrowbone.2017.2160p.BluRay.REMUX.HEVC.DTS-HD.MA.TrueHD.7.1.Atmos
Language : English
Default : Yes
Forced : No

Audio #2
ID : 3
Format : DTS
Format/Info : Digital Theater Systems
Format profile : MA / Core
Codec ID : A_DTS
Duration : 1 h 50 min
Bit rate mode : Variable / Constant
Bit rate : 3 744 kb/s / 1 509 kb/s
Channel(s) : 8 channels / 6 channels
Channel positions : Front: L C R, Side: L R, Back: L R, LFE / Front: L C R, Side: L R, LFE
Sampling rate : 48.0 kHz
Frame rate : 93.750 FPS (512 SPF)
Bit depth : 24 bits
Compression mode : Lossless / Lossy
Stream size : 2.88 GiB (6%)
Title : Marrowbone.2017.2160p.BluRay.REMUX.HEVC.DTS-HD.MA.TrueHD.7.1.Atmos
Language : English
Default : No
Forced : No

Audio #3
ID : 4
Format : AC-3
Format/Info : Audio Coding 3
Codec ID : A_AC3
Duration : 1 h 50 min
Bit rate mode : Constant
Bit rate : 640 kb/s
Channel(s) : 6 channels
Channel positions : Front: L C R, Side: L R, LFE
Sampling rate : 48.0 kHz
Frame rate : 31.250 FPS (1536 SPF)
Bit depth : 16 bits
Compression mode : Lossy
Stream size : 505 MiB (1%)
Title : Marrowbone.2017.2160p.BluRay.REMUX.HEVC.DTS-HD.MA.TrueHD.7.1.Atmos
Language : English
Service kind : Complete Main
Default : No
Forced : No

Text #1
ID : 5
Format : PGS
Muxing mode : zlib
Codec ID : S_HDMV/PGS
Codec ID/Info : Picture based subtitle format used on BDs/HD-DVDs
Duration : 1 h 42 min
Bit rate : 42.2 kb/s
Count of elements : 2200
Stream size : 31.0 MiB (0%)
Title : English-PGS
Language : English
Default : Yes
Forced : No

Text #2
ID : 6
Format : PGS
Muxing mode : zlib
Codec ID : S_HDMV/PGS
Codec ID/Info : Picture based subtitle format used on BDs/HD-DVDs
Duration : 1 h 42 min
Bit rate : 35.4 kb/s
Count of elements : 1776
Stream size : 25.8 MiB (0%)
Title : Spanish-PGS
Language : Spanish
Default : No
Forced : No

Menu
00:00:00.000 : en:Chapter 1
00:07:19.147 : en:Chapter 2
00:16:22.648 : en:Chapter 3
00:24:34.014 : en:Chapter 4
00:32:18.770 : en:Chapter 5
00:42:47.648 : en:Chapter 6
00:49:55.617 : en:Chapter 7
00:56:09.908 : en:Chapter 8
01:04:45.881 : en:Chapter 9
01:10:59.463 : en:Chapter 10
01:19:01.736 : en:Chapter 11
01:30:06.442 : en:Chapter 12
movie BDRip Video
ID : 1
Format : HEVC
Format/Info : High Efficiency Video Coding
Commercial name : HDR10
Format profile : Main 10@L5.1@High
Codec ID : V_MPEGH/ISO/HEVC
Duration : 1 h 50 min
Bit rate : 6 985 kb/s
Width : 3 840 pixels
Height : 1 600 pixels
Display aspect ratio : 2.40:1
Frame rate mode : Constant
Frame rate : 23.976 (24000/1001) FPS
Color space : YUV
Chroma subsampling : 4:2:0 (Type 2)
Bit depth : 10 bits
Bits/(Pixel*Frame) : 0.047
Stream size : 5.38 GiB (61%)
Writing library : x265 2.8+10-703eade86b53:[Windows][MSVC 1914][64 bit] 10bit
Encoding settings : cpuid=1111039 / frame-threads=4 / numa-pools=20 / wpp / no-pmode / no-pme / no-psnr / no-ssim / log-level=2 / input-csp=1 / input-res=3840x1600 / interlace=0 / total-frames=158628 / level-idc=51 / high-tier=1 / uhd-bd=0 / ref=4 / no-allow-non-conformance / repeat-headers / annexb / aud / hrd / info / hash=0 / no-temporal-layers / no-open-gop / min-keyint=1 / keyint=24 / gop-lookahead=0 / bframes=4 / b-adapt=2 / b-pyramid / bframe-bias=0 / rc-lookahead=25 / lookahead-slices=4 / scenecut=40 / radl=0 / no-intra-refresh / ctu=64 / min-cu-size=8 / rect / no-amp / max-tu-size=32 / tu-inter-depth=1 / tu-intra-depth=1 / limit-tu=0 / rdoq-level=2 / dynamic-rd=0.00 / no-ssim-rd / signhide / no-tskip / nr-intra=0 / nr-inter=0 / no-constrained-intra / no-strong-intra-smoothing / max-merge=3 / limit-refs=3 / limit-modes / me=3 / subme=3 / merange=57 / temporal-mvp / weightp / no-weightb / no-analyze-src-pics / deblock=-3:-3 / no-sao / no-sao-non-deblock / rd=4 / no-early-skip / rskip / no-fast-intra / no-tskip-fast / no-cu-lossless / no-b-intra / no-splitrd-skip / rdpenalty=0 / psy-rd=2.00 / psy-rdoq=1.00 / no-rd-refine / no-lossless / cbqpoffs=0 / crqpoffs=0 / rc=crf / crf=17.0 / qcomp=0.60 / qpstep=4 / stats-write=0 / stats-read=0 / vbv-maxrate=160000 / vbv-bufsize=160000 / vbv-init=0.9 / crf-max=0.0 / crf-min=0.0 / ipratio=1.40 / pbratio=1.30 / aq-mode=1 / aq-strength=1.00 / cutree / zone-count=0 / no-strict-cbr / qg-size=32 / no-rc-grain / qpmax=69 / qpmin=0 / no-const-vbv / sar=1 / overscan=0 / videoformat=5 / range=0 / colorprim=9 / transfer=16 / colormatrix=9 / chromaloc=1 / chromaloc-top=2 / chromaloc-bottom=2 / display-window=0 / master-display=G(6625,17250)B(37500,15000)R(17000,8000)WP(7817,8225)L(40000000,0) / max-cll=1518,706 / min-luma=0 / max-luma=1023 / log2-max-poc-lsb=8 / vui-timing-info / vui-hrd-info / slices=1 / no-opt-qp-pps / no-opt-ref-list-length-pps / no-multi-pass-opt-rps / scenecut-bias=0.05 / no-opt-cu-delta-qp / no-aq-motion / hdr / hdr-opt / no-dhdr10-opt / no-idr-recovery-sei / analysis-reuse-level=5 / scale-factor=0 / refine-intra=0 / refine-inter=0 / refine-mv=0 / no-limit-sao / ctu-info=0 / no-lowpass-dct / refine-mv-type=0 / copy-pic=1 / max-ausize-factor=1.0 / no-dynamic-refine / no-single-sei
Default : Yes
Forced : No
Color range : Limited
Color primaries : BT.2020
Transfer characteristics : PQ
Matrix coefficients : BT.2020 non-constant
Mastering display color primaries : R: x=0.340000 y=0.160000, G: x=0.132500 y=0.345000, B: x=0.750000 y=0.300000, White point: x=0.156340 y=0.164500
Mastering display luminance : min: 0.0000 cd/m2, max: 4000 cd/m2
Maximum Content Light Level : 1518 cd/m2
Maximum Frame-Average Light Level : 706 cd/m2

Audio #1
ID : 2
Format : TrueHD
Format profile : TrueHD+Atmos / TrueHD
Codec ID : A_TRUEHD
Duration : 1 h 50 min
Bit rate mode : Variable
Bit rate : 3 792 kb/s
Maximum bit rate : 7 902 kb/s
Channel(s) : Object Based / 8 channels
Channel positions : Object Based / Front: L C R, Side: L R, Back: L R, LFE
Sampling rate : / 48.0 kHz
Frame rate : 1 200.000 FPS (40 SPF)
Compression mode : Lossless
Stream size : 2.92 GiB (33%)
Language : English
Default : Yes
Forced : No

Audio #2
ID : 3
Format : AC-3
Format/Info : Audio Coding 3
Codec ID : A_AC3
Duration : 1 h 50 min
Bit rate mode : Constant
Bit rate : 640 kb/s
Channel(s) : 6 channels
Channel positions : Front: L C R, Side: L R, LFE
Sampling rate : 48.0 kHz
Frame rate : 31.250 FPS (1536 SPF)
Bit depth : 16 bits
Compression mode : Lossy
Stream size : 505 MiB (6%)
Language : English
Service kind : Complete Main
Default : No
Forced : No

Text #1
ID : 4
Format : PGS
Muxing mode : zlib
Codec ID : S_HDMV/PGS
Codec ID/Info : Picture based subtitle format used on BDs/HD-DVDs
Duration : 1 h 42 min
Bit rate : 42.2 kb/s
Count of elements : 2200
Stream size : 31.0 MiB (0%)
Title : SDH
Language : English
Default : No
Forced : No

Text #2
ID : 5
Format : PGS
Muxing mode : zlib
Codec ID : S_HDMV/PGS
Codec ID/Info : Picture based subtitle format used on BDs/HD-DVDs
Duration : 1 h 42 min
Bit rate : 35.4 kb/s
Count of elements : 1776
Stream size : 25.8 MiB (0%)
Language : Spanish
Default : No
Forced : No

Menu
00:00:00.000 : en:00:00:00.000
00:07:19.147 : en:00:07:19.147
00:16:22.648 : en:00:16:22.648
00:24:34.014 : en:00:24:34.014
00:32:18.770 : en:00:32:18.770
00:42:47.648 : en:00:42:47.648
00:49:55.618 : en:00:49:55.618
00:56:09.908 : en:00:56:09.908
01:04:45.882 : en:01:04:45.882
01:10:59.463 : en:01:10:59.463
01:19:01.737 : en:01:19:01.737
01:30:06.443 : en:01:30:06.443

Download

download 4k hdr movies download 4k hdr movies

Watch a movie trailer - Marrowbone 4K 2017 Ultra HD 2160p
Comments and Feedback
Add your comment:
Your name:
Your E-Mail:
Code:
reload, if the code cannot be seen
Enter code: