Select movie Search movie Close search My Account

Deepwater Horizon (2016) 4K BluRay 2160P

Deepwater Horizon (2016) 4K BluRay 2160P
BDRemux / BDRip
Country: Hong Kong | USA
Time: 1h 47min
IMDB: 7.2
Director: Peter Berg
Actors: Mark Wahlberg, Kurt Russell, Douglas M. Griffin, James DuMont, Joe Chrest, Gina Rodriguez, Brad Leland, John Malkovich, David Maldonado, J.D. Evermore, Ethan Suplee, Jason Pine, Jason Kirkpatrick, Robert Walker Branchaud, Dylan O'Brien

Story Movie

Deepwater Horizon (2016) 4K BluRay 2160P
Each time going to the deepest horizon in the world, the team can only hope that everything will be fine. But none of the team ever knows ahead of what their expedition might end. This story takes its foundation only on real events and the Deepwater Horizon 4k movie download movie will make you think about always appreciating human lives.

Review 4K Movie

The film "Deepwater Horizon" 4k movie download tells us about the terrible tragedy that occurred in the Gulf of Mexico on the oil platform "Deepwater Horizon" UHD on April 20, 2010, in which 115 people were saved from 126 people.

Synopsis:

The protagonist Mike goes to the next three-week watch with his colleagues at Deepwater Horizon Ultra HD. Upon arrival, crew members discover that the company, in order to save its funds, did not let the experts check the oil platform for reliability and safety, which in the future will lead to such terrible consequences

This difficult tragic story took to film the director Peter Berg, who already has the proper experience in working with pictures. The director is best known for the paintings "Hancock", the controversial film "Sea Battle" and the recent painting "Survivor".

The cast is impressed by Mark Walbreg, he plays the protagonist Mike Williams who works on the platform as a technical engineer.

Kurt Russell, dammit, it's nice to see him again in a big movie, who played an excellent positive character who until the last did his job.

John Malkovich, who played one of the leaders of BP (bipi), and for which this terrible tragedy occurred.

The music in the film is simply incomparable, Steve Yablonsky, as always, performed his work incomparably, music keeps the tension in different moments in the films, it's more than worthwhile to tell the composer what a great grace.

Mediainfo

movie BDRemux Video
Codec: HEVC / H.265
Resolution: Upscaled 4K (2160p)
HDR: HDR10
Aspect ratio: 2.40:1
Original aspect ratio: 2.39:1

Audio
English: Dolby Atmos
English: Dolby TrueHD 7.1 (48kHz, 24-bit)
Spanish: Dolby Digital 5.1
French: Dolby Digital 2.0

Subtitles
English, English SDH, Spanish
movie BDRip Video
ID : 1
Format : HEVC
Format/Info : High Efficiency Video Coding
Format profile : Main 10@L5.1@High
Codec ID : V_MPEGH/ISO/HEVC
Duration : 1 h 47 min
Bit rate : 22.4 Mb/s
Width : 3 840 pixels
Height : 1 600 pixels
Display aspect ratio : 2.40:1
Frame rate mode : Constant
Frame rate : 23.976 (24000/1001) FPS
Color space : YUV
Chroma subsampling : 4:2:0 (Type 2)
Bit depth : 10 bits
Bits/(Pixel*Frame) : 0.152
Stream size : 16.8 GiB (79%)
Writing library : x265 2.5+58-06979c042350:[Windows][GCC 6.2.1][64 bit] 10bit
Encoding settings : cpuid=1173503 / frame-threads=4 / numa-pools=16 / wpp / no-pmode / no-pme / no-psnr / no-ssim / log-level=2 / input-csp=1 / input-res=3840x1600 / interlace=0 / total-frames=154389 / level-idc=51 / high-tier=1 / uhd-bd=0 / ref=4 / no-allow-non-conformance / repeat-headers / annexb / aud / hrd / info / hash=0 / no-temporal-layers / no-open-gop / min-keyint=1 / keyint=24 / bframes=4 / b-adapt=2 / b-pyramid / bframe-bias=0 / rc-lookahead=25 / lookahead-slices=4 / scenecut=40 / no-intra-refresh / ctu=64 / min-cu-size=8 / rect / no-amp / max-tu-size=32 / tu-inter-depth=1 / tu-intra-depth=1 / limit-tu=0 / rdoq-level=2 / dynamic-rd=0.00 / no-ssim-rd / signhide / no-tskip / nr-intra=0 / nr-inter=0 / no-constrained-intra / no-strong-intra-smoothing / max-merge=3 / limit-refs=3 / limit-modes / me=3 / subme=3 / merange=57 / temporal-mvp / weightp / no-weightb / no-analyze-src-pics / deblock=-3:-3 / no-sao / no-sao-non-deblock / rd=4 / no-early-skip / rskip / no-fast-intra / no-tskip-fast / no-cu-lossless / no-b-intra / no-splitrd-skip / rdpenalty=0 / psy-rd=2.00 / psy-rdoq=1.00 / no-rd-refine / analysis-reuse-mode=0 / no-lossless / cbqpoffs=0 / crqpoffs=0 / rc=crf / crf=17.0 / qcomp=0.60 / qpstep=4 / stats-write=0 / stats-read=0 / vbv-maxrate=160000 / vbv-bufsize=160000 / vbv-init=0.9 / crf-max=0.0 / crf-min=0.0 / ipratio=1.40 / pbratio=1.30 / aq-mode=1 / aq-strength=1.00 / cutree / zone-count=0 / no-strict-cbr / qg-size=32 / no-rc-grain / qpmax=69 / qpmin=0 / no-const-vbv / sar=1 / overscan=0 / videoformat=5 / range=0 / colorprim=9 / transfer=16 / colormatrix=9 / chromaloc=1 / chromaloc-top=2 / chromaloc-bottom=2 / display-window=0 / master-display=G(13250,34500)B(7500,3000)R(34000,16000)WP(15635,16450)L(10000000,0) / max-cll=1000,510 / min-luma=0 / max-luma=1023 / log2-max-poc-lsb=8 / vui-timing-info / vui-hrd-info / slices=1 / no-opt-qp-pps / no-opt-ref-list-length-pps / no-multi-pass-opt-rps / scenecut-bias=0.05 / no-opt-cu-delta-qp / no-aq-motion / hdr / hdr-opt / no-dhdr10-opt / analysis-reuse-level=5 / scale-factor=0 / refine-intra=0 / refine-inter=0 / refine-mv=0 / no-limit-sao / ctu-info=0 / no-lowpass-dct / refine-mv-type=0 / copy-pic=1
Default : Yes
Forced : No
Color range : Limited
Color primaries : BT.2020
Transfer characteristics : PQ
Matrix coefficients : BT.2020 non-constant
Mastering display color primaries : R: x=0.680000 y=0.320000, G: x=0.265000 y=0.690000, B: x=0.150000 y=0.060000, White point: x=0.312700 y=0.329000
Mastering display luminance : min: 0.0000 cd/m2, max: 1000.0000 cd/m2
Maximum Content Light Level : 1000 cd/m2
Maximum Frame-Average Light Level : 510 cd/m2

Audio #1
ID : 2
Format : TrueHD
Format profile : TrueHD+Atmos / TrueHD
Codec ID : A_TRUEHD
Duration : 1 h 47 min
Bit rate mode : Variable
Bit rate : 5 039 kb/s
Maximum bit rate : 8 613 kb/s
Channel(s) : Object Based / 8 channels
Channel positions : Object Based / Front: L C R, Side: L R, Back: L R, LFE
Sampling rate : / 48.0 kHz
Frame rate : 1 200.000 FPS (40 SPF)
Compression mode : Lossless
Stream size : 3.78 GiB (18%)
Language : English
Default : Yes
Forced : No

Audio #2
ID : 3
Format : AC-3
Format/Info : Audio Coding 3
Codec ID : A_AC3
Duration : 1 h 47 min
Bit rate mode : Constant
Bit rate : 640 kb/s
Channel(s) : 6 channels
Channel positions : Front: L C R, Side: L R, LFE
Sampling rate : 48.0 kHz
Frame rate : 31.250 FPS (1536 SPF)
Bit depth : 16 bits
Compression mode : Lossy
Stream size : 491 MiB (2%)
Language : English
Service kind : Complete Main
Default : No
Forced : No

Text #1
ID : 4
Format : PGS
Muxing mode : zlib
Codec ID : S_HDMV/PGS
Codec ID/Info : Picture based subtitle format used on BDs/HD-DVDs
Duration : 1 h 36 min
Bit rate : 41.3 kb/s
Count of elements : 2984
Stream size : 28.6 MiB (0%)
Language : English
Default : No
Forced : No

Text #2
ID : 5
Format : PGS
Muxing mode : zlib
Codec ID : S_HDMV/PGS
Codec ID/Info : Picture based subtitle format used on BDs/HD-DVDs
Duration : 1 h 36 min
Bit rate : 46.2 kb/s
Count of elements : 3310
Stream size : 32.0 MiB (0%)
Title : SDH
Language : English
Default : No
Forced : No

Text #3
ID : 6
Format : PGS
Muxing mode : zlib
Codec ID : S_HDMV/PGS
Codec ID/Info : Picture based subtitle format used on BDs/HD-DVDs
Duration : 1 h 38 min
Bit rate : 41.5 kb/s
Count of elements : 3316
Stream size : 29.2 MiB (0%)
Language : Spanish
Default : No
Forced : No

Menu
00:00:00.000 : en:00:00:00.000
00:07:01.212 : en:00:07:01.212
00:12:32.627 : en:00:12:32.627
00:19:34.465 : en:00:19:34.465
00:27:17.219 : en:00:27:17.219
00:34:52.632 : en:00:34:52.632
00:44:29.834 : en:00:44:29.834
00:48:04.924 : en:00:48:04.924
00:53:47.599 : en:00:53:47.599
00:58:05.148 : en:00:58:05.148
01:05:44.607 : en:01:05:44.607
01:10:06.869 : en:01:10:06.869
01:16:02.933 : en:01:16:02.933
01:20:44.381 : en:01:20:44.381
01:27:37.669 : en:01:27:37.669
01:31:37.826 : en:01:31:37.826

Download

download 4k hdr movies download 4k hdr movies

Watch a movie trailer - Deepwater Horizon (2016) 4K BluRay 2160P
Comments and Feedback
Add your comment:
Your name:
Your E-Mail:
Enter the two words shown in the image: *