Select movie Search movie Close search My Account

Shutter Island 4K 2010 Ultra HD 2160p

Shutter Island 4K 2010 Ultra HD 2160p
BDRemux / BDRip
Country: USA
Time: 2h 18min
IMDB: 8.1
Director: Martin Scorsese
Actors: Leonardo DiCaprio, Mark Ruffalo, Ben Kingsley, Max von Sydow, Michelle Williams, Emily Mortimer, Patricia Clarkson, Jackie Earle Haley, Ted Levine, John Carroll Lynch, Elias Koteas, Robin Bartlett, Christopher Denham, Nellie Sciutto, Joseph Sikora

Story Movie

Shutter Island 4K 2010 Ultra HD 2160p
Of course, "The Island of the Damned 4k" - the best thriller in recent years. He combines the great director Martin Scorsese and perfect visual perception, saturated with quiet despair and gloomy undertones. Actors are so fit in their roles that even Mark Ruffalo is no longer perceived by me as a sugary frequenter of romantic comedies. Watching this movie, you disconnect from reality and go crazy with the hero DiCaprio. But I confess to you honestly: I am among those who are in opposition. Because in the novel by Dennis Lehane (which, by the way, it is impossible to find in Russian even on the Internet 4k video sample file), the hero remains normal. And this is my main argument. Moreover, the director - a true master - left everyone the right to choose.

Review 4K Movie

Speaking about this film Shutter Island UHD, I would like to say that at first it did not interest me at all. Yes, of course the trailer featured such names as Martin Scorsese and Leonardo DiCaprio, who have been working together for a very long time. All their joint films were worthy and worthy of attention. In general, after the rave reviews of my friends, I decided to go.

After watching the movie, I went out into the street, and my head was empty, only the images from the movie were spinning in my head. On so much, he impressed me! Almost all the components of the film were honed and adjusted to the smallest detail. But of course the director left the main surprise for last. The end of the film is so enchanting and unpredictable that after watching you realize that you have so many questions left and you want to get answers.

But now about the component of the film. The plot is pretty simple. Two US bailiffs are sent to one of the islands in Massachusetts to investigate the disappearance of the patient of the clinic for insane criminals. During the investigation, new and new riddles are opened up before them, the answers to which are not so easy to get.

The storyline throughout the film twists like a spiral, sometimes not giving answers to what is happening on the screen, but when it reaches its apogee it spins up like a tangle slowly and gradually revealing the truth that lurked behind the shadow of doubt. But not all questions you get answers. And I liked this component the most. So you came out of the cinema and you go home, for example, and everyone thinks about the questions that are spinning and spinning in your head. You so want to know how everything really is. And suddenly you realize that you need to go again, because you so want to know the truth. And besides, going to the cinema in the second, you will be able to watch the movie from the other side, and suddenly there is a completely different meaning behind the various dialogues ...

Speaking of the acting ensemble Shutter Island 4k video sample file, I would like to highlight the amazing and very convincing game of Leonardo DiCaprio. He has not once confirmed his status, the status of a serious and ambitious actor, who is not taken for the most simple pictures. In this film, he worked at 100%. After all, he passed the thinnest line between madness and self-control. I would like to say the same about Martin Scorsese. He is already a recognized master who never ceases to amaze us. He's like wine, every year it only gets better. Scorsese stunningly conveyed the atmosphere of the island where our main character was located. There is no peace in his soul, just like on the island. He seems to create an analogy between the mental state of the hero and his environment (sea, wind, etc.). And of course, the dreams of Tedi Daniels deserve special attention. It's just a find. His fears, the pain of anxiety, everything that he has in his subconsciousness pours out into dreams that are so mystical and inexplicable, and sometimes there were places that were terrible.

Camera work just on top. The film itself is not very dynamic, but the work of the operator and the director will not let us get bored.

The soundtrack is great, of course. In places where you need to designate tension moments or turn around to relax the viewer, the composer worked just fine.

As a result, we got a terrific atmospheric psychological thriller, with an unpredictable plot, excellent acting and director's work. This movie will make you squeeze into the chair ...

Mediainfo

movie BDRemux Video
ID : 1
Format : HEVC
Format/Info : High Efficiency Video Coding
Commercial name : HDR10
Format profile : Main 10@L5.1@High
Codec ID : V_MPEGH/ISO/HEVC
Duration : 2 h 18 min
Bit rate : 25.2 Mb/s
Width : 3 840 pixels
Height : 1 634 pixels
Display aspect ratio : 2.35:1
Frame rate mode : Constant
Frame rate : 23.976 (24000/1001) FPS
Color space : YUV
Chroma subsampling : 4:2:0 (Type 2)
Bit depth : 10 bits
Bits/(Pixel*Frame) : 0.168
Stream size : 24.3 GiB (84%)
Writing library : x265 2.8+58-d17bc7714ed2:[Windows][GCC 8.2.0][64 bit] 10bit
Encoding settings : cpuid=1176575 / frame-threads=5 / numa-pools=36 / wpp / no-pmode / no-pme / no-psnr / no-ssim / log-level=2 / input-csp=1 / input-res=3840x1634 / interlace=0 / total-frames=198636 / level-idc=51 / high-tier=1 / uhd-bd=0 / ref=4 / no-allow-non-conformance / repeat-headers / annexb / aud / hrd / info / hash=0 / no-temporal-layers / no-open-gop / min-keyint=24 / keyint=240 / gop-lookahead=0 / bframes=4 / b-adapt=2 / b-pyramid / bframe-bias=0 / rc-lookahead=25 / lookahead-slices=4 / scenecut=40 / radl=0 / no-intra-refresh / ctu=64 / min-cu-size=8 / rect / no-amp / max-tu-size=32 / tu-inter-depth=1 / tu-intra-depth=1 / limit-tu=0 / rdoq-level=2 / dynamic-rd=0.00 / no-ssim-rd / signhide / no-tskip / nr-intra=0 / nr-inter=0 / no-constrained-intra / no-strong-intra-smoothing / max-merge=3 / limit-refs=3 / limit-modes / me=3 / subme=3 / merange=57 / temporal-mvp / weightp / no-weightb / no-analyze-src-pics / deblock=-3:-3 / no-sao / no-sao-non-deblock / rd=4 / no-early-skip / rskip / no-fast-intra / no-tskip-fast / no-cu-lossless / no-b-intra / no-splitrd-skip / rdpenalty=0 / psy-rd=2.00 / psy-rdoq=1.00 / no-rd-refine / no-lossless / cbqpoffs=0 / crqpoffs=0 / rc=crf / crf=17.0 / qcomp=0.60 / qpstep=4 / stats-write=0 / stats-read=0 / vbv-maxrate=160000 / vbv-bufsize=160000 / vbv-init=0.9 / crf-max=0.0 / crf-min=0.0 / ipratio=1.40 / pbratio=1.30 / aq-mode=1 / aq-strength=1.00 / cutree / zone-count=0 / no-strict-cbr / qg-size=32 / no-rc-grain / qpmax=69 / qpmin=0 / no-const-vbv / sar=1 / overscan=0 / videoformat=5 / range=0 / colorprim=9 / transfer=16 / colormatrix=9 / chromaloc=1 / chromaloc-top=2 / chromaloc-bottom=2 / display-window=0 / master-display=G(13250,34500)B(7500,3000)R(34000,16000)WP(15635,16450)L(10000000,1) / max-cll=0,0 / min-luma=0 / max-luma=1023 / log2-max-poc-lsb=8 / vui-timing-info / vui-hrd-info / slices=1 / no-opt-qp-pps / no-opt-ref-list-length-pps / no-multi-pass-opt-rps / scenecut-bias=0.05 / no-opt-cu-delta-qp / no-aq-motion / hdr / hdr-opt / no-dhdr10-opt / no-idr-recovery-sei / analysis-reuse-level=5 / scale-factor=0 / refine-intra=0 / refine-inter=0 / refine-mv=0 / no-limit-sao / ctu-info=0 / no-lowpass-dct / refine-mv-type=0 / copy-pic=1 / max-ausize-factor=1.0 / no-dynamic-refine / no-single-sei
Default : Yes
Forced : No
Color range : Limited
Color primaries : BT.2020
Transfer characteristics : PQ
Matrix coefficients : BT.2020 non-constant
Mastering display color primaries : Display P3
Mastering display luminance : min: 0.0001 cd/m2, max: 1000 cd/m2

Audio
ID : 2
Format : DTS XLL
Format/Info : Digital Theater Systems
Commercial name : DTS-HD Master Audio
Codec ID : A_DTS
Duration : 2 h 18 min
Bit rate mode : Variable
Bit rate : 4 725 kb/s
Channel(s) : 6 channels
Channel layout : C L R Ls Rs LFE
Sampling rate : 48.0 kHz
Frame rate : 93.750 FPS (512 SPF)
Bit depth : 24 bits
Compression mode : Lossless
Stream size : 4.56 GiB (16%)
Title : DTS-HD MA 5.1
Language : English
Default : Yes
Forced : No

Text #1
ID : 3
Format : UTF-8
Codec ID : S_TEXT/UTF8
Codec ID/Info : UTF-8 Plain Text
Duration : 2 h 8 min
Bit rate : 59 b/s
Count of elements : 1572
Stream size : 55.6 KiB (0%)
Title : Stripped SRT
Language : English
Default : No
Forced : No

Text #2
ID : 4
Format : UTF-8
Codec ID : S_TEXT/UTF8
Codec ID/Info : UTF-8 Plain Text
Duration : 2 h 8 min
Bit rate : 58 b/s
Count of elements : 1557
Stream size : 55.3 KiB (0%)
Title : Full SRT
Language : English
Default : No
Forced : No

Text #3
ID : 5
Format : PGS
Muxing mode : zlib
Codec ID : S_HDMV/PGS
Codec ID/Info : Picture based subtitle format used on BDs/HD-DVDs
Duration : 2 h 8 min
Bit rate : 35.6 kb/s
Count of elements : 3114
Stream size : 32.7 MiB (0%)
Title : Full
Language : English
Default : No
Forced : No

Text #4
ID : 6
Format : UTF-8
Codec ID : S_TEXT/UTF8
Codec ID/Info : UTF-8 Plain Text
Duration : 2 h 8 min
Bit rate : 61 b/s
Count of elements : 1661
Stream size : 58.2 KiB (0%)
Title : SDH SRT
Language : English
Default : No
Forced : No

Text #5
ID : 7
Format : PGS
Muxing mode : zlib
Codec ID : S_HDMV/PGS
Codec ID/Info : Picture based subtitle format used on BDs/HD-DVDs
Duration : 2 h 8 min
Bit rate : 37.9 kb/s
Count of elements : 3322
Stream size : 34.8 MiB (0%)
Title : SDH
Language : English
Default : No
Forced : No

Text #6
ID : 8
Format : PGS
Muxing mode : zlib
Codec ID : S_HDMV/PGS
Codec ID/Info : Picture based subtitle format used on BDs/HD-DVDs
Duration : 2 h 17 min
Bit rate : 26.2 kb/s
Count of elements : 3110
Stream size : 25.7 MiB (0%)
Language : French
Default : No
Forced : No

Text #7
ID : 9
Format : PGS
Muxing mode : zlib
Codec ID : S_HDMV/PGS
Codec ID/Info : Picture based subtitle format used on BDs/HD-DVDs
Duration : 2 h 9 min
Bit rate : 29.4 kb/s
Count of elements : 2896
Stream size : 27.2 MiB (0%)
Language : Spanish
Default : No
Forced : No

Text #8
ID : 10
Format : PGS
Muxing mode : zlib
Codec ID : S_HDMV/PGS
Codec ID/Info : Picture based subtitle format used on BDs/HD-DVDs
Duration : 2 h 9 min
Bit rate : 29.4 kb/s
Count of elements : 2892
Stream size : 27.2 MiB (0%)
Language : Portuguese
Default : No
Forced : No

Text #9
ID : 11
Format : PGS
Muxing mode : zlib
Codec ID : S_HDMV/PGS
Codec ID/Info : Picture based subtitle format used on BDs/HD-DVDs
Duration : 2 h 17 min
Bit rate : 30.3 kb/s
Count of elements : 2996
Stream size : 29.8 MiB (0%)
Language : Portuguese
Default : No
Forced : No

Text #10
ID : 12
Format : PGS
Muxing mode : zlib
Codec ID : S_HDMV/PGS
Codec ID/Info : Picture based subtitle format used on BDs/HD-DVDs
Duration : 2 h 17 min
Bit rate : 23.1 kb/s
Count of elements : 2600
Stream size : 22.7 MiB (0%)
Language : Dutch
Default : No
Forced : No

Text #11
ID : 13
Format : PGS
Muxing mode : zlib
Codec ID : S_HDMV/PGS
Codec ID/Info : Picture based subtitle format used on BDs/HD-DVDs
Duration : 2 h 16 min
Bit rate : 31.6 kb/s
Count of elements : 3128
Stream size : 31.0 MiB (0%)
Language : Swedish
Default : No
Forced : No

Text #12
ID : 14
Format : PGS
Muxing mode : zlib
Codec ID : S_HDMV/PGS
Codec ID/Info : Picture based subtitle format used on BDs/HD-DVDs
Duration : 2 h 16 min
Bit rate : 24.2 kb/s
Count of elements : 2792
Stream size : 23.7 MiB (0%)
Language : Norwegian
Default : No
Forced : No

Text #13
ID : 15
Format : PGS
Muxing mode : zlib
Codec ID : S_HDMV/PGS
Codec ID/Info : Picture based subtitle format used on BDs/HD-DVDs
Duration : 2 h 16 min
Bit rate : 28.3 kb/s
Count of elements : 2436
Stream size : 27.7 MiB (0%)
Language : Danish
Default : No
Forced : No

Text #14
ID : 16
Format : PGS
Muxing mode : zlib
Codec ID : S_HDMV/PGS
Codec ID/Info : Picture based subtitle format used on BDs/HD-DVDs
Duration : 2 h 16 min
Bit rate : 25.8 kb/s
Count of elements : 2758
Stream size : 25.2 MiB (0%)
Language : Finnish
Default : No
Forced : No

Text #15
ID : 17
Format : PGS
Muxing mode : zlib
Codec ID : S_HDMV/PGS
Codec ID/Info : Picture based subtitle format used on BDs/HD-DVDs
Duration : 2 h 17 min
Bit rate : 33.0 kb/s
Count of elements : 3130
Stream size : 32.4 MiB (0%)
Language : Icelandic
Default : No
Forced : No

Text #16
ID : 18
Format : PGS
Muxing mode : zlib
Codec ID : S_HDMV/PGS
Codec ID/Info : Picture based subtitle format used on BDs/HD-DVDs
Duration : 2 h 17 min
Bit rate : 25.6 kb/s
Count of elements : 2966
Stream size : 25.2 MiB (0%)
Language : Czech
Default : No
Forced : No

Text #17
ID : 19
Format : PGS
Muxing mode : zlib
Codec ID : S_HDMV/PGS
Codec ID/Info : Picture based subtitle format used on BDs/HD-DVDs
Duration : 2 h 17 min
Bit rate : 30.2 kb/s
Count of elements : 3132
Stream size : 29.7 MiB (0%)
Language : Polish
Default : No
Forced : No

Text #18
ID : 20
Format : PGS
Muxing mode : zlib
Codec ID : S_HDMV/PGS
Codec ID/Info : Picture based subtitle format used on BDs/HD-DVDs
Duration : 2 h 17 min
Bit rate : 31.2 kb/s
Count of elements : 3130
Stream size : 30.7 MiB (0%)
Language : Hungarian
Default : No
Forced : No

Text #19
ID : 21
Format : PGS
Muxing mode : zlib
Codec ID : S_HDMV/PGS
Codec ID/Info : Picture based subtitle format used on BDs/HD-DVDs
Duration : 2 h 16 min
Bit rate : 31.7 kb/s
Count of elements : 3132
Stream size : 31.1 MiB (0%)
Language : Slovak
Default : No
Forced : No

Text #20
ID : 22
Format : PGS
Muxing mode : zlib
Codec ID : S_HDMV/PGS
Codec ID/Info : Picture based subtitle format used on BDs/HD-DVDs
Duration : 2 h 17 min
Bit rate : 26.1 kb/s
Count of elements : 2500
Stream size : 25.6 MiB (0%)
Language : rom
Default : No
Forced : No

Text #21
ID : 23
Format : PGS
Muxing mode : zlib
Codec ID : S_HDMV/PGS
Codec ID/Info : Picture based subtitle format used on BDs/HD-DVDs
Duration : 2 h 17 min
Bit rate : 32.7 kb/s
Count of elements : 3100
Stream size : 32.2 MiB (0%)
Language : Greek
Default : No
Forced : No

Text #22
ID : 24
Format : PGS
Muxing mode : zlib
Codec ID : S_HDMV/PGS
Codec ID/Info : Picture based subtitle format used on BDs/HD-DVDs
Duration : 2 h 17 min
Bit rate : 32.4 kb/s
Count of elements : 3130
Stream size : 31.8 MiB (0%)
Language : Turkish
Default : No
Forced : No

Text #23
ID : 25
Format : PGS
Muxing mode : zlib
Codec ID : S_HDMV/PGS
Codec ID/Info : Picture based subtitle format used on BDs/HD-DVDs
Duration : 2 h 17 min
Bit rate : 14.3 kb/s
Count of elements : 3122
Stream size : 14.0 MiB (0%)
Language : Arabic
Default : No
Forced : No

Text #24
ID : 26
Format : PGS
Muxing mode : zlib
Codec ID : S_HDMV/PGS
Codec ID/Info : Picture based subtitle format used on BDs/HD-DVDs
Duration : 2 h 8 min
Bit rate : 24.4 kb/s
Count of elements : 2926
Stream size : 22.5 MiB (0%)
Language : Japanese
Default : No
Forced : No

Text #25
ID : 27
Format : PGS
Muxing mode : zlib
Codec ID : S_HDMV/PGS
Codec ID/Info : Picture based subtitle format used on BDs/HD-DVDs
Duration : 2 h 17 min
Bit rate : 25.1 kb/s
Count of elements : 3134
Stream size : 24.7 MiB (0%)
Language : Chinese
Default : No
Forced : No

Text #26
ID : 28
Format : PGS
Muxing mode : zlib
Codec ID : S_HDMV/PGS
Codec ID/Info : Picture based subtitle format used on BDs/HD-DVDs
Duration : 2 h 17 min
Bit rate : 22.6 kb/s
Count of elements : 3252
Stream size : 22.2 MiB (0%)
Language : Chinese
Default : No
Forced : No

Text #27
ID : 29
Format : PGS
Muxing mode : zlib
Codec ID : S_HDMV/PGS
Codec ID/Info : Picture based subtitle format used on BDs/HD-DVDs
Duration : 2 h 17 min
Bit rate : 16.7 kb/s
Count of elements : 2824
Stream size : 16.5 MiB (0%)
Language : Korean
Default : No
Forced : No

Text #28
ID : 30
Format : PGS
Muxing mode : zlib
Codec ID : S_HDMV/PGS
Codec ID/Info : Picture based subtitle format used on BDs/HD-DVDs
Duration : 2 h 17 min
Bit rate : 26.1 kb/s
Count of elements : 3134
Stream size : 25.7 MiB (0%)
Language : Thai
Default : No
Forced : No

Text #29
ID : 31
Format : PGS
Muxing mode : zlib
Codec ID : S_HDMV/PGS
Codec ID/Info : Picture based subtitle format used on BDs/HD-DVDs
Duration : 2 h 17 min
Bit rate : 66.6 kb/s
Count of elements : 4868
Stream size : 65.4 MiB (0%)
Language : Hindi
Default : No
Forced : No

Text #30
ID : 32
Format : PGS
Muxing mode : zlib
Codec ID : S_HDMV/PGS
Codec ID/Info : Picture based subtitle format used on BDs/HD-DVDs
Duration : 2 h 17 min
Bit rate : 36.5 kb/s
Count of elements : 3130
Stream size : 35.8 MiB (0%)
Language : Malay
Default : No
Forced : No

Menu
00:00:00.000 : :00:00:00.000
00:06:33.143 : :00:06:33.143
00:13:07.787 : :00:13:07.787
00:20:20.928 : :00:20:20.928
00:26:35.636 : :00:26:35.636
00:34:54.801 : :00:34:54.801
00:41:23.523 : :00:41:23.523
00:48:29.573 : :00:48:29.573
00:55:17.898 : :00:55:17.898
01:04:02.672 : :01:04:02.672
01:10:05.410 : :01:10:05.410
01:16:54.401 : :01:16:54.401
01:23:05.731 : :01:23:05.731
01:31:37.742 : :01:31:37.742
01:37:29.719 : :01:37:29.719
01:45:39.083 : :01:45:39.083
01:52:29.785 : :01:52:29.785
01:57:39.970 : :01:57:39.970
02:03:50.923 : :02:03:50.923
02:10:30.990 : :02:10:30.990
movie BDRip Video
ID : 1
Format : HEVC
Format/Info : High Efficiency Video Coding
Commercial name : HDR10
Format profile : Main 10@L5.1@High
Codec ID : V_MPEGH/ISO/HEVC
Duration : 2 h 18 min
Bit rate : 25.2 Mb/s
Width : 3 840 pixels
Height : 1 634 pixels
Display aspect ratio : 2.35:1
Frame rate mode : Constant
Frame rate : 23.976 (24000/1001) FPS
Color space : YUV
Chroma subsampling : 4:2:0 (Type 2)
Bit depth : 10 bits
Bits/(Pixel*Frame) : 0.168
Stream size : 24.3 GiB (84%)
Writing library : x265 2.8+58-d17bc7714ed2:[Windows][GCC 8.2.0][64 bit] 10bit
Encoding settings : cpuid=1176575 / frame-threads=5 / numa-pools=36 / wpp / no-pmode / no-pme / no-psnr / no-ssim / log-level=2 / input-csp=1 / input-res=3840x1634 / interlace=0 / total-frames=198636 / level-idc=51 / high-tier=1 / uhd-bd=0 / ref=4 / no-allow-non-conformance / repeat-headers / annexb / aud / hrd / info / hash=0 / no-temporal-layers / no-open-gop / min-keyint=24 / keyint=240 / gop-lookahead=0 / bframes=4 / b-adapt=2 / b-pyramid / bframe-bias=0 / rc-lookahead=25 / lookahead-slices=4 / scenecut=40 / radl=0 / no-intra-refresh / ctu=64 / min-cu-size=8 / rect / no-amp / max-tu-size=32 / tu-inter-depth=1 / tu-intra-depth=1 / limit-tu=0 / rdoq-level=2 / dynamic-rd=0.00 / no-ssim-rd / signhide / no-tskip / nr-intra=0 / nr-inter=0 / no-constrained-intra / no-strong-intra-smoothing / max-merge=3 / limit-refs=3 / limit-modes / me=3 / subme=3 / merange=57 / temporal-mvp / weightp / no-weightb / no-analyze-src-pics / deblock=-3:-3 / no-sao / no-sao-non-deblock / rd=4 / no-early-skip / rskip / no-fast-intra / no-tskip-fast / no-cu-lossless / no-b-intra / no-splitrd-skip / rdpenalty=0 / psy-rd=2.00 / psy-rdoq=1.00 / no-rd-refine / no-lossless / cbqpoffs=0 / crqpoffs=0 / rc=crf / crf=17.0 / qcomp=0.60 / qpstep=4 / stats-write=0 / stats-read=0 / vbv-maxrate=160000 / vbv-bufsize=160000 / vbv-init=0.9 / crf-max=0.0 / crf-min=0.0 / ipratio=1.40 / pbratio=1.30 / aq-mode=1 / aq-strength=1.00 / cutree / zone-count=0 / no-strict-cbr / qg-size=32 / no-rc-grain / qpmax=69 / qpmin=0 / no-const-vbv / sar=1 / overscan=0 / videoformat=5 / range=0 / colorprim=9 / transfer=16 / colormatrix=9 / chromaloc=1 / chromaloc-top=2 / chromaloc-bottom=2 / display-window=0 / master-display=G(13250,34500)B(7500,3000)R(34000,16000)WP(15635,16450)L(10000000,1) / max-cll=0,0 / min-luma=0 / max-luma=1023 / log2-max-poc-lsb=8 / vui-timing-info / vui-hrd-info / slices=1 / no-opt-qp-pps / no-opt-ref-list-length-pps / no-multi-pass-opt-rps / scenecut-bias=0.05 / no-opt-cu-delta-qp / no-aq-motion / hdr / hdr-opt / no-dhdr10-opt / no-idr-recovery-sei / analysis-reuse-level=5 / scale-factor=0 / refine-intra=0 / refine-inter=0 / refine-mv=0 / no-limit-sao / ctu-info=0 / no-lowpass-dct / refine-mv-type=0 / copy-pic=1 / max-ausize-factor=1.0 / no-dynamic-refine / no-single-sei
Default : Yes
Forced : No
Color range : Limited
Color primaries : BT.2020
Transfer characteristics : PQ
Matrix coefficients : BT.2020 non-constant
Mastering display color primaries : Display P3
Mastering display luminance : min: 0.0001 cd/m2, max: 1000 cd/m2

Audio
ID : 2
Format : DTS XLL
Format/Info : Digital Theater Systems
Commercial name : DTS-HD Master Audio
Codec ID : A_DTS
Duration : 2 h 18 min
Bit rate mode : Variable
Bit rate : 4 725 kb/s
Channel(s) : 6 channels
Channel layout : C L R Ls Rs LFE
Sampling rate : 48.0 kHz
Frame rate : 93.750 FPS (512 SPF)
Bit depth : 24 bits
Compression mode : Lossless
Stream size : 4.56 GiB (16%)
Title : DTS-HD MA 5.1
Language : English
Default : Yes
Forced : No

Text #1
ID : 3
Format : UTF-8
Codec ID : S_TEXT/UTF8
Codec ID/Info : UTF-8 Plain Text
Duration : 2 h 8 min
Bit rate : 59 b/s
Count of elements : 1572
Stream size : 55.6 KiB (0%)
Title : Stripped SRT
Language : English
Default : No
Forced : No

Text #2
ID : 4
Format : UTF-8
Codec ID : S_TEXT/UTF8
Codec ID/Info : UTF-8 Plain Text
Duration : 2 h 8 min
Bit rate : 58 b/s
Count of elements : 1557
Stream size : 55.3 KiB (0%)
Title : Full SRT
Language : English
Default : No
Forced : No

Text #3
ID : 5
Format : PGS
Muxing mode : zlib
Codec ID : S_HDMV/PGS
Codec ID/Info : Picture based subtitle format used on BDs/HD-DVDs
Duration : 2 h 8 min
Bit rate : 35.6 kb/s
Count of elements : 3114
Stream size : 32.7 MiB (0%)
Title : Full
Language : English
Default : No
Forced : No

Text #4
ID : 6
Format : UTF-8
Codec ID : S_TEXT/UTF8
Codec ID/Info : UTF-8 Plain Text
Duration : 2 h 8 min
Bit rate : 61 b/s
Count of elements : 1661
Stream size : 58.2 KiB (0%)
Title : SDH SRT
Language : English
Default : No
Forced : No

Text #5
ID : 7
Format : PGS
Muxing mode : zlib
Codec ID : S_HDMV/PGS
Codec ID/Info : Picture based subtitle format used on BDs/HD-DVDs
Duration : 2 h 8 min
Bit rate : 37.9 kb/s
Count of elements : 3322
Stream size : 34.8 MiB (0%)
Title : SDH
Language : English
Default : No
Forced : No

Text #6
ID : 8
Format : PGS
Muxing mode : zlib
Codec ID : S_HDMV/PGS
Codec ID/Info : Picture based subtitle format used on BDs/HD-DVDs
Duration : 2 h 17 min
Bit rate : 26.2 kb/s
Count of elements : 3110
Stream size : 25.7 MiB (0%)
Language : French
Default : No
Forced : No

Text #7
ID : 9
Format : PGS
Muxing mode : zlib
Codec ID : S_HDMV/PGS
Codec ID/Info : Picture based subtitle format used on BDs/HD-DVDs
Duration : 2 h 9 min
Bit rate : 29.4 kb/s
Count of elements : 2896
Stream size : 27.2 MiB (0%)
Language : Spanish
Default : No
Forced : No

Text #8
ID : 10
Format : PGS
Muxing mode : zlib
Codec ID : S_HDMV/PGS
Codec ID/Info : Picture based subtitle format used on BDs/HD-DVDs
Duration : 2 h 9 min
Bit rate : 29.4 kb/s
Count of elements : 2892
Stream size : 27.2 MiB (0%)
Language : Portuguese
Default : No
Forced : No

Text #9
ID : 11
Format : PGS
Muxing mode : zlib
Codec ID : S_HDMV/PGS
Codec ID/Info : Picture based subtitle format used on BDs/HD-DVDs
Duration : 2 h 17 min
Bit rate : 30.3 kb/s
Count of elements : 2996
Stream size : 29.8 MiB (0%)
Language : Portuguese
Default : No
Forced : No

Text #10
ID : 12
Format : PGS
Muxing mode : zlib
Codec ID : S_HDMV/PGS
Codec ID/Info : Picture based subtitle format used on BDs/HD-DVDs
Duration : 2 h 17 min
Bit rate : 23.1 kb/s
Count of elements : 2600
Stream size : 22.7 MiB (0%)
Language : Dutch
Default : No
Forced : No

Text #11
ID : 13
Format : PGS
Muxing mode : zlib
Codec ID : S_HDMV/PGS
Codec ID/Info : Picture based subtitle format used on BDs/HD-DVDs
Duration : 2 h 16 min
Bit rate : 31.6 kb/s
Count of elements : 3128
Stream size : 31.0 MiB (0%)
Language : Swedish
Default : No
Forced : No

Text #12
ID : 14
Format : PGS
Muxing mode : zlib
Codec ID : S_HDMV/PGS
Codec ID/Info : Picture based subtitle format used on BDs/HD-DVDs
Duration : 2 h 16 min
Bit rate : 24.2 kb/s
Count of elements : 2792
Stream size : 23.7 MiB (0%)
Language : Norwegian
Default : No
Forced : No

Text #13
ID : 15
Format : PGS
Muxing mode : zlib
Codec ID : S_HDMV/PGS
Codec ID/Info : Picture based subtitle format used on BDs/HD-DVDs
Duration : 2 h 16 min
Bit rate : 28.3 kb/s
Count of elements : 2436
Stream size : 27.7 MiB (0%)
Language : Danish
Default : No
Forced : No

Text #14
ID : 16
Format : PGS
Muxing mode : zlib
Codec ID : S_HDMV/PGS
Codec ID/Info : Picture based subtitle format used on BDs/HD-DVDs
Duration : 2 h 16 min
Bit rate : 25.8 kb/s
Count of elements : 2758
Stream size : 25.2 MiB (0%)
Language : Finnish
Default : No
Forced : No

Text #15
ID : 17
Format : PGS
Muxing mode : zlib
Codec ID : S_HDMV/PGS
Codec ID/Info : Picture based subtitle format used on BDs/HD-DVDs
Duration : 2 h 17 min
Bit rate : 33.0 kb/s
Count of elements : 3130
Stream size : 32.4 MiB (0%)
Language : Icelandic
Default : No
Forced : No

Text #16
ID : 18
Format : PGS
Muxing mode : zlib
Codec ID : S_HDMV/PGS
Codec ID/Info : Picture based subtitle format used on BDs/HD-DVDs
Duration : 2 h 17 min
Bit rate : 25.6 kb/s
Count of elements : 2966
Stream size : 25.2 MiB (0%)
Language : Czech
Default : No
Forced : No

Text #17
ID : 19
Format : PGS
Muxing mode : zlib
Codec ID : S_HDMV/PGS
Codec ID/Info : Picture based subtitle format used on BDs/HD-DVDs
Duration : 2 h 17 min
Bit rate : 30.2 kb/s
Count of elements : 3132
Stream size : 29.7 MiB (0%)
Language : Polish
Default : No
Forced : No

Text #18
ID : 20
Format : PGS
Muxing mode : zlib
Codec ID : S_HDMV/PGS
Codec ID/Info : Picture based subtitle format used on BDs/HD-DVDs
Duration : 2 h 17 min
Bit rate : 31.2 kb/s
Count of elements : 3130
Stream size : 30.7 MiB (0%)
Language : Hungarian
Default : No
Forced : No

Text #19
ID : 21
Format : PGS
Muxing mode : zlib
Codec ID : S_HDMV/PGS
Codec ID/Info : Picture based subtitle format used on BDs/HD-DVDs
Duration : 2 h 16 min
Bit rate : 31.7 kb/s
Count of elements : 3132
Stream size : 31.1 MiB (0%)
Language : Slovak
Default : No
Forced : No

Text #20
ID : 22
Format : PGS
Muxing mode : zlib
Codec ID : S_HDMV/PGS
Codec ID/Info : Picture based subtitle format used on BDs/HD-DVDs
Duration : 2 h 17 min
Bit rate : 26.1 kb/s
Count of elements : 2500
Stream size : 25.6 MiB (0%)
Language : rom
Default : No
Forced : No

Text #21
ID : 23
Format : PGS
Muxing mode : zlib
Codec ID : S_HDMV/PGS
Codec ID/Info : Picture based subtitle format used on BDs/HD-DVDs
Duration : 2 h 17 min
Bit rate : 32.7 kb/s
Count of elements : 3100
Stream size : 32.2 MiB (0%)
Language : Greek
Default : No
Forced : No

Text #22
ID : 24
Format : PGS
Muxing mode : zlib
Codec ID : S_HDMV/PGS
Codec ID/Info : Picture based subtitle format used on BDs/HD-DVDs
Duration : 2 h 17 min
Bit rate : 32.4 kb/s
Count of elements : 3130
Stream size : 31.8 MiB (0%)
Language : Turkish
Default : No
Forced : No

Text #23
ID : 25
Format : PGS
Muxing mode : zlib
Codec ID : S_HDMV/PGS
Codec ID/Info : Picture based subtitle format used on BDs/HD-DVDs
Duration : 2 h 17 min
Bit rate : 14.3 kb/s
Count of elements : 3122
Stream size : 14.0 MiB (0%)
Language : Arabic
Default : No
Forced : No

Text #24
ID : 26
Format : PGS
Muxing mode : zlib
Codec ID : S_HDMV/PGS
Codec ID/Info : Picture based subtitle format used on BDs/HD-DVDs
Duration : 2 h 8 min
Bit rate : 24.4 kb/s
Count of elements : 2926
Stream size : 22.5 MiB (0%)
Language : Japanese
Default : No
Forced : No

Text #25
ID : 27
Format : PGS
Muxing mode : zlib
Codec ID : S_HDMV/PGS
Codec ID/Info : Picture based subtitle format used on BDs/HD-DVDs
Duration : 2 h 17 min
Bit rate : 25.1 kb/s
Count of elements : 3134
Stream size : 24.7 MiB (0%)
Language : Chinese
Default : No
Forced : No

Text #26
ID : 28
Format : PGS
Muxing mode : zlib
Codec ID : S_HDMV/PGS
Codec ID/Info : Picture based subtitle format used on BDs/HD-DVDs
Duration : 2 h 17 min
Bit rate : 22.6 kb/s
Count of elements : 3252
Stream size : 22.2 MiB (0%)
Language : Chinese
Default : No
Forced : No

Text #27
ID : 29
Format : PGS
Muxing mode : zlib
Codec ID : S_HDMV/PGS
Codec ID/Info : Picture based subtitle format used on BDs/HD-DVDs
Duration : 2 h 17 min
Bit rate : 16.7 kb/s
Count of elements : 2824
Stream size : 16.5 MiB (0%)
Language : Korean
Default : No
Forced : No

Text #28
ID : 30
Format : PGS
Muxing mode : zlib
Codec ID : S_HDMV/PGS
Codec ID/Info : Picture based subtitle format used on BDs/HD-DVDs
Duration : 2 h 17 min
Bit rate : 26.1 kb/s
Count of elements : 3134
Stream size : 25.7 MiB (0%)
Language : Thai
Default : No
Forced : No

Text #29
ID : 31
Format : PGS
Muxing mode : zlib
Codec ID : S_HDMV/PGS
Codec ID/Info : Picture based subtitle format used on BDs/HD-DVDs
Duration : 2 h 17 min
Bit rate : 66.6 kb/s
Count of elements : 4868
Stream size : 65.4 MiB (0%)
Language : Hindi
Default : No
Forced : No

Text #30
ID : 32
Format : PGS
Muxing mode : zlib
Codec ID : S_HDMV/PGS
Codec ID/Info : Picture based subtitle format used on BDs/HD-DVDs
Duration : 2 h 17 min
Bit rate : 36.5 kb/s
Count of elements : 3130
Stream size : 35.8 MiB (0%)
Language : Malay
Default : No
Forced : No

Menu
00:00:00.000 : :00:00:00.000
00:06:33.143 : :00:06:33.143
00:13:07.787 : :00:13:07.787
00:20:20.928 : :00:20:20.928
00:26:35.636 : :00:26:35.636
00:34:54.801 : :00:34:54.801
00:41:23.523 : :00:41:23.523
00:48:29.573 : :00:48:29.573
00:55:17.898 : :00:55:17.898
01:04:02.672 : :01:04:02.672
01:10:05.410 : :01:10:05.410
01:16:54.401 : :01:16:54.401
01:23:05.731 : :01:23:05.731
01:31:37.742 : :01:31:37.742
01:37:29.719 : :01:37:29.719
01:45:39.083 : :01:45:39.083
01:52:29.785 : :01:52:29.785
01:57:39.970 : :01:57:39.970
02:03:50.923 : :02:03:50.923
02:10:30.990 : :02:10:30.990

Download

download 4k hdr movies download 4k hdr movies

Watch a movie trailer - Shutter Island 4K 2010 Ultra HD 2160p
Comments and Feedback
Add your comment:
Your name:
Your E-Mail:
Code:
reload, if the code cannot be seen
Enter code: