Select movie Search movie Close search My Account

12 Strong 4K 2018 Ultra HD 2160p

12 Strong 4K 2018 Ultra HD 2160p
BDRemux / BDRip
Country: USA
Time: 2h 10min
IMDB: 6.6
Director: Nicolai Fuglsig
Actors: Chris Hemsworth, Michael Shannon, Michael Pe?a, Navid Negahban, Trevante Rhodes, Geoff Stults, Thad Luckinbill, Austin H?bert, Austin Stowell, Ben O'Toole, Kenneth Miller, Kenny Sheard, Jack Kesy, Rob Riggle, William Fichtner...

Story Movie

12 Strong 4K 2018 Ultra HD 2160p
A good heroic movie in 4K UHD. Film 12 Strong 4K 2018 for downloading in any 4K quality for you.
They were thrown into hell after September 11, when the world split into "before" and "after". It was they who were on the front line to fight the enemy who did not know mercy. On the foreign land the advantage of the horsemen - this was taught to them by unexpected allies. Together they will try to keep the world from plunging into chaos.

Review 4K Movie

Probably, it is not necessary to disassemble the truthfulness and honesty of this heroic epic. The fact that bin Laden - a friend of George W. Bush, and the tower blew up the CIA - knows every excellent student of the conspiracy theory. This movie is about something else - about meeting people of different cultures and their joint struggle against "evil". If there is no cavil, then a 12 Strong 4K good movie.

But how do we get used to the excellent, that in this film there comes up an unimaginable amount of cliches, stupidities and laziness of the creators. It seems to be beautiful views of nature, an interesting life of heroes, an effective war. But the whole impression is like from a Chinese toy. All the cloth is somehow torn, with burrs and an unpleasant smell of propaganda. The director as can, signs and allusions shows that he was captured and forced to do it. The main characters are generally deprived of attention, as if they here passed by and fought. Even the stuffy tie "drama on TV - righteous anger - everyday barracks - voynushka" does not cope with the task. The same "Monsters" fully use this method, but there turned out to be the strongest movie masterpiece, but here is some sort of pshik. A separate issue, as Michael Peña found himself in the ranks of the special forces, he even harps the Marine Corps in the belt. I think the rating of film search is the most for this kin.

But I personally am ready to forgive the film for everything! For trying to show a little bit of Afghanistan, and not just forever respawning the same type of terror.

Mediainfo

movie BDRemux Video
ID : 1
Format : HEVC
Format/Info : High Efficiency Video Coding
Commercial name : HDR10
Format profile : Main 10@L5.1@High
Codec ID : V_MPEGH/ISO/HEVC
Duration : 2 h 10 min
Bit rate : 46.7 Mb/s
Width : 3 840 pixels
Height : 2 160 pixels
Display aspect ratio : 16:9
Frame rate mode : Constant
Frame rate : 24.000 FPS
Color space : YUV
Chroma subsampling : 4:2:0 (Type 2)
Bit depth : 10 bits
Bits/(Pixel*Frame) : 0.235
Stream size : 42.6 GiB (89%)
Title : 12.Strong.2018.2160p.BluRay.REMUX.HEVC.DTS-HD.MA.7.1
Default : Yes
Forced : No
Color range : Limited
Color primaries : BT.2020
Transfer characteristics : PQ
Matrix coefficients : BT.2020 non-constant
Mastering display color primaries : Display P3
Mastering display luminance : min: 0.0050 cd/m2, max: 1000 cd/m2
Maximum Content Light Level : 764 cd/m2
Maximum Frame-Average Light Level : 374 cd/m2

Audio #1
ID : 2
Format : DTS
Format/Info : Digital Theater Systems
Format profile : MA / Core
Codec ID : A_DTS
Duration : 2 h 10 min
Bit rate mode : Variable / Constant
Bit rate : 2 855 kb/s / 1 509 kb/s
Channel(s) : 8 channels / 6 channels
Channel positions : Front: L C R, Side: L R, Back: L R, LFE / Front: L C R, Side: L R, LFE
Sampling rate : 48.0 kHz
Frame rate : 93.750 FPS (512 SPF)
Bit depth : 16 bits
Compression mode : Lossless / Lossy
Stream size : 2.61 GiB (5%)
Title : 12.Strong.2018.2160p.BluRay.REMUX.HEVC.DTS-HD.MA.7.1
Language : English
Default : Yes
Forced : No

Audio #2
ID : 3
Format : DTS
Format/Info : Digital Theater Systems
Format profile : MA / Core
Codec ID : A_DTS
Duration : 2 h 10 min
Bit rate mode : Variable / Constant
Bit rate : 2 853 kb/s / 1 509 kb/s
Channel(s) : 8 channels / 6 channels
Channel positions : Front: L C R, Side: L R, Back: L R, LFE / Front: L C R, Side: L R, LFE
Sampling rate : 48.0 kHz
Frame rate : 93.750 FPS (512 SPF)
Bit depth : 16 bits
Compression mode : Lossless / Lossy
Stream size : 2.60 GiB (5%)
Title : 12.Strong.2018.2160p.BluRay.REMUX.HEVC.DTS-HD.MA.7.1
Language : German
Default : No
Forced : No

Audio #3
ID : 4
Format : AC-3
Format/Info : Audio Coding 3
Codec ID : A_AC3
Duration : 2 h 10 min
Bit rate mode : Constant
Bit rate : 224 kb/s
Channel(s) : 2 channels
Channel positions : Front: L R
Sampling rate : 48.0 kHz
Frame rate : 31.250 FPS (1536 SPF)
Bit depth : 16 bits
Compression mode : Lossy
Stream size : 209 MiB (0%)
Title : 12.Strong.2018.2160p.BluRay.REMUX.HEVC.DTS-HD.MA.7.1
Language : German
Service kind : Complete Main
Default : No
Forced : No

Text #1
ID : 5
Format : PGS
Muxing mode : zlib
Codec ID : S_HDMV/PGS
Codec ID/Info : Picture based subtitle format used on BDs/HD-DVDs
Duration : 2 h 0 min
Bit rate : 2 431 b/s
Count of elements : 174
Stream size : 2.09 MiB (0%)
Title : English-PGS
Language : English
Default : Yes
Forced : No

Text #2
ID : 6
Format : PGS
Muxing mode : zlib
Codec ID : S_HDMV/PGS
Codec ID/Info : Picture based subtitle format used on BDs/HD-DVDs
Duration : 2 h 8 min
Bit rate : 35.3 kb/s
Count of elements : 2994
Stream size : 32.5 MiB (0%)
Title : German-PGS
Language : German
Default : No
Forced : No

Text #3
ID : 7
Format : PGS
Muxing mode : zlib
Codec ID : S_HDMV/PGS
Codec ID/Info : Picture based subtitle format used on BDs/HD-DVDs
Duration : 1 h 42 min
Bit rate : 1 111 b/s
Count of elements : 102
Stream size : 835 KiB (0%)
Title : German-FORCED-PGS
Language : German
Default : No
Forced : No

Menu
00:00:00.000 : en:Chapter 1
00:11:37.875 : en:Chapter 2
00:22:14.416 : en:Chapter 3
00:32:49.124 : en:Chapter 4
00:44:23.166 : en:Chapter 5
00:56:09.624 : en:Chapter 6
01:06:01.708 : en:Chapter 7
01:13:39.207 : en:Chapter 8
01:24:07.458 : en:Chapter 9
01:34:04.541 : en:Chapter 10
01:43:15.249 : en:Chapter 11
01:57:15.207 : en:Chapter 12
movie BDRip Video
ID : 1
Format : HEVC
Format/Info : High Efficiency Video Coding
Commercial name : HDR10
Format profile : Main 10@L5.1@High
Codec ID : V_MPEGH/ISO/HEVC
Duration : 2 h 10 min
Bit rate : 16.2 Mb/s
Width : 3 840 pixels
Height : 1 600 pixels
Display aspect ratio : 2.40:1
Frame rate mode : Constant
Frame rate : 24.000 FPS
Color space : YUV
Chroma subsampling : 4:2:0 (Type 2)
Bit depth : 10 bits
Bits/(Pixel*Frame) : 0.110
Stream size : 14.8 GiB (82%)
Title : 12.Strong.2018.2160p.BluRay.x265.10bit.HDR.DTS-HD.MA.7.1-SWTYBLZ
Writing library : x265 2.8+54-79c76e42cb28:[Windows][GCC 7.3.1][64 bit] 10bit
Encoding settings : cpuid=1111039 / frame-threads=16 / numa-pools=24,24,24,24 / wpp / no-pmode / no-pme / no-psnr / no-ssim / log-level=2 / input-csp=1 / input-res=3840x1600 / interlace=0 / total-frames=0 / level-idc=51 / high-tier=1 / uhd-bd=0 / ref=3 / no-allow-non-conformance / repeat-headers / annexb / aud / hrd / info / hash=0 / no-temporal-layers / no-open-gop / min-keyint=1 / keyint=24 / gop-lookahead=0 / bframes=4 / b-adapt=2 / b-pyramid / bframe-bias=0 / rc-lookahead=25 / lookahead-slices=4 / scenecut=40 / radl=0 / no-intra-refresh / ctu=64 / min-cu-size=8 / no-rect / no-amp / max-tu-size=32 / tu-inter-depth=1 / tu-intra-depth=1 / limit-tu=0 / rdoq-level=0 / dynamic-rd=0.00 / no-ssim-rd / signhide / no-tskip / nr-intra=0 / nr-inter=0 / no-constrained-intra / strong-intra-smoothing / max-merge=2 / limit-refs=3 / no-limit-modes / me=1 / subme=2 / merange=57 / temporal-mvp / weightp / no-weightb / no-analyze-src-pics / deblock=0:0 / no-sao / no-sao-non-deblock / rd=3 / no-early-skip / rskip / no-fast-intra / no-tskip-fast / no-cu-lossless / no-b-intra / no-splitrd-skip / rdpenalty=0 / psy-rd=2.00 / psy-rdoq=0.00 / no-rd-refine / no-lossless / cbqpoffs=0 / crqpoffs=0 / rc=crf / crf=16.0 / qcomp=0.60 / qpstep=4 / stats-write=0 / stats-read=0 / vbv-maxrate=160000 / vbv-bufsize=160000 / vbv-init=0.9 / crf-max=0.0 / crf-min=0.0 / ipratio=1.40 / pbratio=1.30 / aq-mode=1 / aq-strength=1.00 / cutree / zone-count=0 / no-strict-cbr / qg-size=32 / no-rc-grain / qpmax=69 / qpmin=0 / no-const-vbv / sar=1 / overscan=0 / videoformat=5 / range=0 / colorprim=9 / transfer=16 / colormatrix=9 / chromaloc=1 / chromaloc-top=2 / chromaloc-bottom=2 / display-window=0 / master-display=G(13250,34500)B(7500,3000)R(34000,16000)WP(15635,16450)L(10000000,50) / max-cll=764,374 / min-luma=0 / max-luma=1023 / log2-max-poc-lsb=8 / vui-timing-info / vui-hrd-info / slices=1 / opt-qp-pps / opt-ref-list-length-pps / no-multi-pass-opt-rps / scenecut-bias=0.05 / no-opt-cu-delta-qp / no-aq-motion / hdr / hdr-opt / no-dhdr10-opt / no-idr-recovery-sei / analysis-reuse-level=5 / scale-factor=0 / refine-intra=0 / refine-inter=0 / refine-mv=0 / no-limit-sao / ctu-info=0 / no-lowpass-dct / refine-mv-type=0 / copy-pic=1 / max-ausize-factor=1.0 / no-dynamic-refine / no-single-sei
Default : Yes
Forced : No
Color range : Limited
Color primaries : BT.2020
Transfer characteristics : PQ
Matrix coefficients : BT.2020 non-constant
Mastering display color primaries : Display P3
Mastering display luminance : min: 0.0050 cd/m2, max: 1000 cd/m2
Maximum Content Light Level : 764 cd/m2
Maximum Frame-Average Light Level : 374 cd/m2

Audio #1
ID : 2
Format : DTS
Format/Info : Digital Theater Systems
Format profile : MA / Core
Codec ID : A_DTS
Duration : 2 h 10 min
Bit rate mode : Variable / Constant
Bit rate : 2 855 kb/s / 1 509 kb/s
Channel(s) : 8 channels / 6 channels
Channel positions : Front: L C R, Side: L R, Back: L R, LFE / Front: L C R, Side: L R, LFE
Sampling rate : 48.0 kHz
Frame rate : 93.750 FPS (512 SPF)
Bit depth : 16 bits
Compression mode : Lossless / Lossy
Stream size : 2.61 GiB (14%)
Title : 12.Strong.2018.2160p.BluRay.x265.10bit.HDR.DTS-HD.MA.7.1-SWTYBLZ
Language : English
Default : Yes
Forced : No

Audio #2
ID : 3
Format : AC-3
Format/Info : Audio Coding 3
Codec ID : A_AC3
Duration : 2 h 10 min
Bit rate mode : Constant
Bit rate : 640 kb/s
Channel(s) : 6 channels
Channel positions : Front: L C R, Side: L R, LFE
Sampling rate : 48.0 kHz
Frame rate : 31.250 FPS (1536 SPF)
Bit depth : 16 bits
Compression mode : Lossy
Stream size : 598 MiB (3%)
Title : 12.Strong.2018.2160p.BluRay.x265.10bit.HDR.DTS-HD.MA.7.1-SWTYBLZ
Language : English
Service kind : Complete Main
Default : No
Forced : No

Text #1
ID : 4
Format : UTF-8
Codec ID : S_TEXT/UTF8
Codec ID/Info : UTF-8 Plain Text
Duration : 2 h 0 min
Bit rate : 3 b/s
Count of elements : 87
Stream size : 2.97 KiB (0%)
Title : English-FORCED-SRT
Language : English
Default : No
Forced : Yes

Text #2
ID : 5
Format : UTF-8
Codec ID : S_TEXT/UTF8
Codec ID/Info : UTF-8 Plain Text
Duration : 1 h 58 min
Bit rate : 57 b/s
Count of elements : 1552
Stream size : 50.4 KiB (0%)
Title : English-SRT
Language : English
Default : No
Forced : No

Text #3
ID : 6
Format : PGS
Muxing mode : zlib
Codec ID : S_HDMV/PGS
Codec ID/Info : Picture based subtitle format used on BDs/HD-DVDs
Duration : 2 h 0 min
Bit rate : 2 431 b/s
Count of elements : 174
Stream size : 2.09 MiB (0%)
Title : English-PGS
Language : English
Default : Yes
Forced : No

Text #4
ID : 7
Format : PGS
Muxing mode : zlib
Codec ID : S_HDMV/PGS
Codec ID/Info : Picture based subtitle format used on BDs/HD-DVDs
Duration : 2 h 8 min
Bit rate : 35.3 kb/s
Count of elements : 2994
Stream size : 32.5 MiB (0%)
Title : German-PGS
Language : German
Default : No
Forced : No

Menu
00:00:00.000 : en:Chapter 1
00:11:37.875 : en:Chapter 2
00:22:14.416 : en:Chapter 3
00:32:49.124 : en:Chapter 4
00:44:23.166 : en:Chapter 5
00:56:09.624 : en:Chapter 6
01:06:01.708 : en:Chapter 7
01:13:39.207 : en:Chapter 8
01:24:07.458 : en:Chapter 9
01:34:04.541 : en:Chapter 10
01:43:15.249 : en:Chapter 11
01:57:15.207 : en:Chapter 12

Download

download 4k hdr movies download 4k hdr movies

Watch a movie trailer - 12 Strong 4K 2018 Ultra HD 2160p
Comments and Feedback
Add your comment:
Your name:
Your E-Mail:
Enter the two words shown in the image: *