Select movie Search movie Close search My Account

The Avengers 4K 2012 Ultra HD 2160p

The Avengers 4K 2012 Ultra HD 2160p
BDRemux / BDRip
Country: USA
Time: 2h 23min
IMDB: 8.1
Director: Joss Whedon
Actors: Robert Downey Jr., Chris Evans, Scarlett Johansson, Chris Hemsworth, Mark Ruffalo, Jeremy Renner, Tom Hiddleston, Clark Gregg, Cobie Smulders, Stellan Skarsgrd, Samuel L. Jackson, Gwyneth Paltrow, Paul Bettany, Alexis Denisof, Tina Benko...

Story Movie

The Avengers 4K 2012 Ultra HD 2160p
The Avengers 2012 movie in 4K Ultra HD 2160p can be downloaded on the site. The film in the digital version is one-on-one as on a Blu-ray disc - REMUX in one word. Excellent picture HEVC and sound DTS TrueHD. Who looked at this part of 4k, I invite you to view the next Avengers: Age of Ultron 4K 2015.

Review 4K Movie

The Avengers, this film ultra hd was one of the most anticipated films of 2012, not only for me, but for many more Marvel fans. The highlight of the film is that in the film, the collection of super heroes, each has its own abilities and qualities. This film is one of the best movies Marvel, well, until 2012 (I believe).

It was May 3, the day of the premiere, (I would have gone earlier, but we do not have IMAX because the city is small) the session was at 15:20, I was at school, but I was lucky and we had 4 lessons per place 6, so I had time on the session. In the cinema came 1 hour before the session, patience was not anxious to quickly get into the huge hall, with the dimmed light and a huge screen. You go in the hall, you dress up your glasses, you sit down and it begins ...

The film begins and the beginning is very good. Before us are 6 heroes, all have different lives and different abilities. Captain America, Iron Man 4K, Thor 4K, Hulk, Hawkeye and Black Widow, here they are the heroes who present the film to us. Each character has its own meaning in the film and for each in it has its place. For example, Falcon Eye, whose character has never been in the movie of the same name, I mean even for example as Natasha Romanoff in Iron Man 2, in the film he was very distinguished and with his bow and arrows he looked very cool, and I think he was a little different from others

The plot was very pleased, so twisted and fantastic that there are simply no words. The film combines several stories in which each of the characters has its own, I liked it because they were able to give time to each of the secondary characters and neokom not forgotten. All the characters are colorful and everyone memorizes their signs and not only. At one point it seems that the whole end to someone well, no, there will come any of the heroes and help another, I like this organization in the team even though it did not come right away. It's easier to say the story I liked and even very much.

Also it is impossible not to notice the game of actors, especially Mark Rufalo and Robert Downey Ml. Mark Rufalo tries for the first time in such a role (Hulk) and honestly say this role he succeeded in all of his 100 Hulk this, that something, it was not easy Bruce Banner, and as if he was and the Hulk at the same time it's hard to understand , well of course it was just a cool Hulk which I really liked especially with humor and courage.

Robert Downey Jr. also greatly distinguished himself in the film, and also with the humor of his jokes is his integral part of the image of Tony Stark who is very confident in himself.

So the film 4K Avengers really liked me and the impressions that I received from this film can not be conveyed, I will only say that everyone who has not seen this film should definitely watch it and get a lot of impressions.

Mediainfo

movie BDRemux Video
ID : 1
Format : HEVC
Format/Info : High Efficiency Video Coding
Commercial name : HDR10
Format profile : Main 10@L5.1@High
Codec ID : V_MPEGH/ISO/HEVC
Duration : 2 h 22 min
Bit rate : 43.0 Mb/s
Width : 3 840 pixels
Height : 2 160 pixels
Display aspect ratio : 16:9
Frame rate mode : Constant
Frame rate : 23.976 (24000/1001) FPS
Color space : YUV
Chroma subsampling : 4:2:0 (Type 2)
Bit depth : 10 bits
Bits/(Pixel*Frame) : 0.216
Stream size : 42.9 GiB (77%)
Title : The.Avengers.2012.2160p.BluRay.REMUX.HEVC.DTS-HD.MA.TrueHD.7.1.Atmos
Default : Yes
Forced : No
Color range : Limited
Color primaries : BT.2020
Transfer characteristics : PQ
Matrix coefficients : BT.2020 non-constant
Mastering display color primaries : Display P3
Mastering display luminance : min: 0.0001 cd/m2, max: 1000 cd/m2

Audio #1
ID : 2
Format : TrueHD
Format profile : TrueHD+Atmos / TrueHD
Codec ID : A_TRUEHD
Duration : 2 h 22 min
Bit rate mode : Variable
Bit rate : 4 971 kb/s
Maximum bit rate : 7 056 kb/s
Channel(s) : Object Based / 8 channels
Channel positions : Object Based / Front: L C R, Side: L R, Back: L R, LFE
Sampling rate : / 48.0 kHz
Frame rate : 1 200.000 FPS (40 SPF)
Compression mode : Lossless
Stream size : 4.96 GiB (9%)
Title : The.Avengers.2012.2160p.BluRay.REMUX.HEVC.DTS-HD.MA.TrueHD.7.1.Atmos
Language : English
Default : Yes
Forced : No

Audio #2
ID : 3
Format : DTS
Format/Info : Digital Theater Systems
Format profile : MA / Core
Codec ID : A_DTS
Duration : 2 h 22 min
Bit rate mode : Variable / Constant
Bit rate : 4 168 kb/s / 1 509 kb/s
Channel(s) : 8 channels / 6 channels
Channel positions : Front: L C R, Side: L R, Back: L R, LFE / Front: L C R, Side: L R, LFE
Sampling rate : 48.0 kHz
Frame rate : 93.750 FPS (512 SPF)
Bit depth : 24 bits
Compression mode : Lossless / Lossy
Stream size : 4.16 GiB (7%)
Title : The.Avengers.2012.2160p.BluRay.REMUX.HEVC.DTS-HD.MA.TrueHD.7.1.Atmos
Language : English
Default : No
Forced : No

Audio #3
ID : 4
Format : AC-3
Format/Info : Audio Coding 3
Codec ID : A_AC3
Duration : 2 h 22 min
Bit rate mode : Constant
Bit rate : 640 kb/s
Channel(s) : 6 channels
Channel positions : Front: L C R, Side: L R, LFE
Sampling rate : 48.0 kHz
Frame rate : 31.250 FPS (1536 SPF)
Bit depth : 16 bits
Compression mode : Lossy
Stream size : 654 MiB (1%)
Title : The.Avengers.2012.2160p.BluRay.REMUX.HEVC.DTS-HD.MA.TrueHD.7.1.Atmos
Language : English
Service kind : Complete Main
Default : No
Forced : No

Audio #4
ID : 5
Format : AC-3
Format/Info : Audio Coding 3
Codec ID : A_AC3
Duration : 2 h 22 min
Bit rate mode : Constant
Bit rate : 320 kb/s
Channel(s) : 2 channels
Channel positions : Front: L R
Sampling rate : 48.0 kHz
Frame rate : 31.250 FPS (1536 SPF)
Bit depth : 16 bits
Compression mode : Lossy
Stream size : 327 MiB (1%)
Title : The.Avengers.2012.2160p.BluRay.REMUX.HEVC.DTS-HD.MA.TrueHD.7.1.Atmos
Language : English
Service kind : Complete Main
Default : No
Forced : No

Audio #5
ID : 6
Format : AC-3
Format/Info : Audio Coding 3
Codec ID : A_AC3
Duration : 2 h 22 min
Bit rate mode : Constant
Bit rate : 640 kb/s
Channel(s) : 6 channels
Channel positions : Front: L C R, Side: L R, LFE
Sampling rate : 48.0 kHz
Frame rate : 31.250 FPS (1536 SPF)
Bit depth : 16 bits
Compression mode : Lossy
Stream size : 654 MiB (1%)
Title : The.Avengers.2012.2160p.BluRay.REMUX.HEVC.DTS-HD.MA.TrueHD.7.1.Atmos
Language : French
Service kind : Complete Main
Default : No
Forced : No

Audio #6
ID : 7
Format : E-AC-3
Format/Info : Enhanced Audio Coding 3
Codec ID : A_EAC3
Duration : 2 h 22 min
Bit rate mode : Constant
Bit rate : 500 b/s
Channel(s) : 8 channels
Channel(s)_Original : 6 channels
Channel positions : Front: L C R, Side: L R, LFE
Sampling rate : 48.0 kHz
Frame rate : 187.500 FPS (256 SPF)
Compression mode : Lossy
Stream size : 1.02 GiB (2%)
Title : The.Avengers.2012.2160p.BluRay.REMUX.HEVC.DTS-HD.MA.TrueHD.7.1.Atmos
Language : Spanish
Service kind : Complete Main
Default : No
Forced : No

Audio #7
ID : 8
Format : E-AC-3
Format/Info : Enhanced Audio Coding 3
Codec ID : A_EAC3
Duration : 2 h 22 min
Bit rate mode : Constant
Bit rate : 500 b/s
Channel(s) : 8 channels
Channel(s)_Original : 6 channels
Channel positions : Front: L C R, Side: L R, LFE
Sampling rate : 48.0 kHz
Frame rate : 187.500 FPS (256 SPF)
Compression mode : Lossy
Stream size : 1.02 GiB (2%)
Title : The.Avengers.2012.2160p.BluRay.REMUX.HEVC.DTS-HD.MA.TrueHD.7.1.Atmos
Language : Japanese
Service kind : Complete Main
Default : No
Forced : No

Text #1
ID : 9
Format : PGS
Muxing mode : zlib
Codec ID : S_HDMV/PGS
Codec ID/Info : Picture based subtitle format used on BDs/HD-DVDs
Duration : 2 h 15 min
Bit rate : 38.5 kb/s
Count of elements : 4086
Stream size : 37.3 MiB (0%)
Title : English-PGS
Language : English
Default : Yes
Forced : No

Text #2
ID : 10
Format : PGS
Muxing mode : zlib
Codec ID : S_HDMV/PGS
Codec ID/Info : Picture based subtitle format used on BDs/HD-DVDs
Duration : 2 h 15 min
Bit rate : 35.6 kb/s
Count of elements : 3524
Stream size : 34.5 MiB (0%)
Title : French-PGS
Language : French
Default : No
Forced : No

Text #3
ID : 11
Format : PGS
Muxing mode : zlib
Codec ID : S_HDMV/PGS
Codec ID/Info : Picture based subtitle format used on BDs/HD-DVDs
Duration : 2 h 15 min
Bit rate : 30.0 kb/s
Count of elements : 3268
Stream size : 29.1 MiB (0%)
Title : Spanish-PGS
Language : Spanish
Default : No
Forced : No

Text #4
ID : 12
Format : PGS
Muxing mode : zlib
Codec ID : S_HDMV/PGS
Codec ID/Info : Picture based subtitle format used on BDs/HD-DVDs
Duration : 2 h 15 min
Bit rate : 24.9 kb/s
Count of elements : 3136
Stream size : 24.1 MiB (0%)
Title : Japanese-PGS
Language : Japanese
Default : No
Forced : No

Text #5
ID : 13
Format : PGS
Muxing mode : zlib
Codec ID : S_HDMV/PGS
Codec ID/Info : Picture based subtitle format used on BDs/HD-DVDs
Duration : 2 h 15 min
Bit rate : 20.7 kb/s
Count of elements : 3290
Stream size : 20.0 MiB (0%)
Title : Chinese-PGS
Language : Chinese
Default : No
Forced : No

Text #6
ID : 14
Format : PGS
Muxing mode : zlib
Codec ID : S_HDMV/PGS
Codec ID/Info : Picture based subtitle format used on BDs/HD-DVDs
Duration : 2 h 15 min
Bit rate : 16.1 kb/s
Count of elements : 3264
Stream size : 15.6 MiB (0%)
Title : Korean-PGS
Language : Korean
Default : No
Forced : No

Text #7
ID : 15
Format : PGS
Muxing mode : zlib
Codec ID : S_HDMV/PGS
Codec ID/Info : Picture based subtitle format used on BDs/HD-DVDs
Duration : 2 h 15 min
Bit rate : 23.8 kb/s
Count of elements : 3286
Stream size : 23.0 MiB (0%)
Title : Chinese-PGS
Language : Chinese
Default : No
Forced : No

Text #8
ID : 16
Format : PGS
Muxing mode : zlib
Codec ID : S_HDMV/PGS
Codec ID/Info : Picture based subtitle format used on BDs/HD-DVDs
Duration : 3 min 46 s
Bit rate : 16.7 kb/s
Count of elements : 62
Stream size : 462 KiB (0%)
Title : English-FORCED-PGS
Language : English
Default : No
Forced : No

Text #9
ID : 17
Format : PGS
Muxing mode : zlib
Codec ID : S_HDMV/PGS
Codec ID/Info : Picture based subtitle format used on BDs/HD-DVDs
Duration : 1 h 54 min
Bit rate : 853 b/s
Count of elements : 80
Stream size : 714 KiB (0%)
Title : French-FORCED-PGS
Language : French
Default : No
Forced : No

Text #10
ID : 18
Format : PGS
Muxing mode : zlib
Codec ID : S_HDMV/PGS
Codec ID/Info : Picture based subtitle format used on BDs/HD-DVDs
Duration : 2 h 4 min
Bit rate : 705 b/s
Count of elements : 78
Stream size : 645 KiB (0%)
Title : Spanish-FORCED-PGS
Language : Spanish
Default : No
Forced : No

Text #11
ID : 19
Format : PGS
Muxing mode : zlib
Codec ID : S_HDMV/PGS
Codec ID/Info : Picture based subtitle format used on BDs/HD-DVDs
Duration : 53 min 55 s
Bit rate : 1 309 b/s
Count of elements : 62
Stream size : 517 KiB (0%)
Title : Japanese-FORCED-PGS
Language : Japanese
Default : No
Forced : No

Menu
00:00:00.000 : en:Chapter 1
00:08:03.149 : en:Chapter 2
00:11:50.000 : en:Chapter 3
00:15:19.585 : en:Chapter 4
00:20:34.316 : en:Chapter 5
00:23:05.092 : en:Chapter 6
00:29:40.278 : en:Chapter 7
00:37:24.825 : en:Chapter 8
00:42:48.816 : en:Chapter 9
00:50:23.103 : en:Chapter 10
01:01:05.495 : en:Chapter 11
01:14:05.941 : en:Chapter 12
01:28:02.068 : en:Chapter 13
01:38:21.395 : en:Chapter 14
01:45:41.001 : en:Chapter 15
01:51:15.919 : en:Chapter 16
01:57:48.603 : en:Chapter 17
02:04:39.513 : en:Chapter 18
02:09:40.230 : en:Chapter 19
02:13:11.525 : en:Chapter 20
movie BDRip Video
ID : 1
Format : HEVC
Format/Info : High Efficiency Video Coding
Commercial name : HDR10
Format profile : Main 10@L5.1@High
Codec ID : V_MPEGH/ISO/HEVC
Duration : 2 h 22 min
Bit rate : 11.1 Mb/s
Width : 3 840 pixels
Height : 2 076 pixels
Display aspect ratio : 1.85:1
Frame rate mode : Constant
Frame rate : 23.976 (24000/1001) FPS
Color space : YUV
Chroma subsampling : 4:2:0 (Type 2)
Bit depth : 10 bits
Bits/(Pixel*Frame) : 0.058
Stream size : 11.1 GiB (66%)
Writing library : x265 2.8+10-703eade86b53:[Windows][MSVC 1914][64 bit] 10bit
Encoding settings : cpuid=1111039 / frame-threads=6 / numa-pools=36 / wpp / no-pmode / no-pme / no-psnr / no-ssim / log-level=2 / input-csp=1 / input-res=3840x2076 / interlace=0 / total-frames=205611 / level-idc=51 / high-tier=1 / uhd-bd=0 / ref=4 / no-allow-non-conformance / repeat-headers / annexb / aud / hrd / info / hash=0 / no-temporal-layers / no-open-gop / min-keyint=1 / keyint=24 / gop-lookahead=0 / bframes=4 / b-adapt=2 / b-pyramid / bframe-bias=0 / rc-lookahead=25 / lookahead-slices=4 / scenecut=40 / radl=0 / no-intra-refresh / ctu=64 / min-cu-size=8 / rect / no-amp / max-tu-size=32 / tu-inter-depth=1 / tu-intra-depth=1 / limit-tu=0 / rdoq-level=2 / dynamic-rd=0.00 / no-ssim-rd / signhide / no-tskip / nr-intra=0 / nr-inter=0 / no-constrained-intra / no-strong-intra-smoothing / max-merge=3 / limit-refs=3 / limit-modes / me=3 / subme=3 / merange=57 / temporal-mvp / weightp / no-weightb / no-analyze-src-pics / deblock=-3:-3 / no-sao / no-sao-non-deblock / rd=4 / no-early-skip / rskip / no-fast-intra / no-tskip-fast / no-cu-lossless / no-b-intra / no-splitrd-skip / rdpenalty=0 / psy-rd=2.00 / psy-rdoq=1.00 / no-rd-refine / no-lossless / cbqpoffs=0 / crqpoffs=0 / rc=crf / crf=17.0 / qcomp=0.60 / qpstep=4 / stats-write=0 / stats-read=0 / vbv-maxrate=160000 / vbv-bufsize=160000 / vbv-init=0.9 / crf-max=0.0 / crf-min=0.0 / ipratio=1.40 / pbratio=1.30 / aq-mode=1 / aq-strength=1.00 / cutree / zone-count=0 / no-strict-cbr / qg-size=32 / no-rc-grain / qpmax=69 / qpmin=0 / no-const-vbv / sar=1 / overscan=0 / videoformat=5 / range=0 / colorprim=9 / transfer=16 / colormatrix=9 / chromaloc=1 / chromaloc-top=2 / chromaloc-bottom=2 / display-window=0 / master-display=G(13250,34500)B(7500,3000)R(34000,16000)WP(15635,16450)L(10000000,1) / max-cll=0,0 / min-luma=0 / max-luma=1023 / log2-max-poc-lsb=8 / vui-timing-info / vui-hrd-info / slices=1 / no-opt-qp-pps / no-opt-ref-list-length-pps / no-multi-pass-opt-rps / scenecut-bias=0.05 / no-opt-cu-delta-qp / no-aq-motion / hdr / hdr-opt / no-dhdr10-opt / no-idr-recovery-sei / analysis-reuse-level=5 / scale-factor=0 / refine-intra=0 / refine-inter=0 / refine-mv=0 / no-limit-sao / ctu-info=0 / no-lowpass-dct / refine-mv-type=0 / copy-pic=1 / max-ausize-factor=1.0 / no-dynamic-refine / no-single-sei
Default : Yes
Forced : No
Color range : Limited
Color primaries : BT.2020
Transfer characteristics : PQ
Matrix coefficients : BT.2020 non-constant
Mastering display color primaries : Display P3
Mastering display luminance : min: 0.0001 cd/m2, max: 1000 cd/m2

Audio #1
ID : 2
Format : TrueHD
Format profile : TrueHD+Atmos / TrueHD
Codec ID : A_TRUEHD
Duration : 2 h 22 min
Bit rate mode : Variable
Bit rate : 4 971 kb/s
Maximum bit rate : 7 056 kb/s
Channel(s) : Object Based / 8 channels
Channel positions : Object Based / Front: L C R, Side: L R, Back: L R, LFE
Sampling rate : / 48.0 kHz
Frame rate : 1 200.000 FPS (40 SPF)
Compression mode : Lossless
Stream size : 4.96 GiB (29%)
Language : English
Default : Yes
Forced : No

Audio #2
ID : 3
Format : AC-3
Format/Info : Audio Coding 3
Codec ID : A_AC3
Duration : 2 h 22 min
Bit rate mode : Constant
Bit rate : 640 kb/s
Channel(s) : 6 channels
Channel positions : Front: L C R, Side: L R, LFE
Sampling rate : 48.0 kHz
Frame rate : 31.250 FPS (1536 SPF)
Bit depth : 16 bits
Compression mode : Lossy
Stream size : 654 MiB (4%)
Language : English
Service kind : Complete Main
Default : No
Forced : No

Text #1
ID : 4
Format : PGS
Muxing mode : zlib
Codec ID : S_HDMV/PGS
Codec ID/Info : Picture based subtitle format used on BDs/HD-DVDs
Duration : 2 h 15 min
Bit rate : 38.5 kb/s
Count of elements : 4086
Stream size : 37.3 MiB (0%)
Language : English
Default : No
Forced : No

Text #2
ID : 5
Format : PGS
Muxing mode : zlib
Codec ID : S_HDMV/PGS
Codec ID/Info : Picture based subtitle format used on BDs/HD-DVDs
Duration : 3 min 46 s
Bit rate : 16.7 kb/s
Count of elements : 62
Stream size : 462 KiB (0%)
Title : English Forced
Language : English
Default : Yes
Forced : No

Text #3
ID : 6
Format : PGS
Muxing mode : zlib
Codec ID : S_HDMV/PGS
Codec ID/Info : Picture based subtitle format used on BDs/HD-DVDs
Duration : 2 h 15 min
Bit rate : 35.6 kb/s
Count of elements : 3524
Stream size : 34.5 MiB (0%)
Language : French
Default : No
Forced : No

Text #4
ID : 7
Format : PGS
Muxing mode : zlib
Codec ID : S_HDMV/PGS
Codec ID/Info : Picture based subtitle format used on BDs/HD-DVDs
Duration : 1 h 54 min
Bit rate : 853 b/s
Count of elements : 80
Stream size : 714 KiB (0%)
Language : French
Default : No
Forced : No

Text #5
ID : 8
Format : PGS
Muxing mode : zlib
Codec ID : S_HDMV/PGS
Codec ID/Info : Picture based subtitle format used on BDs/HD-DVDs
Duration : 2 h 15 min
Bit rate : 30.0 kb/s
Count of elements : 3268
Stream size : 29.1 MiB (0%)
Language : Spanish
Default : No
Forced : No

Text #6
ID : 9
Format : PGS
Muxing mode : zlib
Codec ID : S_HDMV/PGS
Codec ID/Info : Picture based subtitle format used on BDs/HD-DVDs
Duration : 2 h 4 min
Bit rate : 705 b/s
Count of elements : 78
Stream size : 645 KiB (0%)
Language : Spanish
Default : No
Forced : No

Text #7
ID : 10
Format : PGS
Muxing mode : zlib
Codec ID : S_HDMV/PGS
Codec ID/Info : Picture based subtitle format used on BDs/HD-DVDs
Duration : 2 h 15 min
Bit rate : 24.9 kb/s
Count of elements : 3136
Stream size : 24.1 MiB (0%)
Language : Japanese
Default : No
Forced : No

Text #8
ID : 11
Format : PGS
Muxing mode : zlib
Codec ID : S_HDMV/PGS
Codec ID/Info : Picture based subtitle format used on BDs/HD-DVDs
Duration : 53 min 55 s
Bit rate : 1 309 b/s
Count of elements : 62
Stream size : 517 KiB (0%)
Language : Japanese
Default : No
Forced : No

Text #9
ID : 12
Format : PGS
Muxing mode : zlib
Codec ID : S_HDMV/PGS
Codec ID/Info : Picture based subtitle format used on BDs/HD-DVDs
Duration : 2 h 15 min
Bit rate : 20.7 kb/s
Count of elements : 3290
Stream size : 20.0 MiB (0%)
Language : Chinese
Default : No
Forced : No

Text #10
ID : 13
Format : PGS
Muxing mode : zlib
Codec ID : S_HDMV/PGS
Codec ID/Info : Picture based subtitle format used on BDs/HD-DVDs
Duration : 2 h 15 min
Bit rate : 23.8 kb/s
Count of elements : 3286
Stream size : 23.0 MiB (0%)
Language : Chinese
Default : No
Forced : No

Text #11
ID : 14
Format : PGS
Muxing mode : zlib
Codec ID : S_HDMV/PGS
Codec ID/Info : Picture based subtitle format used on BDs/HD-DVDs
Duration : 2 h 15 min
Bit rate : 16.1 kb/s
Count of elements : 3264
Stream size : 15.6 MiB (0%)
Language : Korean
Default : No
Forced : No

Menu
00:00:00.000 : en:00:00:00.000
00:08:03.149 : en:00:08:03.149
00:11:50.001 : en:00:11:50.001
00:15:19.585 : en:00:15:19.585
00:20:34.316 : en:00:20:34.316
00:23:05.092 : en:00:23:05.092
00:29:40.278 : en:00:29:40.278
00:37:24.826 : en:00:37:24.826
00:42:48.816 : en:00:42:48.816
00:50:23.103 : en:00:50:23.103
01:01:05.495 : en:01:01:05.495
01:14:05.941 : en:01:14:05.941
01:28:02.068 : en:01:28:02.068
01:38:21.395 : en:01:38:21.395
01:45:41.001 : en:01:45:41.001
01:51:15.919 : en:01:51:15.919
01:57:48.603 : en:01:57:48.603
02:04:39.514 : en:02:04:39.514
02:09:40.231 : en:02:09:40.231
02:13:11.525 : en:02:13:11.525

Download

download 4k hdr movies download 4k hdr movies

Watch a movie trailer - The Avengers 4K 2012 Ultra HD 2160p
Comments and Feedback
Add your comment:
Your name:
Your E-Mail:
Code:
reload, if the code cannot be seen
Enter code: