Select movie Search movie Close search My Account

Avengers: Age of Ultron 4K 2015 Ultra HD 2160p

Avengers: Age of Ultron 4K 2015 Ultra HD 2160p
BDRemux / BDRip
Country: USA
Time: 2h 21min
IMDB: 7.4
Director: Joss Whedon
Actors: Robert Downey Jr., Chris Hemsworth, Mark Ruffalo, Chris Evans, Scarlett Johansson, Jeremy Renner, James Spader, Samuel L. Jackson, Don Cheadle, Aaron Taylor-Johnson, Elizabeth Olsen, Paul Bettany, Cobie Smulders, Anthony Mackie, Hayley Atwell...

Story Movie

Avengers: Age of Ultron 4K 2015 Ultra HD 2160p
Avengers: Age of Ultron 4K 2015 in 2160p UHD for download. Two qualities of the film, REMUX (original) and BDRip 4K + HDR10 (compressed). Great movie, download any file, say which one you liked, thank you. Best movie 2018 in Avengers: Infinity War 4K movie download.

Review 4K Movie

Avengers: Age of Ultron
I'm very very positive about the Marvel projects. I especially do not like: First Avenger, Iron Man 2, Agents Sh. I. T (which I threw to look at the fifth series). But I also like: Iron Man 1 and 3, The Incredible Hulk, Thor 1 and 2, The First Avenger: Another War, Guardians of the Galaxy, Agent Carter, Daredevil and, of course, the Avengers.

It is worth noting that the Avengers: The era of the Altron, in contrast to the first part, became deeper, more personal. I got a lot of pleasure from the picture, maybe even more than from the first part. But, as it turned out, the film has serious drawbacks.

A big search with characters, with events and, especially, with storylines. Too many lines in the plot go in parallel with each other, it does not get to focus on the line: Hydra (which is given ten minutes, and we were prepared for it with the whole film "Avengers: Age of Ultron 4K"), Torah, Hulk and Black Widow, Tony's desire Stark create an artificial intelligence, all these lines do not fit together.

Too many cut from the movie. Full timekeeping of the picture is three and a half hours, and the final version for an hour is shorter. Basically, the film mashed what was doomed to failure "The New Spider-Man: High Voltage." Watching the movie you notice how much is cut out, basically, in the film everything is focused on the action, and Marvel did not want the viewer to fall asleep during the session. Because of this, the above storylines look so inappropriate. Maybe Hydra, Mercury with the Scarlet Witch was given more time, everything could be smoothly combined, in any case. We are unlikely to see an enhanced version.

And now about the good, for which I really love this film 4K UHD.

The main villain Altron turned out to be very interesting, I liked the humor from his lips and his sineness. But what grieved, not that much time to him given. Sure enough, the scenes with Altron were cut, but at least he did not get lost.

The more Falcon Eye was the film, because of which the character unfolded, became one of the most significant in the film, and not as in the first film he just shot from the bow.

Humor in the film, maybe not as much as in the first part. But the jokes are quite normal and very funny. Here, not one Tony Stark shines with humor, but also, Thor, Cap, Hawkeye, and the rest.

Action in the picture, that's what I like most about "Avengers: Age of Ultron 4K UHD", he's here to play well. Seeing the most striking in the film, the scenes of the battle of the Hulk and Hulkabaster and the final duel, you come to the big delight.

The other heroes pleased: Fury, Rowdy / Warrior, Falcon, Scarlet Witch and Mercury (I liked Mercury from this movie more than from "X-Men: Days of Future Past 4K", although it was good there).

Despite the disadvantages of the above, "Avengers: Age of Ultron 4K UHD" is probably almost the best film Marvel download. There is no need to expect anything moral from the film, such as the "Dark Knight", here the task is to entertain the viewer. So, from the picture I got great pleasure.

Mediainfo

movie BDRemux Video
ID : 1
Format : HEVC
Format/Info : High Efficiency Video Coding
Commercial name : HDR10
Format profile : Main 10@L5.1@High
Codec ID : V_MPEGH/ISO/HEVC
Duration : 2 h 21 min
Bit rate : 43.1 Mb/s
Width : 3 840 pixels
Height : 2 160 pixels
Display aspect ratio : 16:9
Frame rate mode : Constant
Frame rate : 23.976 (24000/1001) FPS
Color space : YUV
Chroma subsampling : 4:2:0 (Type 2)
Bit depth : 10 bits
Bits/(Pixel*Frame) : 0.217
Stream size : 42.5 GiB (78%)
Title : Avengers.Age.of.Ultron.2015.2160p.BluRay.REMUX.HEVC.DTS-HD.MA.TrueHD.7.1.Atmos
Default : Yes
Forced : No
Color range : Limited
Color primaries : BT.2020
Transfer characteristics : PQ
Matrix coefficients : BT.2020 non-constant
Mastering display color primaries : Display P3
Mastering display luminance : min: 0.0001 cd/m2, max: 1000 cd/m2

Audio #1
ID : 2
Format : TrueHD
Format profile : TrueHD+Atmos / TrueHD
Codec ID : A_TRUEHD
Duration : 2 h 21 min
Bit rate mode : Variable
Bit rate : 4 631 kb/s
Maximum bit rate : 6 390 kb/s
Channel(s) : Object Based / 8 channels
Channel positions : Object Based / Front: L C R, Side: L R, Back: L R, LFE
Sampling rate : / 48.0 kHz
Frame rate : 1 200.000 FPS (40 SPF)
Compression mode : Lossless
Stream size : 4.57 GiB (8%)
Title : Avengers.Age.of.Ultron.2015.2160p.BluRay.REMUX.HEVC.DTS-HD.MA.TrueHD.7.1.Atmos
Language : English
Default : Yes
Forced : No

Audio #2
ID : 3
Format : DTS
Format/Info : Digital Theater Systems
Format profile : MA / Core
Codec ID : A_DTS
Duration : 2 h 21 min
Bit rate mode : Variable / Constant
Bit rate : 3 938 kb/s / 1 509 kb/s
Channel(s) : 8 channels / 6 channels
Channel positions : Front: L C R, Side: L R, Back: L R, LFE / Front: L C R, Side: L R, LFE
Sampling rate : 48.0 kHz
Frame rate : 93.750 FPS (512 SPF)
Bit depth : 24 bits
Compression mode : Lossless / Lossy
Stream size : 3.89 GiB (7%)
Title : Avengers.Age.of.Ultron.2015.2160p.BluRay.REMUX.HEVC.DTS-HD.MA.TrueHD.7.1.Atmos
Language : English
Default : No
Forced : No

Audio #3
ID : 4
Format : AC-3
Format/Info : Audio Coding 3
Codec ID : A_AC3
Duration : 2 h 21 min
Bit rate mode : Constant
Bit rate : 640 kb/s
Channel(s) : 6 channels
Channel positions : Front: L C R, Side: L R, LFE
Sampling rate : 48.0 kHz
Frame rate : 31.250 FPS (1536 SPF)
Bit depth : 16 bits
Compression mode : Lossy
Stream size : 647 MiB (1%)
Title : Avengers.Age.of.Ultron.2015.2160p.BluRay.REMUX.HEVC.DTS-HD.MA.TrueHD.7.1.Atmos
Language : English
Service kind : Complete Main
Default : No
Forced : No

Audio #4
ID : 5
Format : AC-3
Format/Info : Audio Coding 3
Codec ID : A_AC3
Duration : 2 h 21 min
Bit rate mode : Constant
Bit rate : 320 kb/s
Channel(s) : 2 channels
Channel positions : Front: L R
Sampling rate : 48.0 kHz
Frame rate : 31.250 FPS (1536 SPF)
Bit depth : 16 bits
Compression mode : Lossy
Stream size : 323 MiB (1%)
Title : Avengers.Age.of.Ultron.2015.2160p.BluRay.REMUX.HEVC.DTS-HD.MA.TrueHD.7.1.Atmos
Language : English
Service kind : Complete Main
Default : No
Forced : No

Audio #5
ID : 6
Format : AC-3
Format/Info : Audio Coding 3
Codec ID : A_AC3
Duration : 2 h 21 min
Bit rate mode : Constant
Bit rate : 640 kb/s
Channel(s) : 6 channels
Channel positions : Front: L C R, Side: L R, LFE
Sampling rate : 48.0 kHz
Frame rate : 31.250 FPS (1536 SPF)
Bit depth : 16 bits
Compression mode : Lossy
Stream size : 647 MiB (1%)
Title : Avengers.Age.of.Ultron.2015.2160p.BluRay.REMUX.HEVC.DTS-HD.MA.TrueHD.7.1.Atmos
Language : French
Service kind : Complete Main
Default : No
Forced : No

Audio #6
ID : 7
Format : E-AC-3
Format/Info : Enhanced Audio Coding 3
Codec ID : A_EAC3
Duration : 2 h 21 min
Bit rate mode : Constant
Bit rate : 500 b/s
Channel(s) : 8 channels
Channel(s)_Original : 6 channels
Channel positions : Front: L C R, Side: L R, LFE
Sampling rate : 48.0 kHz
Frame rate : 187.500 FPS (256 SPF)
Compression mode : Lossy
Stream size : 1.01 GiB (2%)
Title : Avengers.Age.of.Ultron.2015.2160p.BluRay.REMUX.HEVC.DTS-HD.MA.TrueHD.7.1.Atmos
Language : Spanish
Service kind : Complete Main
Default : No
Forced : No

Audio #7
ID : 8
Format : E-AC-3
Format/Info : Enhanced Audio Coding 3
Codec ID : A_EAC3
Duration : 2 h 21 min
Bit rate mode : Constant
Bit rate : 500 b/s
Channel(s) : 8 channels
Channel(s)_Original : 6 channels
Channel positions : Front: L C R, Side: L R, LFE
Sampling rate : 48.0 kHz
Frame rate : 187.500 FPS (256 SPF)
Compression mode : Lossy
Stream size : 1.01 GiB (2%)
Title : Avengers.Age.of.Ultron.2015.2160p.BluRay.REMUX.HEVC.DTS-HD.MA.TrueHD.7.1.Atmos
Language : Japanese
Service kind : Complete Main
Default : No
Forced : No

Text #1
ID : 9
Format : PGS
Muxing mode : zlib
Codec ID : S_HDMV/PGS
Codec ID/Info : Picture based subtitle format used on BDs/HD-DVDs
Duration : 2 h 12 min
Bit rate : 40.6 kb/s
Count of elements : 4314
Stream size : 38.6 MiB (0%)
Title : English-PGS
Language : English
Default : Yes
Forced : No

Text #2
ID : 10
Format : PGS
Muxing mode : zlib
Codec ID : S_HDMV/PGS
Codec ID/Info : Picture based subtitle format used on BDs/HD-DVDs
Duration : 2 h 20 min
Bit rate : 34.0 kb/s
Count of elements : 3768
Stream size : 34.2 MiB (0%)
Title : French-PGS
Language : French
Default : No
Forced : No

Text #3
ID : 11
Format : PGS
Muxing mode : zlib
Codec ID : S_HDMV/PGS
Codec ID/Info : Picture based subtitle format used on BDs/HD-DVDs
Duration : 2 h 20 min
Bit rate : 32.3 kb/s
Count of elements : 3756
Stream size : 32.4 MiB (0%)
Title : Spanish-PGS
Language : Spanish
Default : No
Forced : No

Text #4
ID : 12
Format : PGS
Muxing mode : zlib
Codec ID : S_HDMV/PGS
Codec ID/Info : Picture based subtitle format used on BDs/HD-DVDs
Duration : 2 h 20 min
Bit rate : 22.9 kb/s
Count of elements : 3346
Stream size : 23.0 MiB (0%)
Title : Japanese-PGS
Language : Japanese
Default : No
Forced : No

Text #5
ID : 13
Format : PGS
Muxing mode : zlib
Codec ID : S_HDMV/PGS
Codec ID/Info : Picture based subtitle format used on BDs/HD-DVDs
Duration : 2 h 20 min
Bit rate : 20.9 kb/s
Count of elements : 3762
Stream size : 21.0 MiB (0%)
Title : Chinese-PGS
Language : Chinese
Default : No
Forced : No

Text #6
ID : 14
Format : PGS
Muxing mode : zlib
Codec ID : S_HDMV/PGS
Codec ID/Info : Picture based subtitle format used on BDs/HD-DVDs
Duration : 2 h 20 min
Bit rate : 18.6 kb/s
Count of elements : 3766
Stream size : 18.7 MiB (0%)
Title : Korean-PGS
Language : Korean
Default : No
Forced : No

Text #7
ID : 15
Format : PGS
Muxing mode : zlib
Codec ID : S_HDMV/PGS
Codec ID/Info : Picture based subtitle format used on BDs/HD-DVDs
Duration : 2 h 20 min
Bit rate : 23.5 kb/s
Count of elements : 3830
Stream size : 23.6 MiB (0%)
Title : Chinese-PGS
Language : Chinese
Default : No
Forced : No

Text #8
ID : 16
Format : PGS
Muxing mode : zlib
Codec ID : S_HDMV/PGS
Codec ID/Info : Picture based subtitle format used on BDs/HD-DVDs
Duration : 2 h 18 min
Bit rate : 316 b/s
Count of elements : 26
Stream size : 321 KiB (0%)
Title : French-FORCED-PGS
Language : French
Default : No
Forced : No

Text #9
ID : 17
Format : PGS
Muxing mode : zlib
Codec ID : S_HDMV/PGS
Codec ID/Info : Picture based subtitle format used on BDs/HD-DVDs
Duration : 2 h 18 min
Bit rate : 226 b/s
Count of elements : 20
Stream size : 229 KiB (0%)
Title : Spanish-FORCED-PGS
Language : Spanish
Default : No
Forced : No

Text #10
ID : 18
Format : PGS
Muxing mode : zlib
Codec ID : S_HDMV/PGS
Codec ID/Info : Picture based subtitle format used on BDs/HD-DVDs
Duration : 2 h 18 min
Bit rate : 173 b/s
Count of elements : 20
Stream size : 176 KiB (0%)
Title : Japanese-FORCED-PGS
Language : Japanese
Default : No
Forced : No

Menu
00:00:00.000 : en:Chapter 1
00:12:15.192 : en:Chapter 2
00:21:23.949 : en:Chapter 3
00:33:01.771 : en:Chapter 4
00:36:07.623 : en:Chapter 5
00:42:00.768 : en:Chapter 6
00:52:44.744 : en:Chapter 7
00:59:01.871 : en:Chapter 8
01:15:51.088 : en:Chapter 9
01:27:08.598 : en:Chapter 10
01:36:44.757 : en:Chapter 11
01:54:35.326 : en:Chapter 12
02:06:27.580 : en:Chapter 13
02:11:08.026 : en:Chapter 14
movie BDRip Video
ID : 1
Format : HEVC
Format/Info : High Efficiency Video Coding
Commercial name : HDR10
Format profile : Main 10@L5.1@High
Codec ID : V_MPEGH/ISO/HEVC
Duration : 2 h 21 min
Bit rate : 9 578 kb/s
Width : 3 840 pixels
Height : 1 604 pixels
Display aspect ratio : 2.40:1
Frame rate mode : Constant
Frame rate : 23.976 (24000/1001) FPS
Color space : YUV
Chroma subsampling : 4:2:0 (Type 2)
Bit depth : 10 bits
Bits/(Pixel*Frame) : 0.065
Stream size : 9.45 GiB (64%)
Writing library : x265 2.8+40-0106f9f2f867:[Windows][GCC 6.3.0][64 bit] 10bit
Encoding settings : cpuid=1111039 / frame-threads=4 / numa-pools=20 / wpp / no-pmode / no-pme / no-psnr / no-ssim / log-level=2 / input-csp=1 / input-res=3840x1604 / interlace=0 / total-frames=203273 / level-idc=51 / high-tier=1 / uhd-bd=0 / ref=4 / no-allow-non-conformance / repeat-headers / annexb / aud / hrd / info / hash=0 / no-temporal-layers / no-open-gop / min-keyint=1 / keyint=24 / gop-lookahead=0 / bframes=4 / b-adapt=2 / b-pyramid / bframe-bias=0 / rc-lookahead=25 / lookahead-slices=4 / scenecut=40 / radl=0 / no-intra-refresh / ctu=64 / min-cu-size=8 / rect / no-amp / max-tu-size=32 / tu-inter-depth=1 / tu-intra-depth=1 / limit-tu=0 / rdoq-level=2 / dynamic-rd=0.00 / no-ssim-rd / signhide / no-tskip / nr-intra=0 / nr-inter=0 / no-constrained-intra / no-strong-intra-smoothing / max-merge=3 / limit-refs=3 / limit-modes / me=3 / subme=3 / merange=57 / temporal-mvp / weightp / no-weightb / no-analyze-src-pics / deblock=-3:-3 / no-sao / no-sao-non-deblock / rd=4 / no-early-skip / rskip / no-fast-intra / no-tskip-fast / no-cu-lossless / no-b-intra / no-splitrd-skip / rdpenalty=0 / psy-rd=2.00 / psy-rdoq=1.00 / no-rd-refine / no-lossless / cbqpoffs=0 / crqpoffs=0 / rc=crf / crf=17.0 / qcomp=0.60 / qpstep=4 / stats-write=0 / stats-read=0 / vbv-maxrate=160000 / vbv-bufsize=160000 / vbv-init=0.9 / crf-max=0.0 / crf-min=0.0 / ipratio=1.40 / pbratio=1.30 / aq-mode=1 / aq-strength=1.00 / cutree / zone-count=0 / no-strict-cbr / qg-size=32 / no-rc-grain / qpmax=69 / qpmin=0 / no-const-vbv / sar=1 / overscan=0 / videoformat=5 / range=0 / colorprim=9 / transfer=16 / colormatrix=9 / chromaloc=1 / chromaloc-top=2 / chromaloc-bottom=2 / display-window=0 / master-display=G(13250,34500)B(7500,3000)R(34000,16000)WP(15635,16450)L(10000000,1) / max-cll=0,0 / min-luma=0 / max-luma=1023 / log2-max-poc-lsb=8 / vui-timing-info / vui-hrd-info / slices=1 / no-opt-qp-pps / no-opt-ref-list-length-pps / no-multi-pass-opt-rps / scenecut-bias=0.05 / no-opt-cu-delta-qp / no-aq-motion / hdr / hdr-opt / no-dhdr10-opt / no-idr-recovery-sei / analysis-reuse-level=5 / scale-factor=0 / refine-intra=0 / refine-inter=0 / refine-mv=0 / no-limit-sao / ctu-info=0 / no-lowpass-dct / refine-mv-type=0 / copy-pic=1 / max-ausize-factor=1.0 / no-dynamic-refine / no-single-sei
Default : Yes
Forced : No
Color range : Limited
Color primaries : BT.2020
Transfer characteristics : PQ
Matrix coefficients : BT.2020 non-constant
Mastering display color primaries : Display P3
Mastering display luminance : min: 0.0001 cd/m2, max: 1000 cd/m2

Audio #1
ID : 2
Format : TrueHD
Format profile : TrueHD+Atmos / TrueHD
Codec ID : A_TRUEHD
Duration : 2 h 21 min
Bit rate mode : Variable
Bit rate : 4 631 kb/s
Maximum bit rate : 6 390 kb/s
Channel(s) : Object Based / 8 channels
Channel positions : Object Based / Front: L C R, Side: L R, Back: L R, LFE
Sampling rate : / 48.0 kHz
Frame rate : 1 200.000 FPS (40 SPF)
Compression mode : Lossless
Stream size : 4.57 GiB (31%)
Language : English
Default : Yes
Forced : No

Audio #2
ID : 3
Format : AC-3
Format/Info : Audio Coding 3
Codec ID : A_AC3
Duration : 2 h 21 min
Bit rate mode : Constant
Bit rate : 640 kb/s
Channel(s) : 6 channels
Channel positions : Front: L C R, Side: L R, LFE
Sampling rate : 48.0 kHz
Frame rate : 31.250 FPS (1536 SPF)
Bit depth : 16 bits
Compression mode : Lossy
Stream size : 647 MiB (4%)
Language : English
Service kind : Complete Main
Default : No
Forced : No

Text #1
ID : 4
Format : PGS
Muxing mode : zlib
Codec ID : S_HDMV/PGS
Codec ID/Info : Picture based subtitle format used on BDs/HD-DVDs
Duration : 2 h 12 min
Bit rate : 40.6 kb/s
Count of elements : 4314
Stream size : 38.6 MiB (0%)
Title : English SDH
Language : English
Default : No
Forced : No

Text #2
ID : 5
Format : PGS
Muxing mode : zlib
Codec ID : S_HDMV/PGS
Codec ID/Info : Picture based subtitle format used on BDs/HD-DVDs
Duration : 2 h 20 min
Bit rate : 34.0 kb/s
Count of elements : 3768
Stream size : 34.2 MiB (0%)
Language : French
Default : No
Forced : No

Text #3
ID : 6
Format : PGS
Muxing mode : zlib
Codec ID : S_HDMV/PGS
Codec ID/Info : Picture based subtitle format used on BDs/HD-DVDs
Duration : 2 h 20 min
Bit rate : 32.3 kb/s
Count of elements : 3756
Stream size : 32.4 MiB (0%)
Language : Spanish
Default : No
Forced : No

Text #4
ID : 7
Format : PGS
Muxing mode : zlib
Codec ID : S_HDMV/PGS
Codec ID/Info : Picture based subtitle format used on BDs/HD-DVDs
Duration : 2 h 20 min
Bit rate : 22.9 kb/s
Count of elements : 3346
Stream size : 23.0 MiB (0%)
Language : Japanese
Default : No
Forced : No

Text #5
ID : 8
Format : PGS
Muxing mode : zlib
Codec ID : S_HDMV/PGS
Codec ID/Info : Picture based subtitle format used on BDs/HD-DVDs
Duration : 2 h 20 min
Bit rate : 20.9 kb/s
Count of elements : 3762
Stream size : 21.0 MiB (0%)
Language : Chinese
Default : No
Forced : No

Text #6
ID : 9
Format : PGS
Muxing mode : zlib
Codec ID : S_HDMV/PGS
Codec ID/Info : Picture based subtitle format used on BDs/HD-DVDs
Duration : 2 h 20 min
Bit rate : 18.6 kb/s
Count of elements : 3766
Stream size : 18.7 MiB (0%)
Language : Korean
Default : No
Forced : No

Text #7
ID : 10
Format : PGS
Muxing mode : zlib
Codec ID : S_HDMV/PGS
Codec ID/Info : Picture based subtitle format used on BDs/HD-DVDs
Duration : 2 h 20 min
Bit rate : 23.5 kb/s
Count of elements : 3830
Stream size : 23.6 MiB (0%)
Language : Chinese
Default : No
Forced : No

Text #8
ID : 11
Format : PGS
Muxing mode : zlib
Codec ID : S_HDMV/PGS
Codec ID/Info : Picture based subtitle format used on BDs/HD-DVDs
Duration : 2 h 18 min
Bit rate : 316 b/s
Count of elements : 26
Stream size : 321 KiB (0%)
Language : French
Default : No
Forced : No

Text #9
ID : 12
Format : PGS
Muxing mode : zlib
Codec ID : S_HDMV/PGS
Codec ID/Info : Picture based subtitle format used on BDs/HD-DVDs
Duration : 2 h 18 min
Bit rate : 226 b/s
Count of elements : 20
Stream size : 229 KiB (0%)
Language : Spanish
Default : No
Forced : No

Text #10
ID : 13
Format : PGS
Muxing mode : zlib
Codec ID : S_HDMV/PGS
Codec ID/Info : Picture based subtitle format used on BDs/HD-DVDs
Duration : 2 h 18 min
Bit rate : 173 b/s
Count of elements : 20
Stream size : 176 KiB (0%)
Language : Japanese
Default : No
Forced : No

Menu
00:00:00.000 : en:00:00:00.000
00:12:15.193 : en:00:12:15.193
00:21:23.949 : en:00:21:23.949
00:33:01.771 : en:00:33:01.771
00:36:07.624 : en:00:36:07.624
00:42:00.768 : en:00:42:00.768
00:52:44.745 : en:00:52:44.745
00:59:01.872 : en:00:59:01.872
01:15:51.088 : en:01:15:51.088
01:27:08.598 : en:01:27:08.598
01:36:44.757 : en:01:36:44.757
01:54:35.327 : en:01:54:35.327
02:06:27.580 : en:02:06:27.580
02:11:08.027 : en:02:11:08.027

Download

download 4k hdr movies download 4k hdr movies

Watch a movie trailer - Avengers: Age of Ultron 4K 2015 Ultra HD 2160p
Comments and Feedback
Add your comment:
Your name:
Your E-Mail:
Code:
reload, if the code cannot be seen
Enter code: