Select movie Search movie Close search My Account

Universal Soldier 4K 1992 Ultra HD 2160p

Universal Soldier 4K 1992 Ultra HD 2160p
BDRemux / BDRip
Country: USA
Time: 1h 42min
IMDB: 6.0
Director: Roland Emmerich
Actors: Jean-Claude Van Damme, Dolph Lundgren, Ally Walker, Ed O'Ross, Jerry Orbach, Leon Rippy, Tico Wells, Ralf Moeller, Robert Trebor, Gene Davis, Drew Snyder, Tommy 'Tiny' Lister, Simon Rhee, Eric Norris, Michael Winther.

Story Movie

Universal Soldier 4K 1992 Ultra HD 2160p

Vietnam, 1969, the first skirmish of two American soldiers - Luke and Scott: Luke cannot shoot unarmed people, but Scott is ready to kill and kill with inhumanly furious cruelty, which is evidenced by a necklace of ears cut off by him from the Vietnamese. Over the years, Luke and Scott again find themselves in the same detachment - a special unit of "universal soldiers" who are thrown to fulfill the most dangerous tasks (for example, to eliminate terrorists). 4k file format Universal Soldier 4K.

You can try to kill the “universal soldier”, but it will rise again and again, and if necessary, the scientists working on a top-secret military project in a special laboratory will revive the seriously damaged “universal”. However, even knowing this, Scott with the stubbornness of a maniac will pursue Luke in order to meet him in a decisive fight not for life but for death ...

Review 4K Movie

"Universal Soldier UltraHD" stands apart in the list of tapes featuring Belgian superstar Jean-Claude Van Damme. The previous work of the actor basically showed us his wonderful fighting skills, and the plot was relegated to the second or third plan. Here the opposite is true - the emphasis is on the plot, while action is only a necessary addition to it.

UNISOL is the ultimate killing machine. In fact, it is difficult to kill someone who is already dead. However, UNISOLs can benefit society by, for example, engaging in the release of hostages from captivity, the destruction of terrorist groups, etc. Their use is very practical, but any machine can get out of control, which actually came with old and irreconcilable rivals - a sergeant Scott (Dolph Lundgren) and Luke Devereaux (Jean-Claude Van Damme).

Only for the idea of ​​Ronaldo Emerychou can already put a solid five. But the workmanship didn’t disappoint either. For the 90s, special effects were performed at the highest level, the number of chases, shootings and fights is exactly the volume in which it is necessary, and everything is in order with humor. The tandem of the main characters turned out to be glorious. I don’t really like Dolph Lungren and his action movies at all, but in this film his character turned out to be damn charismatic and memorable. Perhaps I could even include him in the list of the most outstanding movie villains. Hero Van Damme in this regard looks simpler - a minimum of emotions, a minimum of words, but this turned out to be quite enough not to fall out of the cage.

“Universal Soldier 4K” is an excellent action movie, with a smart plot, vivid characters and an unforgettable atmosphere of the distant 90s, which is a real pleasure to watch and review.

Mediainfo

movie BDRemux Video #1 ID : 1 Format : HEVC Format/Info : High Efficiency Video Coding Format profile : Main 10@L5.1@High HDR format : SMPTE ST 2086, HDR10 compatible Codec ID : V_MPEGH/ISO/HEVC Duration : 1 h 43 min Bit rate : 64.0 Mb/s Width : 3 840 pixels Height : 2 160 pixels Display aspect ratio : 16:9 Frame rate mode : Constant Frame rate : 24.000 FPS Color space : YUV Chroma subsampling : 4:2:0 (Type 2) Bit depth : 10 bits Bits/(Pixel*Frame) : 0.321 Stream size : 46.2 GiB (67%) Title : Universal.Soldier.1992.2160p.BluRay.REMUX.HEVC.DTS-HD.MA.5.1 Language : English Default : Yes Forced : No Color range : Limited Color primaries : BT.2020 Transfer characteristics : PQ Matrix coefficients : BT.2020 non-constant Mastering display color primaries : Display P3 Mastering display luminance : min: 0.0001 cd/m2, max: 1000 cd/m2 Maximum Content Light Level : 818 cd/m2 Maximum Frame-Average Light Level : 554 cd/m2 Video #2 ID : 2 Format : HEVC Format/Info : High Efficiency Video Coding Format profile : Main 10@L5.1@High HDR format : SMPTE ST 2086, HDR10 compatible Codec ID : V_MPEGH/ISO/HEVC Duration : 1 h 43 min Bit rate : 16.0 Mb/s Width : 1 920 pixels Height : 1 080 pixels Display aspect ratio : 16:9 Frame rate mode : Constant Frame rate : 24.000 FPS Color space : YUV Chroma subsampling : 4:2:0 (Type 2) Bit depth : 10 bits Bits/(Pixel*Frame) : 0.322 Stream size : 11.6 GiB (17%) Title : Universal.Soldier.1992.2160p.BluRay.REMUX.HEVC.DTS-HD.MA.5.1 Default : No Forced : No Color range : Limited Color primaries : BT.2020 Transfer characteristics : PQ Matrix coefficients : BT.2020 non-constant Mastering display color primaries : Display P3 Mastering display luminance : min: 0.0001 cd/m2, max: 1000 cd/m2 Audio #1 ID : 3 Format : DTS XLL Format/Info : Digital Theater Systems Commercial name : DTS-HD Master Audio Codec ID : A_DTS Duration : 1 h 43 min Bit rate mode : Variable Bit rate : 4 287 kb/s Channel(s) : 6 channels Channel layout : C L R Ls Rs LFE Sampling rate : 48.0 kHz Frame rate : 93.750 FPS (512 SPF) Bit depth : 24 bits Compression mode : Lossless Stream size : 3.09 GiB (5%) Title : Universal.Soldier.1992.2160p.BluRay.REMUX.HEVC.DTS-HD.MA.5.1 Language : English Default : Yes Forced : No Audio #2 ID : 4 Format : DTS XLL Format/Info : Digital Theater Systems Commercial name : DTS-HD Master Audio Codec ID : A_DTS Duration : 1 h 43 min Bit rate mode : Variable Bit rate : 3 892 kb/s Channel(s) : 6 channels Channel layout : C L R Ls Rs LFE Sampling rate : 48.0 kHz Frame rate : 93.750 FPS (512 SPF) Bit depth : 24 bits Compression mode : Lossless Stream size : 2.81 GiB (4%) Title : Universal.Soldier.1992.2160p.BluRay.REMUX.HEVC.DTS-HD.MA.5.1 Language : German Default : No Forced : No Audio #3 ID : 5 Format : DTS XLL Format/Info : Digital Theater Systems Commercial name : DTS-HD Master Audio Codec ID : A_DTS Duration : 1 h 43 min Bit rate mode : Variable Bit rate : 3 524 kb/s Channel(s) : 6 channels Channel layout : C L R Ls Rs LFE Sampling rate : 48.0 kHz Frame rate : 93.750 FPS (512 SPF) Bit depth : 24 bits Compression mode : Lossless Stream size : 2.54 GiB (4%) Title : Universal.Soldier.1992.2160p.BluRay.REMUX.HEVC.DTS-HD.MA.5.1 Language : French Default : No Forced : No Audio #4 ID : 6 Format : DTS XLL Format/Info : Digital Theater Systems Commercial name : DTS-HD Master Audio Codec ID : A_DTS Duration : 1 h 43 min Bit rate mode : Variable Bit rate : 1 508 kb/s Channel(s) : 2 channels Channel layout : L R Sampling rate : 48.0 kHz Frame rate : 93.750 FPS (512 SPF) Bit depth : 24 bits Compression mode : Lossless Stream size : 1.09 GiB (2%) Title : Universal.Soldier.1992.2160p.BluRay.REMUX.HEVC.DTS-HD.MA.5.1 Language : English Default : No Forced : No Audio #5 ID : 7 Format : DTS XLL Format/Info : Digital Theater Systems Commercial name : DTS-HD Master Audio Codec ID : A_DTS Duration : 1 h 43 min Bit rate mode : Variable Bit rate : 1 616 kb/s Channel(s) : 2 channels Channel layout : L R Sampling rate : 48.0 kHz Frame rate : 93.750 FPS (512 SPF) Bit depth : 24 bits Compression mode : Lossless Stream size : 1.17 GiB (2%) Title : Universal.Soldier.1992.2160p.BluRay.REMUX.HEVC.DTS-HD.MA.5.1 Language : English Default : No Forced : No Text #1 ID : 8 Format : UTF-8 Codec ID : S_TEXT/UTF8 Codec ID/Info : UTF-8 Plain Text Duration : 1 h 36 min Bit rate : 47 b/s Count of elements : 1050 Stream size : 33.3 KiB (0%) Title : English-SRT Language : English Default : Yes Forced : No Text #2 ID : 9 Format : UTF-8 Codec ID : S_TEXT/UTF8 Codec ID/Info : UTF-8 Plain Text Duration : 1 h 37 min Bit rate : 57 b/s Count of elements : 1246 Stream size : 40.7 KiB (0%) Title : English-SDH-SRT Language : English Default : No Forced : No Text #3 ID : 10 Format : PGS Muxing mode : zlib Codec ID : S_HDMV/PGS Codec ID/Info : Picture based subtitle format used on BDs/HD-DVDs Duration : 1 h 41 min Bit rate : 19.3 kb/s Count of elements : 1660 Stream size : 14.0 MiB (0%) Title : German-PGS Language : German Default : No Forced : No Text #4 ID : 11 Format : PGS Muxing mode : zlib Codec ID : S_HDMV/PGS Codec ID/Info : Picture based subtitle format used on BDs/HD-DVDs Duration : 1 h 37 min Bit rate : 27.9 kb/s Count of elements : 2492 Stream size : 19.4 MiB (0%) Title : English-PGS Language : English Default : No Forced : No Text #5 ID : 12 Format : PGS Muxing mode : zlib Codec ID : S_HDMV/PGS Codec ID/Info : Picture based subtitle format used on BDs/HD-DVDs Duration : 1 h 41 min Bit rate : 15.2 kb/s Count of elements : 1888 Stream size : 11.1 MiB (0%) Title : French-PGS Language : French Default : No Forced : No Text #6 ID : 13 Format : PGS Muxing mode : zlib Codec ID : S_HDMV/PGS Codec ID/Info : Picture based subtitle format used on BDs/HD-DVDs Duration : 1 h 38 min Bit rate : 27.1 kb/s Count of elements : 2184 Stream size : 19.2 MiB (0%) Title : German-PGS Language : German Default : No Forced : No Text #7 ID : 14 Format : PGS Muxing mode : zlib Codec ID : S_HDMV/PGS Codec ID/Info : Picture based subtitle format used on BDs/HD-DVDs Duration : 1 h 38 min Bit rate : 27.2 kb/s Count of elements : 2186 Stream size : 19.2 MiB (0%) Title : French-PGS Language : French Default : No Forced : No Text #8 ID : 15 Format : PGS Muxing mode : zlib Codec ID : S_HDMV/PGS Codec ID/Info : Picture based subtitle format used on BDs/HD-DVDs Duration : 1 h 36 min Bit rate : 20.6 kb/s Count of elements : 1288 Stream size : 14.2 MiB (0%) Title : German-PGS Language : German Default : No Forced : No Text #9 ID : 16 Format : PGS Muxing mode : zlib Codec ID : S_HDMV/PGS Codec ID/Info : Picture based subtitle format used on BDs/HD-DVDs Duration : 1 h 13 min Bit rate : 154 b/s Count of elements : 10 Stream size : 83.3 KiB (0%) Title : German-FORCED-PGS Language : German Default : No Forced : No Text #10 ID : 17 Format : PGS Muxing mode : zlib Codec ID : S_HDMV/PGS Codec ID/Info : Picture based subtitle format used on BDs/HD-DVDs Duration : 1 h 13 min Bit rate : 142 b/s Count of elements : 10 Stream size : 77.0 KiB (0%) Title : French-FORCED-PGS Language : French Default : No Forced : No Menu 00:00:00.000 : en:Chapter 01 00:10:27.458 : en:Chapter 02 00:20:51.791 : en:Chapter 03 00:31:24.750 : en:Chapter 04 00:42:41.333 : en:Chapter 05 00:53:13.625 : en:Chapter 06 01:04:07.500 : en:Chapter 07 01:14:22.666 : en:Chapter 08 01:21:52.958 : en:Chapter 09 01:31:32.875 : en:Chapter 10
movie BDRip Video
ID : 1
Format : HEVC
Format/Info : High Efficiency Video Coding
Format profile : Main 10@L5.1@High
HDR format : SMPTE ST 2086, HDR10 compatible
Codec ID : V_MPEGH/ISO/HEVC
Duration : 1 h 43 min
Width : 3 840 pixels
Height : 1 634 pixels
Display aspect ratio : 2.35:1
Frame rate mode : Constant
Frame rate : 24.000 FPS
Color space : YUV
Chroma subsampling : 4:2:0 (Type 2)
Bit depth : 10 bits
Writing library : x265 3.2+8-7fc1f6ef2b96:[Windows][MSVC 1900][64 bit] 10bit
Encoding settings : cpuid=1176575 / frame-threads=5 / numa-pools=32 / wpp / no-pmode / no-pme / no-psnr / no-ssim / log-level=2 / input-csp=1 / input-res=3840x1634 / interlace=0 / total-frames=148810 / level-idc=51 / high-tier=1 / uhd-bd=0 / ref=4 / no-allow-non-conformance / repeat-headers / annexb / aud / hrd / info / hash=0 / no-temporal-layers / no-open-gop / min-keyint=24 / keyint=240 / gop-lookahead=0 / bframes=4 / b-adapt=2 / b-pyramid / bframe-bias=0 / rc-lookahead=25 / lookahead-slices=4 / scenecut=40 / radl=0 / no-splice / no-intra-refresh / ctu=64 / min-cu-size=8 / rect / no-amp / max-tu-size=32 / tu-inter-depth=1 / tu-intra-depth=1 / limit-tu=0 / rdoq-level=2 / dynamic-rd=0.00 / no-ssim-rd / signhide / no-tskip / nr-intra=0 / nr-inter=0 / no-constrained-intra / no-strong-intra-smoothing / max-merge=3 / limit-refs=3 / limit-modes / me=3 / subme=3 / merange=57 / temporal-mvp / no-frame-dup / no-hme / weightp / no-weightb / no-analyze-src-pics / deblock=-3:-3 / no-sao / no-sao-non-deblock / rd=4 / selective-sao=0 / no-early-skip / rskip / no-fast-intra / no-tskip-fast / no-cu-lossless / no-b-intra / no-splitrd-skip / rdpenalty=0 / psy-rd=2.00 / psy-rdoq=1.00 / no-rd-refine / no-lossless / cbqpoffs=0 / crqpoffs=0 / rc=crf / crf=17.0 / qcomp=0.60 / qpstep=4 / stats-write=0 / stats-read=0 / vbv-maxrate=160000 / vbv-bufsize=160000 / vbv-init=0.9 / crf-max=0.0 / crf-min=0.0 / ipratio=1.40 / pbratio=1.30 / aq-mode=2 / aq-strength=1.00 / cutree / zone-count=0 / no-strict-cbr / qg-size=32 / no-rc-grain / qpmax=69 / qpmin=0 / no-const-vbv / sar=1 / overscan=0 / videoformat=5 / range=0 / colorprim=9 / transfer=16 / colormatrix=9 / chromaloc=1 / chromaloc-top=2 / chromaloc-bottom=2 / display-window=0 / master-display=G(13250,34500)B(7500,3000)R(34000,16000)WP(15635,16450)L(10000000,1) / cll=818,554 / min-luma=0 / max-luma=1023 / log2-max-poc-lsb=8 / vui-timing-info / vui-hrd-info / slices=1 / no-opt-qp-pps / no-opt-ref-list-length-pps / no-multi-pass-opt-rps / scenecut-bias=0.05 / no-opt-cu-delta-qp / no-aq-motion / hdr / hdr-opt / no-dhdr10-opt / no-idr-recovery-sei / analysis-reuse-level=5 / scale-factor=0 / refine-intra=0 / refine-inter=0 / refine-mv=1 / refine-ctu-distortion=0 / no-limit-sao / ctu-info=0 / no-lowpass-dct / refine-analysis-type=0 / copy-pic=1 / max-ausize-factor=1.0 / no-dynamic-refine / no-single-sei / no-hevc-aq / no-svt / no-field / qp-adaptation-range=1.00
Default : Yes
Forced : No
Color range : Limited
Color primaries : BT.2020
Transfer characteristics : PQ
Matrix coefficients : BT.2020 non-constant
Mastering display color primaries : Display P3
Mastering display luminance : min: 0.0001 cd/m2, max: 1000 cd/m2
Maximum Content Light Level : 818 cd/m2
Maximum Frame-Average Light Level : 554 cd/m2
Statistics Tags Issue : no_variable_data 1970-01-01 00:00:00 / no_variable_data 2010-02-22 21:41:29
FromStats_BitRate : 38919783
FromStats_Duration : 01:43:20.417000000
FromStats_FrameCount : 148810
FromStats_StreamSize : 30164860635

Audio #1
ID : 2
Format : DTS XLL
Format/Info : Digital Theater Systems
Commercial name : DTS-HD Master Audio
Codec ID : A_DTS
Duration : 1 h 43 min
Bit rate mode : Variable
Channel(s) : 6 channels
Channel layout : C L R Ls Rs LFE
Sampling rate : 48.0 kHz
Frame rate : 93.750 FPS (512 SPF)
Bit depth : 24 bits
Compression mode : Lossless
Title : DTS-HD MA 5.1
Language : English
Default : Yes
Forced : No
Statistics Tags Issue : no_variable_data 1970-01-01 00:00:00 / no_variable_data 2010-02-22 21:41:29
FromStats_BitRate : 4286976
FromStats_Duration : 01:43:20.427000000
FromStats_FrameCount : 581290
FromStats_StreamSize : 3322635604

Audio #2
ID : 3
Format : DTS
Format/Info : Digital Theater Systems
Codec ID : A_DTS
Duration : 1 h 43 min
Bit rate mode : Constant
Bit rate : 768 kb/s
Channel(s) : 2 channels
Channel layout : L R
Sampling rate : 48.0 kHz
Frame rate : 93.750 FPS (512 SPF)
Bit depth : 24 bits
Compression mode : Lossy
Stream size : 568 MiB (2%)
Title : Commentary by Roland Emmerich, Dean Devlin, Jean-Claude Van Damme, and Dolph Lundgren
Language : English
Default : No
Forced : No
Statistics Tags Issue : no_variable_data 1970-01-01 00:00:00 / no_variable_data 2010-02-22 21:41:29
FromStats_BitRate : 767999
FromStats_Duration : 01:43:20.427000000
FromStats_FrameCount : 581290
FromStats_StreamSize : 595240960

Audio #3
ID : 4
Format : DTS
Format/Info : Digital Theater Systems
Codec ID : A_DTS
Duration : 1 h 43 min
Bit rate mode : Constant
Bit rate : 768 kb/s
Channel(s) : 2 channels
Channel layout : L R
Sampling rate : 48.0 kHz
Frame rate : 93.750 FPS (512 SPF)
Bit depth : 24 bits
Compression mode : Lossy
Stream size : 568 MiB (2%)
Title : Commentary by Roland Emmerich and Dean Devlin
Language : English
Default : No
Forced : No
Statistics Tags Issue : no_variable_data 1970-01-01 00:00:00 / no_variable_data 2010-02-22 21:41:29
FromStats_BitRate : 767999
FromStats_Duration : 01:43:20.427000000
FromStats_FrameCount : 581290
FromStats_StreamSize : 595240960

Text #1
ID : 5
Format : UTF-8
Codec ID : S_TEXT/UTF8
Codec ID/Info : UTF-8 Plain Text
Title : Stripped SRT
Language : English
Default : No
Forced : No
Statistics Tags Issue : no_variable_data 1970-01-01 00:00:00 / no_variable_data 2010-02-22 21:41:29
FromStats_BitRate : 47
FromStats_Duration : 01:36:08.334000000
FromStats_FrameCount : 1050
FromStats_StreamSize : 34128

Text #2
ID : 6
Format : UTF-8
Codec ID : S_TEXT/UTF8
Codec ID/Info : UTF-8 Plain Text
Title : SDH SRT
Language : English
Default : No
Forced : No
Statistics Tags Issue : no_variable_data 1970-01-01 00:00:00 / no_variable_data 2010-02-22 21:41:29
FromStats_BitRate : 57
FromStats_Duration : 01:37:10.750000000
FromStats_FrameCount : 1246
FromStats_StreamSize : 41652

Text #3
ID : 7
Format : PGS
Muxing mode : zlib
Codec ID : S_HDMV/PGS
Codec ID/Info : Picture based subtitle format used on BDs/HD-DVDs
Title : SDH
Language : English
Default : No
Forced : No
Statistics Tags Issue : no_variable_data 1970-01-01 00:00:00 / no_variable_data 2010-02-22 21:41:29
FromStats_BitRate : 27944
FromStats_Duration : 01:37:10.750000000
FromStats_FrameCount : 2492
FromStats_StreamSize : 20366891

Text #4
ID : 8
Format : PGS
Muxing mode : zlib
Codec ID : S_HDMV/PGS
Codec ID/Info : Picture based subtitle format used on BDs/HD-DVDs
Language : French
Default : No
Forced : No
Statistics Tags Issue : no_variable_data 1970-01-01 00:00:00 / no_variable_data 2010-02-22 21:41:29
FromStats_BitRate : 15229
FromStats_Duration : 01:41:44.750000000
FromStats_FrameCount : 1888
FromStats_StreamSize : 11621290

Text #5
ID : 9
Format : PGS
Muxing mode : zlib
Codec ID : S_HDMV/PGS
Codec ID/Info : Picture based subtitle format used on BDs/HD-DVDs
Title : Commentary by Roland Emmerich, Dean Devlin, Jean-Claude Van Damme, and Dolph Lundgren
Language : French
Default : No
Forced : No
Statistics Tags Issue : no_variable_data 1970-01-01 00:00:00 / no_variable_data 2010-02-22 21:41:29
FromStats_BitRate : 27196
FromStats_Duration : 01:38:40.792000000
FromStats_FrameCount : 2186
FromStats_StreamSize : 20127987

Text #6
ID : 10
Format : PGS
Muxing mode : zlib
Codec ID : S_HDMV/PGS
Codec ID/Info : Picture based subtitle format used on BDs/HD-DVDs
Language : German
Default : No
Forced : No
Statistics Tags Issue : no_variable_data 1970-01-01 00:00:00 / no_variable_data 2010-02-22 21:41:29
FromStats_BitRate : 19268
FromStats_Duration : 01:41:47.958000000
FromStats_FrameCount : 1660
FromStats_StreamSize : 14711727

Text #7
ID : 11
Format : PGS
Muxing mode : zlib
Codec ID : S_HDMV/PGS
Codec ID/Info : Picture based subtitle format used on BDs/HD-DVDs
Title : Commentary by Roland Emmerich, Dean Devlin, Jean-Claude Van Damme, and Dolph Lundgren
Language : German
Default : No
Forced : No
Statistics Tags Issue : no_variable_data 1970-01-01 00:00:00 / no_variable_data 2010-02-22 21:41:29
FromStats_BitRate : 27144
FromStats_Duration : 01:38:40.792000000
FromStats_FrameCount : 2184
FromStats_StreamSize : 20089633

Text #8
ID : 12
Format : PGS
Muxing mode : zlib
Codec ID : S_HDMV/PGS
Codec ID/Info : Picture based subtitle format used on BDs/HD-DVDs
Title : Commentary by Roland Emmerich and Dean Devlin
Language : German
Default : No
Forced : No
Statistics Tags Issue : no_variable_data 1970-01-01 00:00:00 / no_variable_data 2010-02-22 21:41:29
FromStats_BitRate : 20554
FromStats_Duration : 01:36:41.834000000
FromStats_FrameCount : 1288
FromStats_StreamSize : 14906637

Menu
00:00:00.000 : en:Chapter 01
00:10:27.500 : en:Chapter 02
00:20:51.833 : en:Chapter 03
00:31:24.750 : en:Chapter 04
00:42:41.333 : en:Chapter 05
00:53:13.833 : en:Chapter 06
01:04:07.500 : en:Chapter 07
01:14:22.667 : en:Chapter 08
01:21:53.333 : en:Chapter 09
01:31:32.875 : en:Chapter 10

Download

download 4k hdr movies download 4k hdr movies

Watch a movie trailer - Universal Soldier 4K 1992 Ultra HD 2160p
Comments and Feedback
Add your comment:
Your name:
Your E-Mail:
Code:
reload, if the code cannot be seen
Enter code: