Select movie Search movie Close search My Account

Dracula Untold 4K 2014 Ultra HD 2160p

Dracula Untold 4K 2014 Ultra HD 2160p
BDRemux / BDRip
Country: USA | Japan
Time: 1h 32min
IMDB: 6.3
Director: Gary Shore
Actors: Luke Evans, Sarah Gadon, Dominic Cooper, Art Parkinson, Charles Dance, Diarmaid Murtagh, Paul Kaye, William Houston, Noah Huntley, Ronan Vibert, Zach McGowan, Ferdinand Kingsley, Joseph Long, Thor Kristjansson, Jakub Gierszal...

Story Movie

As his kingdom is being threatened by the Turks, young prince Vlad Tepes must become a monster feared by his own people in order to obtain the power needed to protect his own family, and the families of his kingdom. Full 4K movie in Blu-ray REMUX and RIP HDR 10 bit.

At the turn of the century, the young lord Vlad and his family live a peaceful life ruling over their small kingdom, but when a Turk warlord demands from Vlad a thousand boys and his son to create an army Vlad seeks a terrible power that will allow him to protect his kingdom and family from the Turks at a terrible cost.

Review 4K Movie

I remember the 1992 version of Dracula by Francis Ford Coppola and thinking that the best part of that version was the anti-heroic Prince Vlad defending Europe against the Ottoman invasion . I do believe there is a market for a historical epic featuring the true life story of Vlad the impaler . This version from 2014 does come close to it in some ways but let's be honest and say no one is going to watch any movie with Dracula in the title unless it features a vampire in the title role and one wonders how many people might have been disappointed by the marketing if not the title alone ?

One group of people who will be bitterly disappointed will be Turks . While the Persians are still recovering from their portrayal in 300 and its sequel the Muslim Turks might have just been lured in to a sense of false security after MIDNIGHT EXPRESS but low and behold along comes DU . The Turks aren't painted in a good light and one wonders if there might be a rather dubious subtext when the Sultan demands a thousand boys for his army ? That said at least Vlad himself isn't a noble traditional type of nationalist hero and the film does show him struggling against internal dilemmas . It's not really an actors type of character driven cinema but Luke Evans is suitably brooding while best performance is Dominic Cooper as Mehmed who doesn't appear on screen often enough here and is probably the film's trump card

DU isn't a masterpiece and again it's very important that you go in to this film with the knowledge it's more of a dark sword and sorcery type tale rather than a horror movie . It wasn't until after I saw it that I found out Universal Pictures might be using it to do a reboot of their monster franchise from the 1930s and 40s which explains the ending that jars with the rest of the movie . Do we genuinely want another reboot series ? As it stands this version of Dracula is more than adequate and maybe we should let Eastern European vampires stay dead

Mediainfo

movie BDRemux Video
ID : 1
Format : HEVC
Format/Info : High Efficiency Video Coding
Format profile : Main 10@L5.1@High
Codec ID : V_MPEGH/ISO/HEVC
Duration : 1 h 32 min
Bit rate : 71.5 Mb/s
Width : 3 840 pixels
Height : 2 160 pixels
Display aspect ratio : 16:9
Frame rate mode : Constant
Frame rate : 23.976 (24000/1001) FPS
Color space : YUV
Chroma subsampling : 4:2:0 (Type 2)
Bit depth : 10 bits
Bits/(Pixel*Frame) : 0.360
Stream size : 46.1 GiB (91%)
Title : Dracula.Untold.2014.2160p.BluRay.REMUX.HEVC.DTS-HD.MA.7.1
Default : Yes
Forced : No
Color range : Limited
Color primaries : BT.2020
Transfer characteristics : PQ
Matrix coefficients : BT.2020 non-constant
Mastering display color primaries : R: x=0.680000 y=0.320000, G: x=0.265000 y=0.690000, B: x=0.150000 y=0.060000, White point: x=0.312700 y=0.329000
Mastering display luminance : min: 0.0000 cd/m2, max: 1000.0000 cd/m2

Audio #1
ID : 2
Format : DTS
Format/Info : Digital Theater Systems
Format profile : X / MA / Core
Codec ID : A_DTS
Duration : 1 h 32 min
Bit rate mode : Variable / Variable / Constant
Bit rate : 5 212 kb/s / 5 212 kb/s / 1 509 kb/s
Channel(s) : Object Based / 8 channels / 6 channels
Channel positions : Object Based / Front: L C R, Side: L R, Back: L R, LFE / Front: L C R, Side: L R, LFE
Sampling rate : / 48.0 kHz / 48.0 kHz
Frame rate : 93.750 FPS (512 SPF)
Bit depth : / 24 bits / 24 bits
Compression mode : / Lossless / Lossy
Stream size : 3.36 GiB (7%)
Title : Dracula.Untold.2014.2160p.BluRay.REMUX.HEVC.DTS-HD.MA.7.1
Language : English
Default : Yes
Forced : No

Audio #2
ID : 3
Format : DTS
Format/Info : Digital Theater Systems
Codec ID : A_DTS
Duration : 1 h 32 min
Bit rate mode : Constant
Bit rate : 768 kb/s
Channel(s) : 6 channels
Channel positions : Front: L C R, Side: L R, LFE
Sampling rate : 48.0 kHz
Frame rate : 93.750 FPS (512 SPF)
Bit depth : 24 bits
Compression mode : Lossy
Stream size : 507 MiB (1%)
Title : Dracula.Untold.2014.2160p.BluRay.REMUX.HEVC.DTS-HD.MA.7.1
Language : Spanish
Default : No
Forced : No

Audio #3
ID : 4
Format : DTS
Format/Info : Digital Theater Systems
Codec ID : A_DTS
Duration : 1 h 32 min
Bit rate mode : Constant
Bit rate : 768 kb/s
Channel(s) : 6 channels
Channel positions : Front: L C R, Side: L R, LFE
Sampling rate : 48.0 kHz
Frame rate : 93.750 FPS (512 SPF)
Bit depth : 24 bits
Compression mode : Lossy
Stream size : 507 MiB (1%)
Title : Dracula.Untold.2014.2160p.BluRay.REMUX.HEVC.DTS-HD.MA.7.1
Language : French
Default : No
Forced : No

Audio #4
ID : 5
Format : AC-3
Format/Info : Audio Coding 3
Codec ID : A_AC3
Duration : 1 h 32 min
Bit rate mode : Constant
Bit rate : 192 kb/s
Channel(s) : 2 channels
Channel positions : Front: L R
Sampling rate : 48.0 kHz
Frame rate : 31.250 FPS (1536 SPF)
Bit depth : 16 bits
Compression mode : Lossy
Delay relative to video : 24 ms
Stream size : 127 MiB (0%)
Title : Dracula.Untold.2014.2160p.BluRay.REMUX.HEVC.DTS-HD.MA.7.1
Language : English
Service kind : Complete Main
Default : No
Forced : No

Text #1
ID : 6
Format : PGS
Muxing mode : zlib
Codec ID : S_HDMV/PGS
Codec ID/Info : Picture based subtitle format used on BDs/HD-DVDs
Duration : 1 h 24 min
Bit rate : 25.7 kb/s
Count of elements : 1897
Stream size : 15.4 MiB (0%)
Title : English-PGS
Language : English
Default : Yes
Forced : No

Text #2
ID : 7
Format : PGS
Muxing mode : zlib
Codec ID : S_HDMV/PGS
Codec ID/Info : Picture based subtitle format used on BDs/HD-DVDs
Duration : 1 h 24 min
Bit rate : 20.3 kb/s
Count of elements : 1478
Stream size : 12.2 MiB (0%)
Title : Spanish-PGS
Language : Spanish
Default : No
Forced : No

Text #3
ID : 8
Format : PGS
Muxing mode : zlib
Codec ID : S_HDMV/PGS
Codec ID/Info : Picture based subtitle format used on BDs/HD-DVDs
Duration : 1 h 24 min
Bit rate : 21.2 kb/s
Count of elements : 1404
Stream size : 12.7 MiB (0%)
Title : French-PGS
Language : French
Default : No
Forced : No

Text #4
ID : 9
Format : PGS
Muxing mode : zlib
Codec ID : S_HDMV/PGS
Codec ID/Info : Picture based subtitle format used on BDs/HD-DVDs
Duration : 12 min 20 s
Bit rate : 2 521 b/s
Count of elements : 22
Stream size : 228 KiB (0%)
Title : Spanish-FORCED-PGS
Language : Spanish
Default : No
Forced : No

Text #5
ID : 10
Format : PGS
Muxing mode : zlib
Codec ID : S_HDMV/PGS
Codec ID/Info : Picture based subtitle format used on BDs/HD-DVDs
Duration : 12 min 19 s
Bit rate : 2 766 b/s
Count of elements : 22
Stream size : 250 KiB (0%)
Title : French-FORCED-PGS
Language : French
Default : No
Forced : No

Menu
00:00:00.000 : en:Chapter 1
00:04:08.289 : en:Chapter 2
00:07:21.566 : en:Chapter 3
00:11:33.818 : en:Chapter 4
00:16:31.699 : en:Chapter 5
00:22:54.664 : en:Chapter 6
00:30:24.447 : en:Chapter 7
00:34:17.764 : en:Chapter 8
00:38:58.044 : en:Chapter 9
00:43:01.370 : en:Chapter 10
00:47:04.738 : en:Chapter 11
00:53:17.736 : en:Chapter 12
00:57:40.832 : en:Chapter 13
01:00:48.311 : en:Chapter 14
01:04:31.033 : en:Chapter 15
01:09:13.190 : en:Chapter 16
01:12:48.614 : en:Chapter 17
01:17:12.878 : en:Chapter 18
01:21:53.658 : en:Chapter 19
01:25:03.556 : en:Chapter 20
movie BDRip Video
ID : 1
Format : HEVC
Format/Info : High Efficiency Video Coding
Format profile : Main 10@L5.1@High
Codec ID : V_MPEGH/ISO/HEVC
Duration : 1 h 32 min
Bit rate : 16.9 Mb/s
Width : 3 840 pixels
Height : 1 600 pixels
Display aspect ratio : 2.40:1
Frame rate mode : Constant
Frame rate : 23.976 (24000/1001) FPS
Color space : YUV
Chroma subsampling : 4:2:0 (Type 2)
Bit depth : 10 bits
Bits/(Pixel*Frame) : 0.115
Stream size : 10.9 GiB (76%)
Writing library : x265 2.5+58-06979c042350:[Windows][GCC 6.2.1][64 bit] 10bit
Encoding settings : cpuid=1173503 / frame-threads=4 / numa-pools=20 / wpp / no-pmode / no-pme / no-psnr / no-ssim / log-level=2 / input-csp=1 / input-res=3840x1600 / interlace=0 / total-frames=132675 / level-idc=51 / high-tier=1 / uhd-bd=0 / ref=4 / no-allow-non-conformance / repeat-headers / annexb / aud / hrd / info / hash=0 / no-temporal-layers / no-open-gop / min-keyint=1 / keyint=24 / bframes=4 / b-adapt=2 / b-pyramid / bframe-bias=0 / rc-lookahead=25 / lookahead-slices=4 / scenecut=40 / no-intra-refresh / ctu=64 / min-cu-size=8 / rect / no-amp / max-tu-size=32 / tu-inter-depth=1 / tu-intra-depth=1 / limit-tu=0 / rdoq-level=2 / dynamic-rd=0.00 / no-ssim-rd / signhide / no-tskip / nr-intra=0 / nr-inter=0 / no-constrained-intra / no-strong-intra-smoothing / max-merge=3 / limit-refs=3 / limit-modes / me=3 / subme=3 / merange=57 / temporal-mvp / weightp / no-weightb / no-analyze-src-pics / deblock=-3:-3 / no-sao / no-sao-non-deblock / rd=4 / no-early-skip / rskip / no-fast-intra / no-tskip-fast / no-cu-lossless / no-b-intra / no-splitrd-skip / rdpenalty=0 / psy-rd=2.00 / psy-rdoq=1.00 / no-rd-refine / analysis-reuse-mode=0 / no-lossless / cbqpoffs=0 / crqpoffs=0 / rc=crf / crf=17.0 / qcomp=0.60 / qpstep=4 / stats-write=0 / stats-read=0 / vbv-maxrate=160000 / vbv-bufsize=160000 / vbv-init=0.9 / crf-max=0.0 / crf-min=0.0 / ipratio=1.40 / pbratio=1.30 / aq-mode=1 / aq-strength=1.00 / cutree / zone-count=0 / no-strict-cbr / qg-size=32 / no-rc-grain / qpmax=69 / qpmin=0 / no-const-vbv / sar=1 / overscan=0 / videoformat=5 / range=0 / colorprim=9 / transfer=16 / colormatrix=9 / chromaloc=1 / chromaloc-top=2 / chromaloc-bottom=2 / display-window=0 / master-display=G(13250,34500)B(7500,3000)R(34000,16000)WP(15635,16450)L(10000000,0) / max-cll=0,0 / min-luma=0 / max-luma=1023 / log2-max-poc-lsb=8 / vui-timing-info / vui-hrd-info / slices=1 / no-opt-qp-pps / no-opt-ref-list-length-pps / no-multi-pass-opt-rps / scenecut-bias=0.05 / no-opt-cu-delta-qp / no-aq-motion / hdr / hdr-opt / no-dhdr10-opt / analysis-reuse-level=5 / scale-factor=0 / refine-intra=0 / refine-inter=0 / refine-mv=0 / no-limit-sao / ctu-info=0 / no-lowpass-dct / refine-mv-type=0 / copy-pic=1
Default : Yes
Forced : No
Color range : Limited
Color primaries : BT.2020
Transfer characteristics : PQ
Matrix coefficients : BT.2020 non-constant
Mastering display color primaries : R: x=0.680000 y=0.320000, G: x=0.265000 y=0.690000, B: x=0.150000 y=0.060000, White point: x=0.312700 y=0.329000
Mastering display luminance : min: 0.0000 cd/m2, max: 1000.0000 cd/m2

Audio #1
ID : 2
Format : DTS
Format/Info : Digital Theater Systems
Format profile : X / MA / Core
Codec ID : A_DTS
Duration : 1 h 32 min
Bit rate mode : Variable / Variable / Constant
Bit rate : 5 212 kb/s / 5 212 kb/s / 1 509 kb/s
Channel(s) : Object Based / 8 channels / 6 channels
Channel positions : Object Based / Front: L C R, Side: L R, Back: L R, LFE / Front: L C R, Side: L R, LFE
Sampling rate : / 48.0 kHz / 48.0 kHz
Frame rate : 93.750 FPS (512 SPF)
Bit depth : / 24 bits / 24 bits
Compression mode : / Lossless / Lossy
Stream size : 3.36 GiB (23%)
Language : English
Default : Yes
Forced : No

Audio #2
ID : 3
Format : AC-3
Format/Info : Audio Coding 3
Codec ID : A_AC3
Duration : 1 h 32 min
Bit rate mode : Constant
Bit rate : 192 kb/s
Channel(s) : 2 channels
Channel positions : Front: L R
Sampling rate : 48.0 kHz
Frame rate : 31.250 FPS (1536 SPF)
Bit depth : 16 bits
Compression mode : Lossy
Stream size : 127 MiB (1%)
Title : Commentary with director Gary Shore, and production designer François Audouy
Language : English
Service kind : Complete Main
Default : No
Forced : No

Text #1
ID : 4
Format : PGS
Muxing mode : zlib
Codec ID : S_HDMV/PGS
Codec ID/Info : Picture based subtitle format used on BDs/HD-DVDs
Duration : 1 h 24 min
Bit rate : 25.7 kb/s
Count of elements : 1897
Stream size : 15.4 MiB (0%)
Title : SDH
Language : English
Default : No
Forced : No

Text #2
ID : 5
Format : PGS
Muxing mode : zlib
Codec ID : S_HDMV/PGS
Codec ID/Info : Picture based subtitle format used on BDs/HD-DVDs
Duration : 1 h 24 min
Bit rate : 20.3 kb/s
Count of elements : 1478
Stream size : 12.2 MiB (0%)
Language : Spanish
Default : No
Forced : No

Text #3
ID : 6
Format : PGS
Muxing mode : zlib
Codec ID : S_HDMV/PGS
Codec ID/Info : Picture based subtitle format used on BDs/HD-DVDs
Duration : 1 h 24 min
Bit rate : 21.2 kb/s
Count of elements : 1404
Stream size : 12.7 MiB (0%)
Language : French
Default : No
Forced : No

Menu
00:00:00.000 : en:00:00:00.000
00:04:08.290 : en:00:04:08.290
00:07:21.566 : en:00:07:21.566
00:11:33.818 : en:00:11:33.818
00:16:31.699 : en:00:16:31.699
00:22:54.665 : en:00:22:54.665
00:30:24.448 : en:00:30:24.448
00:34:17.764 : en:00:34:17.764
00:38:58.044 : en:00:38:58.044
00:43:01.370 : en:00:43:01.370
00:47:04.739 : en:00:47:04.739
00:53:17.736 : en:00:53:17.736
00:57:40.832 : en:00:57:40.832
01:00:48.311 : en:01:00:48.311
01:04:31.034 : en:01:04:31.034
01:09:13.191 : en:01:09:13.191
01:12:48.614 : en:01:12:48.614
01:17:12.878 : en:01:17:12.878
01:21:53.659 : en:01:21:53.659
01:25:03.557 : en:01:25:03.557

Download

download 4k hdr movies

You bought a premium on Takefile. Contact the TakeFile support team, they will increase your traffic up to 512 gb every 48 hours.

download 4k hdr movies

Dracula Untold 4K 2014 Ultra HD 2160p


Watch a movie trailer - Dracula Untold 4K 2014 Ultra HD 2160p
Comments and Feedback
Add your comment:
Your name:
Your E-Mail:
Enter the two words shown in the image: *