Select movie Search movie Close search My Account

Fast and Furious Presents Hobbs and Shaw 4K 2019 Ultra HD 2160p

Fast and Furious Presents Hobbs and Shaw 4K 2019 Ultra HD 2160p
BDRemux / BDRip
Country: USA
Time: 2h 17min
IMDB: 6.6
Director: David Leitch
Actors: Dwayne Johnson, Jason Statham, Idris Elba, Vanessa Kirby, Helen Mirren, Eiza Gonz?lez, Eddie Marsan, Eliana Sua, Cliff Curtis, Lori Pelenise Tuisano, John Tui, Joshua Mauga, Joe Anoa'i, Rob Delaney, Alex King.

Story Movie

Fast and Furious Presents Hobbs and Shaw 4K 2019 Ultra HD 2160p

New movies 4k Fast and Furious Presents Hobbs and Shaw UHD. Luke Hobbs is an American elite special agent, he loves comfortable sportswear, large pickups and healthy eating. Deckard Shaw - a British dude, a former intelligence officer, prefers expensive suits, sports cars and pubs.

These two cannot stand each other. But if someone threatens their families, they are ready to do anything. Even to work as a team.

Review 4K Movie

Fast and Furious Presents Hobbs and Shaw 4K is a stupid action movie that doesn't try to seem like anything else. The film is almost a parody, consisting of all kinds of cliches and action. The world is in danger, pompous tough heroes, an evil corporation with unlimited possibilities and a super-soldier, and also, of course, ugly vanillas in the best traditions of the genre.

The partners dislike each other and constantly exchange “compliments”. The level of humor is so brainless that it amuses with its form and not its content - two adult men bark at each other and compete, figuring out “whose kung fu is stronger”. However, it is necessary to save the world, and only these mutts can do it, but how could it be otherwise.

Fast and Furious Presents Hobbs and Shaw UHD are ready to get into the thick of it, spit on any logic. “Break through, no matter what” - the motto of this couple. The script works on this principle, that is, it is better to turn off the brain immediately. Ridiculous moments, dynamic chases and fights - all this about this film. And it works.

If you want to see the Hollywood thrash blockbuster “How Two Bald Men Saved the World”, then Fast and Furious Presents Hobbs and Shaw 2160p is an ideal hit. Oh yes, it’s also Forsage’s spin-offs, but in general it doesn’t matter at all.

Mediainfo

movie BDRemux Video #1
ID : 1
Format : HEVC
Format/Info : High Efficiency Video Coding
Format profile : Main 10@L5.1@High
HDR format : SMPTE ST 2094 App 4, Version 1, HDR10+ Profile B compatible
Codec ID : V_MPEGH/ISO/HEVC
Duration : 2 h 16 min
Bit rate : 63.7 Mb/s
Width : 3 840 pixels
Height : 2 160 pixels
Display aspect ratio : 16:9
Frame rate mode : Constant
Frame rate : 23.976 (24000/1001) FPS
Color space : YUV
Chroma subsampling : 4:2:0 (Type 2)
Bit depth : 10 bits
Bits/(Pixel*Frame) : 0.320
Stream size : 60.8 GiB (79%)
Title : Fast.and.Furious.Presents.Hobbs.and.Shaw.2019.2160p.BluRay.REMUX.HEVC.DTS-HD.MA.TrueHD.7.1.Atmos
Language : English
Default : No
Forced : No
Color range : Limited
Color primaries : BT.2020
Transfer characteristics : PQ
Matrix coefficients : BT.2020 non-constant
Mastering display color primaries : Display P3
Mastering display luminance : min: 0.0050 cd/m2, max: 4000 cd/m2
Maximum Content Light Level : 1000 cd/m2
Maximum Frame-Average Light Level : 419 cd/m2

Video #2
ID : 2
Format : HEVC
Format/Info : High Efficiency Video Coding
Format profile : Main 10@L5.1@High
HDR format : SMPTE ST 2086, HDR10 compatible
Codec ID : V_MPEGH/ISO/HEVC
Duration : 2 h 16 min
Bit rate : 6 988 kb/s
Width : 1 920 pixels
Height : 1 080 pixels
Display aspect ratio : 16:9
Frame rate mode : Constant
Frame rate : 23.976 (24000/1001) FPS
Color space : YUV
Chroma subsampling : 4:2:0 (Type 2)
Bit depth : 10 bits
Bits/(Pixel*Frame) : 0.141
Stream size : 6.67 GiB (9%)
Title : Fast.and.Furious.Presents.Hobbs.and.Shaw.2019.2160p.BluRay.REMUX.HEVC.DTS-HD.MA.TrueHD.7.1.Atmos
Language : English
Default : No
Forced : No
Color range : Limited
Color primaries : BT.2020
Transfer characteristics : PQ
Matrix coefficients : BT.2020 non-constant
Mastering display color primaries : Display P3
Mastering display luminance : min: 0.0050 cd/m2, max: 4000 cd/m2

Audio #1
ID : 3
Format : MLP FBA 16-ch
Format/Info : Meridian Lossless Packing FBA with 16-channel presentation
Commercial name : Dolby TrueHD with Dolby Atmos
Codec ID : A_TRUEHD
Duration : 2 h 16 min
Bit rate mode : Variable
Bit rate : 3 141 kb/s
Maximum bit rate : 5 394 kb/s
Channel(s) : 8 channels
Channel layout : L R C LFE Ls Rs Lb Rb
Sampling rate : 48.0 kHz
Frame rate : 1 200.000 FPS (40 SPF)
Compression mode : Lossless
Stream size : 3.00 GiB (4%)
Title : Fast.and.Furious.Presents.Hobbs.and.Shaw.2019.2160p.BluRay.REMUX.HEVC.DTS-HD.MA.TrueHD.7.1.Atmos
Language : English
Default : Yes
Forced : No
Number of dynamic objects : 11
Bed channel count : 1 channel
Bed channel configuration : LFE

Audio #2
ID : 4
Format : DTS XLL
Format/Info : Digital Theater Systems
Commercial name : DTS-HD Master Audio
Codec ID : A_DTS
Duration : 2 h 16 min
Bit rate mode : Variable
Bit rate : 3 995 kb/s
Channel(s) : 8 channels
Channel layout : C L R LFE Lb Rb Lss Rss
Sampling rate : 48.0 kHz
Frame rate : 93.750 FPS (512 SPF)
Bit depth : 24 bits
Compression mode : Lossless
Stream size : 3.81 GiB (5%)
Title : Fast.and.Furious.Presents.Hobbs.and.Shaw.2019.2160p.BluRay.REMUX.HEVC.DTS-HD.MA.TrueHD.7.1.Atmos
Default : No
Forced : No

Audio #3
ID : 5
Format : AC-3
Format/Info : Audio Coding 3
Commercial name : Dolby Digital
Codec ID : A_AC3
Duration : 2 h 16 min
Bit rate mode : Constant
Bit rate : 448 kb/s
Channel(s) : 6 channels
Channel layout : L R C LFE Ls Rs
Sampling rate : 48.0 kHz
Frame rate : 31.250 FPS (1536 SPF)
Bit depth : 16 bits
Compression mode : Lossy
Stream size : 438 MiB (1%)
Title : Fast.and.Furious.Presents.Hobbs.and.Shaw.2019.2160p.BluRay.REMUX.HEVC.DTS-HD.MA.TrueHD.7.1.Atmos
Language : English
Service kind : Complete Main
Default : No
Forced : No

Audio #4
ID : 6
Format : E-AC-3
Format/Info : Enhanced AC-3
Commercial name : Dolby Digital Plus
Format profile : Blu-ray Disc
Codec ID : A_EAC3
Duration : 2 h 16 min
Bit rate mode : Constant
Bit rate : 768 kb/s
Channel(s) : 8 channels
Channel layout : L R C LFE Ls Rs Lb Rb
Sampling rate : 48.0 kHz
Frame rate : 31.250 FPS (1536 SPF)
Compression mode : Lossy
Stream size : 751 MiB (1%)
Title : Fast.and.Furious.Presents.Hobbs.and.Shaw.2019.2160p.BluRay.REMUX.HEVC.DTS-HD.MA.TrueHD.7.1.Atmos
Language : Spanish
Service kind : Complete Main
Default : No
Forced : No

Audio #5
ID : 7
Format : AC-3
Format/Info : Audio Coding 3
Commercial name : Dolby Digital
Codec ID : A_AC3
Duration : 2 h 16 min
Bit rate mode : Constant
Bit rate : 448 kb/s
Channel(s) : 6 channels
Channel layout : L R C LFE Ls Rs
Sampling rate : 48.0 kHz
Frame rate : 31.250 FPS (1536 SPF)
Bit depth : 16 bits
Compression mode : Lossy
Stream size : 438 MiB (1%)
Title : Fast.and.Furious.Presents.Hobbs.and.Shaw.2019.2160p.BluRay.REMUX.HEVC.DTS-HD.MA.TrueHD.7.1.Atmos
Language : Spanish
Service kind : Complete Main
Default : No
Forced : No

Audio #6
ID : 8
Format : E-AC-3
Format/Info : Enhanced AC-3
Commercial name : Dolby Digital Plus
Format profile : Blu-ray Disc
Codec ID : A_EAC3
Duration : 2 h 16 min
Bit rate mode : Constant
Bit rate : 768 kb/s
Channel(s) : 8 channels
Channel layout : L R C LFE Ls Rs Lb Rb
Sampling rate : 48.0 kHz
Frame rate : 31.250 FPS (1536 SPF)
Compression mode : Lossy
Stream size : 751 MiB (1%)
Title : Fast.and.Furious.Presents.Hobbs.and.Shaw.2019.2160p.BluRay.REMUX.HEVC.DTS-HD.MA.TrueHD.7.1.Atmos
Language : French
Service kind : Complete Main
Default : No
Forced : No

Audio #7
ID : 9
Format : AC-3
Format/Info : Audio Coding 3
Commercial name : Dolby Digital
Codec ID : A_AC3
Duration : 2 h 16 min
Bit rate mode : Constant
Bit rate : 448 kb/s
Channel(s) : 6 channels
Channel layout : L R C LFE Ls Rs
Sampling rate : 48.0 kHz
Frame rate : 31.250 FPS (1536 SPF)
Bit depth : 16 bits
Compression mode : Lossy
Stream size : 438 MiB (1%)
Title : Fast.and.Furious.Presents.Hobbs.and.Shaw.2019.2160p.BluRay.REMUX.HEVC.DTS-HD.MA.TrueHD.7.1.Atmos
Language : French
Service kind : Complete Main
Default : No
Forced : No

Audio #8
ID : 10
Format : AC-3
Format/Info : Audio Coding 3
Commercial name : Dolby Digital
Codec ID : A_AC3
Duration : 2 h 16 min
Bit rate mode : Constant
Bit rate : 192 kb/s
Channel(s) : 2 channels
Channel layout : L R
Sampling rate : 48.0 kHz
Frame rate : 31.250 FPS (1536 SPF)
Bit depth : 16 bits
Compression mode : Lossy
Stream size : 188 MiB (0%)
Title : Fast.and.Furious.Presents.Hobbs.and.Shaw.2019.2160p.BluRay.REMUX.HEVC.DTS-HD.MA.TrueHD.7.1.Atmos
Language : English
Service kind : Complete Main
Default : No
Forced : No

Text #1
ID : 11
Format : UTF-8
Codec ID : S_TEXT/UTF8
Codec ID/Info : UTF-8 Plain Text
Duration : 2 h 16 min
Bit rate : 71 b/s
Count of elements : 1916
Stream size : 71.7 KiB (0%)
Title : English-SRT
Language : English
Default : Yes
Forced : No

Text #2
ID : 12
Format : PGS
Muxing mode : zlib
Codec ID : S_HDMV/PGS
Codec ID/Info : Picture based subtitle format used on BDs/HD-DVDs
Duration : 2 h 16 min
Bit rate : 53.8 kb/s
Count of elements : 4408
Stream size : 52.6 MiB (0%)
Title : English-PGS
Language : English
Default : No
Forced : No

Text #3
ID : 13
Format : PGS
Muxing mode : zlib
Codec ID : S_HDMV/PGS
Codec ID/Info : Picture based subtitle format used on BDs/HD-DVDs
Duration : 2 h 16 min
Bit rate : 41.7 kb/s
Count of elements : 3334
Stream size : 40.6 MiB (0%)
Title : Spanosh-PGS
Language : Spanish
Default : No
Forced : No

Text #4
ID : 14
Format : PGS
Muxing mode : zlib
Codec ID : S_HDMV/PGS
Codec ID/Info : Picture based subtitle format used on BDs/HD-DVDs
Duration : 2 h 16 min
Bit rate : 35.9 kb/s
Count of elements : 3309
Stream size : 34.9 MiB (0%)
Title : French-PGS
Language : French
Default : No
Forced : No

Text #5
ID : 15
Format : PGS
Muxing mode : zlib
Codec ID : S_HDMV/PGS
Codec ID/Info : Picture based subtitle format used on BDs/HD-DVDs
Duration : 2 h 14 min
Bit rate : 556 b/s
Count of elements : 56
Stream size : 549 KiB (0%)
Title : Spanish-FORCED-PGS
Language : Spanish
Default : No
Forced : No

Text #6
ID : 16
Format : PGS
Muxing mode : zlib
Codec ID : S_HDMV/PGS
Codec ID/Info : Picture based subtitle format used on BDs/HD-DVDs
Duration : 2 h 14 min
Bit rate : 957 b/s
Count of elements : 98
Stream size : 946 KiB (0%)
Title : French-FORCED-PGS
Language : French
Default : No
Forced : No

Menu
00:00:00.000 : en:Chapter 01
00:04:57.880 : en:Chapter 02
00:13:43.489 : en:Chapter 03
00:19:21.451 : en:Chapter 04
00:26:45.979 : en:Chapter 05
00:35:41.514 : en:Chapter 06
00:40:12.952 : en:Chapter 07
00:46:22.029 : en:Chapter 08
00:51:33.840 : en:Chapter 09
00:57:51.801 : en:Chapter 10
01:01:53.000 : en:Chapter 11
01:08:45.162 : en:Chapter 12
01:14:22.833 : en:Chapter 13
01:19:48.074 : en:Chapter 14
01:24:59.177 : en:Chapter 15
01:32:58.114 : en:Chapter 16
01:38:49.214 : en:Chapter 17
01:46:32.928 : en:Chapter 18
01:53:29.594 : en:Chapter 19
02:01:14.809 : en:Chapter 20
movie BDRip Video
ID : 1
Format : HEVC
Format/Info : High Efficiency Video Coding
Format profile : Main 10@L5.1@High
HDR format : SMPTE ST 2086, HDR10 compatible
Codec ID : V_MPEGH/ISO/HEVC
Duration : 2 h 16 min
Bit rate : 11.6 Mb/s
Width : 3 840 pixels
Height : 1 604 pixels
Display aspect ratio : 2.40:1
Frame rate mode : Constant
Frame rate : 23.976 (24000/1001) FPS
Color space : YUV
Chroma subsampling : 4:2:0 (Type 2)
Bit depth : 10 bits
Bits/(Pixel*Frame) : 0.079
Stream size : 11.1 GiB (75%)
Title : Fast.And.Furious.Presents.Hobbs.And.Shaw.2019.2160p.UHD.BluRay.x265-AAAUHD
Writing library : x265 3.2+8-7fc1f6ef2b96:[Windows][GCC 9.2.1][64 bit] 10bit
Encoding settings : cpuid=1111039 / frame-threads=5 / numa-pools=32,0 / wpp / no-pmode / no-pme / no-psnr / no-ssim / log-level=2 / input-csp=1 / input-res=3840x1604 / interlace=0 / total-frames=196646 / level-idc=51 / high-tier=1 / uhd-bd=0 / ref=4 / no-allow-non-conformance / repeat-headers / annexb / aud / hrd / info / hash=0 / no-temporal-layers / no-open-gop / min-keyint=1 / keyint=24 / gop-lookahead=0 / bframes=4 / b-adapt=2 / b-pyramid / bframe-bias=0 / rc-lookahead=25 / lookahead-slices=4 / scenecut=40 / radl=0 / no-splice / no-intra-refresh / ctu=64 / min-cu-size=8 / rect / no-amp / max-tu-size=32 / tu-inter-depth=1 / tu-intra-depth=1 / limit-tu=0 / rdoq-level=2 / dynamic-rd=0.00 / no-ssim-rd / signhide / no-tskip / nr-intra=0 / nr-inter=0 / no-constrained-intra / no-strong-intra-smoothing / max-merge=3 / limit-refs=3 / limit-modes / me=3 / subme=3 / merange=57 / temporal-mvp / no-frame-dup / no-hme / weightp / no-weightb / no-analyze-src-pics / deblock=-3:-3 / no-sao / no-sao-non-deblock / rd=4 / selective-sao=0 / no-early-skip / rskip / no-fast-intra / no-tskip-fast / no-cu-lossless / no-b-intra / no-splitrd-skip / rdpenalty=0 / psy-rd=2.00 / psy-rdoq=1.00 / no-rd-refine / no-lossless / cbqpoffs=0 / crqpoffs=0 / rc=crf / crf=17.0 / qcomp=0.60 / qpstep=4 / stats-write=0 / stats-read=0 / vbv-maxrate=160000 / vbv-bufsize=160000 / vbv-init=0.9 / crf-max=0.0 / crf-min=0.0 / ipratio=1.40 / pbratio=1.30 / aq-mode=2 / aq-strength=1.00 / cutree / zone-count=0 / no-strict-cbr / qg-size=32 / no-rc-grain / qpmax=69 / qpmin=0 / no-const-vbv / sar=1 / overscan=0 / videoformat=5 / range=0 / colorprim=9 / transfer=16 / colormatrix=9 / chromaloc=1 / chromaloc-top=2 / chromaloc-bottom=2 / display-window=0 / master-display=G(13250,34500)B(7500,3000)R(34000,16000)WP(15635,16450)L(40000000,50) / cll=1000,419 / min-luma=0 / max-luma=1023 / log2-max-poc-lsb=8 / vui-timing-info / vui-hrd-info / slices=1 / no-opt-qp-pps / no-opt-ref-list-length-pps / no-multi-pass-opt-rps / scenecut-bias=0.05 / no-opt-cu-delta-qp / no-aq-motion / hdr / hdr-opt / no-dhdr10-opt / no-idr-recovery-sei / analysis-reuse-level=5 / scale-factor=0 / refine-intra=0 / refine-inter=0 / refine-mv=1 / refine-ctu-distortion=0 / no-limit-sao / ctu-info=0 / no-lowpass-dct / refine-analysis-type=0 / copy-pic=1 / max-ausize-factor=1.0 / no-dynamic-refine / no-single-sei / no-hevc-aq / no-svt / no-field / qp-adaptation-range=1.00
Default : Yes
Forced : No
Color range : Limited
Color primaries : BT.2020
Transfer characteristics : PQ
Matrix coefficients : BT.2020 non-constant
Mastering display color primaries : Display P3
Mastering display luminance : min: 0.0050 cd/m2, max: 4000 cd/m2
Maximum Content Light Level : 1000 cd/m2
Maximum Frame-Average Light Level : 419 cd/m2

Audio #1
ID : 2
Format : MLP FBA 16-ch
Format/Info : Meridian Lossless Packing FBA with 16-channel presentation
Commercial name : Dolby TrueHD with Dolby Atmos
Codec ID : A_TRUEHD
Duration : 2 h 16 min
Bit rate mode : Variable
Bit rate : 3 141 kb/s
Maximum bit rate : 5 394 kb/s
Channel(s) : 8 channels
Channel layout : L R C LFE Ls Rs Lb Rb
Sampling rate : 48.0 kHz
Frame rate : 1 200.000 FPS (40 SPF)
Compression mode : Lossless
Stream size : 3.00 GiB (20%)
Title : English TrueHD
Language : English
Default : Yes
Forced : No
Number of dynamic objects : 11
Bed channel count : 1 channel
Bed channel configuration : LFE

Audio #2
ID : 3
Format : AC-3
Format/Info : Audio Coding 3
Commercial name : Dolby Digital
Codec ID : A_AC3
Duration : 2 h 16 min
Bit rate mode : Constant
Bit rate : 640 kb/s
Channel(s) : 6 channels
Channel layout : L R C LFE Ls Rs
Sampling rate : 48.0 kHz
Frame rate : 31.250 FPS (1536 SPF)
Bit depth : 16 bits
Compression mode : Lossy
Stream size : 626 MiB (4%)
Title : English
Language : English
Service kind : Complete Main
Default : No
Forced : No

Text #1
ID : 4
Format : UTF-8
Codec ID : S_TEXT/UTF8
Codec ID/Info : UTF-8 Plain Text
Duration : 2 h 16 min
Bit rate : 75 b/s
Count of elements : 2187
Stream size : 75.2 KiB (0%)
Title : English SDH
Language : English
Default : No
Forced : No

Text #2
ID : 5
Format : PGS
Muxing mode : zlib
Codec ID : S_HDMV/PGS
Codec ID/Info : Picture based subtitle format used on BDs/HD-DVDs
Duration : 2 h 16 min
Bit rate : 53.8 kb/s
Count of elements : 4408
Stream size : 52.6 MiB (0%)
Title : English PGS
Language : English
Default : No
Forced : No

Menu
00:00:00.000 : en:Chapter 01
00:04:58.131 : en:Chapter 02
00:13:43.489 : en:Chapter 03
00:19:21.452 : en:Chapter 04
00:26:45.979 : en:Chapter 05
00:35:41.514 : en:Chapter 06
00:40:13.244 : en:Chapter 07
00:46:22.029 : en:Chapter 08
00:51:34.216 : en:Chapter 09
00:57:51.802 : en:Chapter 10
01:01:53.251 : en:Chapter 11
01:08:45.163 : en:Chapter 12
01:14:22.833 : en:Chapter 13
01:19:48.075 : en:Chapter 14
01:24:59.261 : en:Chapter 15
01:32:58.198 : en:Chapter 16
01:38:48.923 : en:Chapter 17
01:46:32.970 : en:Chapter 18
01:53:29.594 : en:Chapter 19
02:01:14.809 : en:Chapter 20

Download

download 4k hdr movies download 4k hdr movies

Watch a movie trailer - Fast and Furious Presents Hobbs and Shaw 4K 2019 Ultra HD 2160p
Comments and Feedback
  1. - 0 +
    cialis  пишет:
    Today, 06:18
    basically image cialis for sale never breath cialis too introduction cialis 20mg there possession cialis please analysis tadalafil definitely common
Add your comment:
Your name:
Your E-Mail:
Code:
reload, if the code cannot be seen
Enter code: