Select movie Search movie Close search My Account

Logan 4K 2017 Ultra HD 2160p

Logan 4K 2017 Ultra HD 2160p
BDRemux / BDRip
Country: USA
Time: 2h 17min
IMDB: 8.1
Director: James Mangold
Actors: Hugh Jackman, Patrick Stewart, Dafne Keen, Boyd Holbrook, Stephen Merchant, Elizabeth Rodriguez, Richard E. Grant, Eriq La Salle, Elise Neal, Quincy Fouse, Al Coronel, Frank Gallegos, Anthony Escobar, Reynaldo Gallegos, Krzysztof Soszynski...

Story Movie

In the near future, a weary Logan cares for an ailing Professor X, somewhere on the Mexican border. However, Logan's attempts to hide from the world, and his legacy, are upended when a young mutant arrives, pursued by dark forces.

In 2029 the mutant population has shrunken significantly due to genetically modified plants designed to reduce mutant powers and the X-Men have disbanded. Logan, whose power to self-heal is dwindling, has surrendered himself to alcohol and now earns a living as a chauffeur. He takes care of the ailing old Professor X whom he keeps hidden away. One day, a female stranger asks Logan to drive a girl named Laura to the Canadian border. At first he refuses, but the Professor has been waiting for a long time for her to appear. Laura possesses an extraordinary fighting prowess and is in many ways like Wolverine. She is pursued by sinister figures working for a powerful corporation; this is because they made her, with Logan's DNA. A decrepit Logan is forced to ask himself if he can or even wants to put his remaining powers to good use. It would appear that in the near-future, the times in which they were able put the world to rights with razor sharp claws and telepathic powers are now over.

Review 4K Movie

This is a wolverine movie aimed at adults and definitely not for small children. The story is set in the future and Logan is taking care of Charles Xavier who has grown old and is incapable of taking care of himself. Logan, himself is now older and his health is slowly deteriorating as well. A young girl mutant enters their lives which sets off a story, which is not about super heroes fighting bad guys, but one that is on a more human level. "Logan", is a beautifully made X-Men film that deals with themes of importance of family, loyalty, and ultimately how Logan himself deals with new found emotions which he is experiencing for the very first time in his life.

This is the crowning achievement in Hugh Jackman's role as Wolverine. It is the movie he and director, James Mangold had always wanted to make. It is a dramatic work of art and for X-Men fans, has plenty of action and special FX which are a definite cut above anything that has been seen before in Wolverine/X-Men films.

A MUST SEE FOR ANY FAN AND A GOOD ENOUGH FILM TO STAND ALONE FOR ANYONE!!

Mediainfo

movie BDRemux Video
ID : 1
Format : HEVC
Format/Info : High Efficiency Video Coding
Format profile : Main 10@L5.1@High
Codec ID : V_MPEGH/ISO/HEVC
Duration : 2 h 17 min
Bit rate : 35.0 Mb/s
Width : 3 840 pixels
Height : 2 160 pixels
Display aspect ratio : 16:9
Frame rate mode : Constant
Frame rate : 23.976 (24000/1001) FPS
Color space : YUV
Chroma subsampling : 4:2:0 (Type 2)
Bit depth : 10 bits
Bits/(Pixel*Frame) : 0.176
Stream size : 33.6 GiB (73%)
Title : Logan.2017.2160p.BluRay.REMUX.HEVC.DTS-HD.MA.TrueHD.7.1.Atmos-FGT
Writing library : ATEME Titan File 3.7.8 (4.7.8.0)
Default : Yes
Forced : No
Color range : Limited
Color primaries : BT.2020
Transfer characteristics : SMPTE ST 2084
Matrix coefficients : BT.2020 non-constant
Mastering display color primaries : R: x=0.680000 y=0.320000, G: x=0.265000 y=0.690000, B: x=0.150000 y=0.060000, White point: x=0.312700 y=0.329000
Mastering display luminance : min: 0.0050 cd/m2, max: 1000.0000 cd/m2

Audio #1
ID : 2
Format : TrueHD
Format profile : TrueHD+Atmos / TrueHD
Codec ID : A_TRUEHD
Duration : 2 h 17 min
Bit rate mode : Variable
Bit rate : 4 998 kb/s
Maximum bit rate : 9 255 kb/s
Channel(s) : Object Based / 8 channels
Channel positions : Object Based / Front: L C R, Side: L R, Back: L R, LFE
Sampling rate : / 48.0 kHz
Frame rate : 1 200.000 FPS (40 spf)
Compression mode : Lossless
Delay relative to video : 32 ms
Stream size : 4.80 GiB (10%)
Title : Logan.2017.2160p.BluRay.REMUX.HEVC.DTS-HD.MA.TrueHD.7.1.Atmos-FGT
Language : English
Default : Yes
Forced : No

Audio #2
ID : 3
Format : DTS
Format/Info : Digital Theater Systems
Format profile : MA / Core
Mode : 16
Format settings, Endianness : Big
Codec ID : A_DTS
Duration : 2 h 17 min
Bit rate mode : Variable / Constant
Bit rate : 3 700 kb/s / 1 509 kb/s
Channel(s) : 8 channels / 6 channels
Channel positions : Front: L C R, Side: L R, Back: L R, LFE / Front: L C R, Side: L R, LFE
Sampling rate : 48.0 kHz
Frame rate : 93.750 FPS (512 spf)
Bit depth : 24 bits
Compression mode : Lossless / Lossy
Stream size : 3.55 GiB (8%)
Title : Logan.2017.2160p.BluRay.REMUX.HEVC.DTS-HD.MA.TrueHD.7.1.Atmos-FGT
Language : English
Default : No
Forced : No

Audio #3
ID : 4
Format : AC-3
Format/Info : Audio Coding 3
Format settings, Endianness : Big
Codec ID : A_AC3
Duration : 2 h 17 min
Bit rate mode : Constant
Bit rate : 640 kb/s
Channel(s) : 6 channels
Channel positions : Front: L C R, Side: L R, LFE
Sampling rate : 48.0 kHz
Frame rate : 31.250 FPS (1536 spf)
Bit depth : 16 bits
Compression mode : Lossy
Delay relative to video : 32 ms
Stream size : 629 MiB (1%)
Title : Logan.2017.2160p.BluRay.REMUX.HEVC.DTS-HD.MA.TrueHD.7.1.Atmos-FGT
Language : English
Service kind : Complete Main
Default : No
Forced : No

Audio #4
ID : 5
Format : DTS
Format/Info : Digital Theater Systems
Format profile : MA / Core
Mode : 16
Format settings, Endianness : Big
Codec ID : A_DTS
Duration : 2 h 17 min
Bit rate mode : Variable / Constant
Bit rate : 2 048 kb/s / 1 509 kb/s
Channel(s) : 2 channels
Channel positions : Front: L R
Sampling rate : 48.0 kHz
Frame rate : 93.750 FPS (512 spf)
Bit depth : 24 bits
Compression mode : Lossless / Lossy
Stream size : 1.98 GiB (4%)
Title : Logan.2017.2160p.BluRay.REMUX.HEVC.DTS-HD.MA.TrueHD.7.1.Atmos-FGT
Language : English
Default : No
Forced : No

Audio #5
ID : 6
Format : AC-3
Format/Info : Audio Coding 3
Format settings, Endianness : Big
Codec ID : A_AC3
Duration : 2 h 17 min
Bit rate mode : Constant
Bit rate : 448 kb/s
Channel(s) : 6 channels
Channel positions : Front: L C R, Side: L R, LFE
Sampling rate : 48.0 kHz
Frame rate : 31.250 FPS (1536 spf)
Bit depth : 16 bits
Compression mode : Lossy
Stream size : 440 MiB (1%)
Title : Logan.2017.2160p.BluRay.REMUX.HEVC.DTS-HD.MA.TrueHD.7.1.Atmos-FGT
Language : English
Service kind : Complete Main
Default : No
Forced : No

Audio #6
ID : 7
Format : AC-3
Format/Info : Audio Coding 3
Format settings, Endianness : Big
Codec ID : A_AC3
Duration : 2 h 17 min
Bit rate mode : Constant
Bit rate : 448 kb/s
Channel(s) : 6 channels
Channel positions : Front: L C R, Side: L R, LFE
Sampling rate : 48.0 kHz
Frame rate : 31.250 FPS (1536 spf)
Bit depth : 16 bits
Compression mode : Lossy
Stream size : 440 MiB (1%)
Title : Logan.2017.2160p.BluRay.REMUX.HEVC.DTS-HD.MA.TrueHD.7.1.Atmos-FGT
Language : Spanish
Service kind : Complete Main
Default : No
Forced : No

Audio #7
ID : 8
Format : AC-3
Format/Info : Audio Coding 3
Format settings, Endianness : Big
Codec ID : A_AC3
Duration : 2 h 17 min
Bit rate mode : Constant
Bit rate : 448 kb/s
Channel(s) : 6 channels
Channel positions : Front: L C R, Side: L R, LFE
Sampling rate : 48.0 kHz
Frame rate : 31.250 FPS (1536 spf)
Bit depth : 16 bits
Compression mode : Lossy
Stream size : 440 MiB (1%)
Title : Logan.2017.2160p.BluRay.REMUX.HEVC.DTS-HD.MA.TrueHD.7.1.Atmos-FGT
Language : French
Service kind : Complete Main
Default : No
Forced : No

Audio #8
ID : 9
Format : AC-3
Format/Info : Audio Coding 3
Format settings, Endianness : Big
Codec ID : A_AC3
Duration : 2 h 17 min
Bit rate mode : Constant
Bit rate : 224 kb/s
Channel(s) : 2 channels
Channel positions : Front: L R
Sampling rate : 48.0 kHz
Frame rate : 31.250 FPS (1536 spf)
Bit depth : 16 bits
Compression mode : Lossy
Stream size : 220 MiB (0%)
Title : Logan.2017.2160p.BluRay.REMUX.HEVC.DTS-HD.MA.TrueHD.7.1.Atmos-FGT
Language : English
Service kind : Complete Main
Default : No
Forced : No

Text #1
ID : 10
Format : PGS
Muxing mode : zlib
Codec ID : S_HDMV/PGS
Codec ID/Info : Picture based subtitle format used on BDs/HD-DVDs
Duration : 2 h 13 min
Bit rate : 33.9 kb/s
Count of elements : 3902
Stream size : 32.5 MiB (0%)
Title : English-PGS
Language : English
Default : Yes
Forced : No

Text #2
ID : 11
Format : PGS
Muxing mode : zlib
Codec ID : S_HDMV/PGS
Codec ID/Info : Picture based subtitle format used on BDs/HD-DVDs
Duration : 2 h 16 min
Bit rate : 23.2 kb/s
Count of elements : 2752
Stream size : 22.6 MiB (0%)
Title : Spanish-PGS
Language : Spanish
Default : No
Forced : No

Text #3
ID : 12
Format : PGS
Muxing mode : zlib
Codec ID : S_HDMV/PGS
Codec ID/Info : Picture based subtitle format used on BDs/HD-DVDs
Duration : 2 h 16 min
Bit rate : 25.7 kb/s
Count of elements : 3122
Stream size : 25.1 MiB (0%)
Title : French-PGS
Language : French
Default : No
Forced : No

Menu
00:00:00.000 : en:Chapter 1
00:05:35.126 : en:Chapter 2
00:09:18.558 : en:Chapter 3
00:11:41.158 : en:Chapter 4
00:16:23.232 : en:Chapter 5
00:20:11.668 : en:Chapter 6
00:24:26.715 : en:Chapter 7
00:26:11.903 : en:Chapter 8
00:30:13.311 : en:Chapter 9
00:31:59.125 : en:Chapter 10
00:34:56.886 : en:Chapter 11
00:39:53.432 : en:Chapter 12
00:42:55.573 : en:Chapter 13
00:45:03.826 : en:Chapter 14
00:47:53.412 : en:Chapter 15
00:49:39.559 : en:Chapter 16
00:52:14.422 : en:Chapter 17
00:54:30.517 : en:Chapter 18
00:57:44.210 : en:Chapter 19
01:00:10.398 : en:Chapter 20
01:03:53.830 : en:Chapter 21
01:06:55.511 : en:Chapter 22
01:09:54.773 : en:Chapter 23
01:13:15.891 : en:Chapter 24
01:18:43.593 : en:Chapter 25
01:21:50.906 : en:Chapter 26
01:25:52.188 : en:Chapter 27
01:28:38.813 : en:Chapter 28
01:32:41.430 : en:Chapter 29
01:35:29.724 : en:Chapter 30
01:41:03.432 : en:Chapter 31
01:43:39.880 : en:Chapter 32
01:49:38.989 : en:Chapter 33
01:54:20.562 : en:Chapter 34
01:57:00.430 : en:Chapter 35
01:59:20.403 : en:Chapter 36
02:01:14.433 : en:Chapter 37
02:05:09.627 : en:Chapter 38
02:06:40.551 : en:Chapter 39
02:11:07.860 : en:Chapter 40
movie BDRip Video
ID : 1
Format : HEVC
Format/Info : High Efficiency Video Coding
Format profile : Main 10@L5.1@High
Codec ID : V_MPEGH/ISO/HEVC
Duration : 2 h 17 min
Bit rate : 10.5 Mb/s
Width : 3 840 pixels
Height : 1 608 pixels
Display aspect ratio : 2.40:1
Frame rate mode : Constant
Frame rate : 23.976 (24000/1001) FPS
Color space : YUV
Chroma subsampling : 4:2:0 (Type 2)
Bit depth : 10 bits
Bits/(Pixel*Frame) : 0.071
Stream size : 10.1 GiB (64%)
Writing library : x265 2.5+58-06979c042350:[Windows][GCC 6.2.1][64 bit] 10bit
Encoding settings : cpuid=1050111 / frame-threads=4 / numa-pools=15,15 / wpp / no-pmode / no-pme / no-psnr / no-ssim / log-level=2 / input-csp=1 / input-res=3840x1608 / interlace=0 / total-frames=197641 / level-idc=51 / high-tier=1 / uhd-bd=0 / ref=4 / no-allow-non-conformance / repeat-headers / annexb / aud / hrd / info / hash=0 / no-temporal-layers / no-open-gop / min-keyint=1 / keyint=24 / bframes=4 / b-adapt=2 / b-pyramid / bframe-bias=0 / rc-lookahead=25 / lookahead-slices=4 / scenecut=40 / no-intra-refresh / ctu=64 / min-cu-size=8 / rect / no-amp / max-tu-size=32 / tu-inter-depth=1 / tu-intra-depth=1 / limit-tu=0 / rdoq-level=2 / dynamic-rd=0.00 / no-ssim-rd / signhide / no-tskip / nr-intra=0 / nr-inter=0 / no-constrained-intra / no-strong-intra-smoothing / max-merge=3 / limit-refs=3 / limit-modes / me=3 / subme=3 / merange=57 / temporal-mvp / weightp / no-weightb / no-analyze-src-pics / deblock=-3:-3 / no-sao / no-sao-non-deblock / rd=4 / no-early-skip / rskip / no-fast-intra / no-tskip-fast / no-cu-lossless / no-b-intra / no-splitrd-skip / rdpenalty=0 / psy-rd=2.00 / psy-rdoq=1.00 / no-rd-refine / analysis-reuse-mode=0 / no-lossless / cbqpoffs=0 / crqpoffs=0 / rc=crf / crf=17.0 / qcomp=0.60 / qpstep=4 / stats-write=0 / stats-read=0 / vbv-maxrate=160000 / vbv-bufsize=160000 / vbv-init=0.9 / crf-max=0.0 / crf-min=0.0 / ipratio=1.40 / pbratio=1.30 / aq-mode=1 / aq-strength=1.00 / cutree / zone-count=0 / no-strict-cbr / qg-size=32 / no-rc-grain / qpmax=69 / qpmin=0 / no-const-vbv / sar=1 / overscan=0 / videoformat=5 / range=0 / colorprim=9 / transfer=16 / colormatrix=9 / chromaloc=1 / chromaloc-top=2 / chromaloc-bottom=2 / display-window=0 / master-display=G(13250,34500)B(7500,3000)R(34000,16000)WP(15635,16450)L(10000000,50) / max-cll=0,0 / min-luma=0 / max-luma=1023 / log2-max-poc-lsb=8 / vui-timing-info / vui-hrd-info / slices=1 / no-opt-qp-pps / no-opt-ref-list-length-pps / no-multi-pass-opt-rps / scenecut-bias=0.05 / no-opt-cu-delta-qp / no-aq-motion / hdr / hdr-opt / no-dhdr10-opt / analysis-reuse-level=5 / scale-factor=0 / refine-intra=0 / refine-inter=0 / refine-mv=0 / no-limit-sao / ctu-info=0 / no-lowpass-dct / refine-mv-type=0 / copy-pic=1
Default : Yes
Forced : No
Color range : Limited
Color primaries : BT.2020
Transfer characteristics : PQ
Matrix coefficients : BT.2020 non-constant
Mastering display color primaries : R: x=0.680000 y=0.320000, G: x=0.265000 y=0.690000, B: x=0.150000 y=0.060000, White point: x=0.312700 y=0.329000
Mastering display luminance : min: 0.0050 cd/m2, max: 1000.0000 cd/m2

Audio #1
ID : 2
Format : TrueHD
Format profile : TrueHD+Atmos / TrueHD
Codec ID : A_TRUEHD
Duration : 2 h 17 min
Bit rate mode : Variable
Bit rate : 4 998 kb/s
Maximum bit rate : 9 255 kb/s
Channel(s) : Object Based / 8 channels
Channel positions : Object Based / Front: L C R, Side: L R, Back: L R, LFE
Sampling rate : / 48.0 kHz
Frame rate : 1 200.000 FPS (40 SPF)
Compression mode : Lossless
Stream size : 4.80 GiB (30%)
Language : English
Default : Yes
Forced : No

Audio #2
ID : 3
Format : AC-3
Format/Info : Audio Coding 3
Codec ID : A_AC3
Duration : 2 h 17 min
Bit rate mode : Constant
Bit rate : 640 kb/s
Channel(s) : 6 channels
Channel positions : Front: L C R, Side: L R, LFE
Sampling rate : 48.0 kHz
Frame rate : 31.250 FPS (1536 SPF)
Bit depth : 16 bits
Compression mode : Lossy
Stream size : 629 MiB (4%)
Language : English
Service kind : Complete Main
Default : No
Forced : No

Audio #3
ID : 4
Format : AC-3
Format/Info : Audio Coding 3
Codec ID : A_AC3
Duration : 2 h 17 min
Bit rate mode : Constant
Bit rate : 224 kb/s
Channel(s) : 2 channels
Channel positions : Front: L R
Sampling rate : 48.0 kHz
Frame rate : 31.250 FPS (1536 SPF)
Bit depth : 16 bits
Compression mode : Lossy
Stream size : 220 MiB (1%)
Title : Commentary with director James Mangold
Language : English
Service kind : Complete Main
Default : No
Forced : No

Text #1
ID : 5
Format : PGS
Muxing mode : zlib
Codec ID : S_HDMV/PGS
Codec ID/Info : Picture based subtitle format used on BDs/HD-DVDs
Duration : 2 h 13 min
Bit rate : 33.9 kb/s
Count of elements : 3902
Stream size : 32.5 MiB (0%)
Title : SDH
Language : English
Default : No
Forced : No

Text #2
ID : 6
Format : PGS
Muxing mode : zlib
Codec ID : S_HDMV/PGS
Codec ID/Info : Picture based subtitle format used on BDs/HD-DVDs
Duration : 2 h 16 min
Bit rate : 23.2 kb/s
Count of elements : 2752
Stream size : 22.6 MiB (0%)
Language : Spanish
Default : No
Forced : No

Text #3
ID : 7
Format : PGS
Muxing mode : zlib
Codec ID : S_HDMV/PGS
Codec ID/Info : Picture based subtitle format used on BDs/HD-DVDs
Duration : 2 h 16 min
Bit rate : 25.7 kb/s
Count of elements : 3122
Stream size : 25.1 MiB (0%)
Language : French
Default : No
Forced : No

Menu
00:00:00.000 : en:00:00:00.000
00:05:35.126 : en:00:05:35.126
00:09:18.558 : en:00:09:18.558
00:11:41.159 : en:00:11:41.159
00:16:23.232 : en:00:16:23.232
00:20:11.669 : en:00:20:11.669
00:24:26.715 : en:00:24:26.715
00:26:11.904 : en:00:26:11.904
00:30:13.311 : en:00:30:13.311
00:31:59.126 : en:00:31:59.126
00:34:56.886 : en:00:34:56.886
00:39:53.433 : en:00:39:53.433
00:42:55.573 : en:00:42:55.573
00:45:03.826 : en:00:45:03.826
00:47:53.412 : en:00:47:53.412
00:49:39.560 : en:00:49:39.560
00:52:14.423 : en:00:52:14.423
00:54:30.517 : en:00:54:30.517
00:57:44.211 : en:00:57:44.211
01:00:10.398 : en:01:00:10.398
01:03:53.830 : en:01:03:53.830
01:06:55.511 : en:01:06:55.511
01:09:54.774 : en:01:09:54.774
01:13:15.891 : en:01:13:15.891
01:18:43.594 : en:01:18:43.594
01:21:50.906 : en:01:21:50.906
01:25:52.189 : en:01:25:52.189
01:28:38.813 : en:01:28:38.813
01:32:41.431 : en:01:32:41.431
01:35:29.724 : en:01:35:29.724
01:41:03.432 : en:01:41:03.432
01:43:39.880 : en:01:43:39.880
01:49:38.989 : en:01:49:38.989
01:54:20.562 : en:01:54:20.562
01:57:00.430 : en:01:57:00.430
01:59:20.403 : en:01:59:20.403
02:01:14.434 : en:02:01:14.434
02:05:09.627 : en:02:05:09.627
02:06:40.551 : en:02:06:40.551
02:11:07.860 : en:02:11:07.860

Download

download 4k hdr movies

You bought a premium on Takefile. Contact the TakeFile support team, they will increase your traffic up to 512 gb every 48 hours.

download 4k hdr movies

Logan 4K 2017 Ultra HD 2160p


Watch a movie trailer - Logan 4K 2017 Ultra HD 2160p
Comments and Feedback
Add your comment:
Your name:
Your E-Mail:
Enter the two words shown in the image: *