Select movie Search movie Close search My Account

X-Men: Days of Future Past 4K 2014 Ultra HD 2160p

X-Men: Days of Future Past 4K 2014 Ultra HD 2160p
BDRemux / BDRip
Country: USA | UK | Canada
Time: 2h 12min
IMDB: 8.00
Director: Bryan Singer
Actors: Hugh Jackman, James McAvoy, Michael Fassbender, Jennifer Lawrence, Halle Berry, Nicholas Hoult, Anna Paquin, Ellen Page, Peter Dinklage, Shawn Ashmore, Omar Sy, Evan Peters, Josh Helman, Daniel Cudmore, Bingbing Fan...

Story Movie

The X-Men send Wolverine to the past in a desperate effort to change history and prevent an event that results in doom for both humans and mutants.

In the future, the mutants and the humans that help them are slaughtered by powerful robots named Sentinels. Professor Xavier, Wolverine, Magneto, Storm, Kitty Pryde and her friends meet at a monastery in China and Xavier explains that the invincible Sentinels were created using the DNA of Mystique that was captured in 1973 when she tried to assassinate their creator Dr. Bolivar Trask. Xavier tells that their only chance is return to 1973 using Pryde's ability to join Charles Xavier and Erik Lehnsherr to convince Mystique to give up of her intention. . However, only Wolverine can withstand the damages of the time travel. Will he succeed in stopping Mystique and the Sentinel Program and save the mutants and their human friends from annihilation?

Review 4K Movie

With its mind-boggling premise and jaw-dropping cast, X-Men: Days Of Future Past blasts into cinemas bearing the weight of great expectations. Surely this mash-up of X-Men past and future has the potential to be the best superhero blockbuster our world will ever see? Well, yes and no.

To be strictly objective, Days Of Future Past can occasionally come off as a little too earnest, its enormous cast of characters getting somewhat lost in the grinding of its narrative gears. But, when it works (which is most of the time), Days Of Future Past comes pretty darn close to nerdvana – this is a smart, rich film that effectively mines its source material (both the movies and Chris Claremont's classic 1981 storyline in the comic books) and its incredible cast for emotion, power and depth.

Flash forward to the bleakest of futures. X-Men we have known – led by perennial frenemies Professor Charles Xavier (Patrick Stewart) and Erik Lensherr/Magneto (Ian McKellen) – are being hunted mercilessly by a horde of intelligent, death-mongering robots known as Sentinels. With little hope for survival, the desperate X-Men decide to send Wolverine (Hugh Jackman) back in time to the 1970s. There, he must find the younger Charles (James McAvoy) and Erik (Michael Fassbender) – several years estranged after the traumatic events of X-Men: First Class – and get them to change the future before it can happen.

Sounds simple enough? Not really. Days Of Future Past frequently threatens to fall foul of its complicated puzzle-box of a narrative, one that involves time travel, quantum physics and a swirling mess of characters, action and motivations. There's Dr. Bolivar Trask (Peter Dinklage), creator of the Sentinel programme, whose assassination in the past by Charles' pseudo-sister Raven (Jennifer Lawrence) brings about the dystopia of the future. There are prison breaks, astral projections, and several grisly mutant deaths. Truthfully, this incredibly ambitious mix of character, plot and spectacle could very easily go horribly wrong.

What's so impressive about director Bryan Singer's return to the franchise is how well he weaves all the disparate threads of his narrative together. This is emphatically not the Singer who gave us mediocre misfires like Superman Returns and Jack The Giant Slayer. Rather, this is the work of the Singer who made his mark with films like X1, X2 and The Usual Suspects, all of which featured a masterful blend of wit and wisdom, character and story.

In Days Of Future Past, Singer skilfully plays on the schism that opened up between Erik and Charles at the end of First Class to add welcome depths of emotion to the high stakes already in play. The deep, difficult relationship between the two men has always been the fulcrum of the series, and Singer allows it to breathe and grow. With the help of McAvoy and Fassbender (not to mention Stewart and McKellen), some of the best actors in the business, the director makes it possible to believe that resentment can give way to forgiveness, and vice versa, often in the blink of an eye. McAvoy, in particular, gives a shudderingly good performance as a man called upon to help others when he's lost his own way.

With such an enormous revolving cast of characters, Singer even manages to give many – though not all – of them their hearts and souls. (Alas, Storm/Ororo, we will never know ye!) Thrust into the unlikely role of mentor to the broken, heartsore Charles, Wolverine must find a different sort of strength and ingenuity within himself. Jackman plays the role beautifully, anchoring the two timelines with charm and gravitas. Though still something of an awkward fit for her part, Lawrence, too, plays Raven's dilemma very well, as she wavers between Charles' offer of hope and Erik's often bloody single-mindedness.

But Days Of Future Past doesn't just mire itself in the toss and tumble of its characters' emotional journeys. Singer throws in a few crackerjack action sequences, opening the film with a heart-stopping massacre that very effectively underscores the dire threat posed by the Sentinels of the future. Crucially, Singer also finds the time and space within the darkest shadows of his story to have a little fun, judiciously tossing quips and sight gags into the mix – particularly in a tour de force prison break sequence, in which the preternaturally speedy Pietro Maximoff (Evan Peters), better known to comic aficionados as Quicksilver, literally runs away with the entire show.

Make no mistake about it, this is a behemoth of a film that won't go down well with everybody. Newbies will almost certainly find themselves lost, bewildered, and perhaps even bored. Singer's tale sprawls in so many directions that, if you're not at least marginally invested in the characters, it could prove to be a trying experience.

But, for everyone else, ranging from casual fans to enthusiasts and obsessives, Singer and screenwriter Simon Kinberg have crafted something truly remarkable. Steeped in history and lore, both of the cinematic and comic-book variety, Days Of Future Past feels like a dark love letter to the spirit of that original band of mutants and the message of hope, tolerance and humanity that has always accompanied their attempts to find their place on Earth.

Most remarkably of all, Days Of Future Past practically radiates a bravery and freshness that you'd never expect from the seventh film in a blockbuster franchise. Instead of playing it safe and sound, Days Of Future Past mashes up past, present and future, sweeping up a lot of what has been taken for granted in the X-Men cinematic universe and, well, chucking it out of the proverbial window. The ending of this film truly opens up an intriguing plethora of narrative possibilities that stretch in any and all directions. On the strength of this outing, that's something to be anticipated, rather than feared.

Mediainfo

movie BDRemux Video
ID : 1
Format : HEVC
Format/Info : High Efficiency Video Coding
Format profile : Main 10@L5.1@High
Codec ID : V_MPEGH/ISO/HEVC
Duration : 2 h 11 min
Bit rate : 44.9 Mb/s
Width : 3 840 pixels
Height : 2 160 pixels
Display aspect ratio : 16:9
Frame rate mode : Constant
Frame rate : 23.976 (24000/1001) FPS
Color space : YUV
Chroma subsampling : 4:2:0 (Type 2)
Bit depth : 10 bits
Bits/(Pixel*Frame) : 0.226
Stream size : 41.2 GiB (82%)
Title : X-Men.Days.of.Future.Past.2014.2160p.BluRay.REMUX.HEVC.DTS-HD.MA.7.1-FGT
Writing library : ATEME Titan KFE 3.7.3 (4.7.3.1001)
Default : Yes
Forced : No
Color range : Limited
Color primaries : BT.2020
Transfer characteristics : PQ
Matrix coefficients : BT.2020 non-constant
Mastering display color primaries : R: x=0.680000 y=0.320000, G: x=0.265000 y=0.690000, B: x=0.150000 y=0.060000, White point: x=0.312700 y=0.329000
Mastering display luminance : min: 0.0000 cd/m2, max: 1100.0000 cd/m2

Audio #1
ID : 2
Format : DTS
Format/Info : Digital Theater Systems
Format profile : MA / ES Matrix / Core
Codec ID : A_DTS
Duration : 2 h 11 min
Bit rate mode : Variable / Constant / Constant
Bit rate : 5 490 kb/s / 1 509 kb/s / 1 509 kb/s
Channel(s) : 8 channels / 7 channels / 6 channels
Channel positions : Front: L C R, Side: L R, Back: L R, LFE / Front: L C R, Side: L R, Back: C, LFE / Front: L C R, Side: L R, LFE
Sampling rate : 48.0 kHz
Frame rate : 93.750 FPS (512 SPF)
Bit depth : 24 bits
Compression mode : Lossless / Lossy / Lossy
Stream size : 5.05 GiB (10%)
Title : X-Men.Days.of.Future.Past.2014.2160p.BluRay.REMUX.HEVC.DTS-HD.MA.7.1-FGT
Language : English
Default : Yes
Forced : No

Audio #2
ID : 3
Format : AC-3
Format/Info : Audio Coding 3
Codec ID : A_AC3
Duration : 2 h 11 min
Bit rate mode : Constant
Bit rate : 448 kb/s
Channel(s) : 6 channels
Channel positions : Front: L C R, Side: L R, LFE
Sampling rate : 48.0 kHz
Frame rate : 31.250 FPS (1536 SPF)
Bit depth : 16 bits
Compression mode : Lossy
Stream size : 422 MiB (1%)
Title : X-Men.Days.of.Future.Past.2014.2160p.BluRay.REMUX.HEVC.DTS-HD.MA.7.1-FGT
Language : English
Service kind : Complete Main
Default : No
Forced : No

Audio #3
ID : 4
Format : AC-3
Format/Info : Audio Coding 3
Codec ID : A_AC3
Duration : 2 h 11 min
Bit rate mode : Constant
Bit rate : 448 kb/s
Channel(s) : 6 channels
Channel positions : Front: L C R, Side: L R, LFE
Sampling rate : 48.0 kHz
Frame rate : 31.250 FPS (1536 SPF)
Bit depth : 16 bits
Compression mode : Lossy
Stream size : 422 MiB (1%)
Title : X-Men.Days.of.Future.Past.2014.2160p.BluRay.REMUX.HEVC.DTS-HD.MA.7.1-FGT
Language : Spanish
Service kind : Complete Main
Default : No
Forced : No

Audio #4
ID : 5
Format : DTS
Format/Info : Digital Theater Systems
Codec ID : A_DTS
Duration : 2 h 11 min
Bit rate mode : Constant
Bit rate : 768 kb/s
Channel(s) : 6 channels
Channel positions : Front: L C R, Side: L R, LFE
Sampling rate : 48.0 kHz
Frame rate : 93.750 FPS (512 SPF)
Bit depth : 24 bits
Compression mode : Lossy
Stream size : 723 MiB (1%)
Title : X-Men.Days.of.Future.Past.2014.2160p.BluRay.REMUX.HEVC.DTS-HD.MA.7.1-FGT
Language : French
Default : No
Forced : No

Audio #5
ID : 6
Format : DTS
Format/Info : Digital Theater Systems
Codec ID : A_DTS
Duration : 2 h 11 min
Bit rate mode : Constant
Bit rate : 768 kb/s
Channel(s) : 6 channels
Channel positions : Front: L C R, Side: L R, LFE
Sampling rate : 48.0 kHz
Frame rate : 93.750 FPS (512 SPF)
Bit depth : 24 bits
Compression mode : Lossy
Stream size : 723 MiB (1%)
Title : X-Men.Days.of.Future.Past.2014.2160p.BluRay.REMUX.HEVC.DTS-HD.MA.7.1-FGT
Language : German
Default : No
Forced : No

Audio #6
ID : 7
Format : DTS
Format/Info : Digital Theater Systems
Codec ID : A_DTS
Duration : 2 h 11 min
Bit rate mode : Constant
Bit rate : 768 kb/s
Channel(s) : 6 channels
Channel positions : Front: L C R, Side: L R, LFE
Sampling rate : 48.0 kHz
Frame rate : 93.750 FPS (512 SPF)
Bit depth : 24 bits
Compression mode : Lossy
Stream size : 723 MiB (1%)
Title : X-Men.Days.of.Future.Past.2014.2160p.BluRay.REMUX.HEVC.DTS-HD.MA.7.1-FGT
Language : Italian
Default : No
Forced : No

Audio #7
ID : 8
Format : DTS
Format/Info : Digital Theater Systems
Codec ID : A_DTS
Duration : 2 h 11 min
Bit rate mode : Constant
Bit rate : 768 kb/s
Channel(s) : 6 channels
Channel positions : Front: L C R, Side: L R, LFE
Sampling rate : 48.0 kHz
Frame rate : 93.750 FPS (512 SPF)
Bit depth : 24 bits
Compression mode : Lossy
Stream size : 723 MiB (1%)
Title : X-Men.Days.of.Future.Past.2014.2160p.BluRay.REMUX.HEVC.DTS-HD.MA.7.1-FGT
Language : Japanese
Default : No
Forced : No

Audio #8
ID : 9
Format : AC-3
Format/Info : Audio Coding 3
Codec ID : A_AC3
Duration : 2 h 11 min
Bit rate mode : Constant
Bit rate : 224 kb/s
Channel(s) : 2 channels
Channel positions : Front: L R
Sampling rate : 48.0 kHz
Frame rate : 31.250 FPS (1536 SPF)
Bit depth : 16 bits
Compression mode : Lossy
Stream size : 211 MiB (0%)
Title : X-Men.Days.of.Future.Past.2014.2160p.BluRay.REMUX.HEVC.DTS-HD.MA.7.1-FGT
Language : English
Service kind : Complete Main
Default : No
Forced : No

Text #1
ID : 10
Format : PGS
Muxing mode : zlib
Codec ID : S_HDMV/PGS
Codec ID/Info : Picture based subtitle format used on BDs/HD-DVDs
Duration : 2 h 9 min
Bit rate : 31.4 kb/s
Count of elements : 3414
Stream size : 29.2 MiB (0%)
Title : English-PGS
Language : English
Default : Yes
Forced : No

Text #2
ID : 11
Format : PGS
Muxing mode : zlib
Codec ID : S_HDMV/PGS
Codec ID/Info : Picture based subtitle format used on BDs/HD-DVDs
Duration : 2 h 10 min
Bit rate : 24.8 kb/s
Count of elements : 2470
Stream size : 23.2 MiB (0%)
Title : Spanish-PGS
Language : Spanish
Default : No
Forced : No

Text #3
ID : 12
Format : PGS
Muxing mode : zlib
Codec ID : S_HDMV/PGS
Codec ID/Info : Picture based subtitle format used on BDs/HD-DVDs
Duration : 2 h 10 min
Bit rate : 20.8 kb/s
Count of elements : 2446
Stream size : 19.4 MiB (0%)
Title : French-PGS
Language : French
Default : No
Forced : No

Text #4
ID : 13
Format : PGS
Muxing mode : zlib
Codec ID : S_HDMV/PGS
Codec ID/Info : Picture based subtitle format used on BDs/HD-DVDs
Duration : 2 h 10 min
Bit rate : 23.8 kb/s
Count of elements : 2416
Stream size : 22.1 MiB (0%)
Title : Danish-PGS
Language : Danish
Default : No
Forced : No

Text #5
ID : 14
Format : PGS
Muxing mode : zlib
Codec ID : S_HDMV/PGS
Codec ID/Info : Picture based subtitle format used on BDs/HD-DVDs
Duration : 2 h 10 min
Bit rate : 21.7 kb/s
Count of elements : 2240
Stream size : 20.2 MiB (0%)
Title : Dutch-PGS
Language : Dutch
Default : No
Forced : No

Text #6
ID : 15
Format : PGS
Muxing mode : zlib
Codec ID : S_HDMV/PGS
Codec ID/Info : Picture based subtitle format used on BDs/HD-DVDs
Duration : 2 h 10 min
Bit rate : 21.0 kb/s
Count of elements : 2310
Stream size : 19.6 MiB (0%)
Title : Finnish-PGS
Language : Finnish
Default : No
Forced : No

Text #7
ID : 16
Format : PGS
Muxing mode : zlib
Codec ID : S_HDMV/PGS
Codec ID/Info : Picture based subtitle format used on BDs/HD-DVDs
Duration : 2 h 10 min
Bit rate : 25.3 kb/s
Count of elements : 2616
Stream size : 23.6 MiB (0%)
Title : German-PGS
Language : German
Default : No
Forced : No

Text #8
ID : 17
Format : PGS
Muxing mode : zlib
Codec ID : S_HDMV/PGS
Codec ID/Info : Picture based subtitle format used on BDs/HD-DVDs
Duration : 2 h 10 min
Bit rate : 23.9 kb/s
Count of elements : 2614
Stream size : 22.3 MiB (0%)
Title : Italian-PGS
Language : Italian
Default : No
Forced : No

Text #9
ID : 18
Format : PGS
Muxing mode : zlib
Codec ID : S_HDMV/PGS
Codec ID/Info : Picture based subtitle format used on BDs/HD-DVDs
Duration : 2 h 10 min
Bit rate : 16.6 kb/s
Count of elements : 2563
Stream size : 15.5 MiB (0%)
Title : Japanese-PGS
Language : Japanese
Default : No
Forced : No

Text #10
ID : 19
Format : PGS
Muxing mode : zlib
Codec ID : S_HDMV/PGS
Codec ID/Info : Picture based subtitle format used on BDs/HD-DVDs
Duration : 2 h 0 min
Bit rate : 600 b/s
Count of elements : 94
Stream size : 532 KiB (0%)
Title : Japanese-PGS
Language : Japanese
Default : No
Forced : No

Text #11
ID : 20
Format : PGS
Muxing mode : zlib
Codec ID : S_HDMV/PGS
Codec ID/Info : Picture based subtitle format used on BDs/HD-DVDs
Duration : 2 h 10 min
Bit rate : 23.4 kb/s
Count of elements : 2604
Stream size : 21.8 MiB (0%)
Title : Norwegian-PGS
Language : Norwegian
Default : No
Forced : No

Text #12
ID : 21
Format : PGS
Muxing mode : zlib
Codec ID : S_HDMV/PGS
Codec ID/Info : Picture based subtitle format used on BDs/HD-DVDs
Duration : 2 h 10 min
Bit rate : 24.0 kb/s
Count of elements : 2608
Stream size : 22.4 MiB (0%)
Title : Swedish-PGS
Language : Swedish
Default : No
Forced : No

Text #13
ID : 22
Format : PGS
Muxing mode : zlib
Codec ID : S_HDMV/PGS
Codec ID/Info : Picture based subtitle format used on BDs/HD-DVDs
Duration : 17 min 56 s
Bit rate : 2 765 b/s
Count of elements : 48
Stream size : 363 KiB (0%)
Title : English-FORCED-PGS
Language : English
Default : No
Forced : No

Text #14
ID : 23
Format : PGS
Muxing mode : zlib
Codec ID : S_HDMV/PGS
Codec ID/Info : Picture based subtitle format used on BDs/HD-DVDs
Duration : 2 h 11 min
Bit rate : 85.6 kb/s
Count of elements : 5396
Stream size : 80.5 MiB (0%)
Title : English-COMMENTARY-PGS
Language : English
Default : No
Forced : No

Text #15
ID : 24
Format : PGS
Muxing mode : zlib
Codec ID : S_HDMV/PGS
Codec ID/Info : Picture based subtitle format used on BDs/HD-DVDs
Duration : 2 h 11 min
Bit rate : 69.2 kb/s
Count of elements : 5222
Stream size : 65.1 MiB (0%)
Title : French-PGS
Language : French
Default : No
Forced : No

Text #16
ID : 25
Format : PGS
Muxing mode : zlib
Codec ID : S_HDMV/PGS
Codec ID/Info : Picture based subtitle format used on BDs/HD-DVDs
Duration : 2 h 11 min
Bit rate : 68.0 kb/s
Count of elements : 5168
Stream size : 64.0 MiB (0%)
Title : Danish-COMMENTARY-PGS
Language : Danish
Default : No
Forced : No

Text #17
ID : 26
Format : PGS
Muxing mode : zlib
Codec ID : S_HDMV/PGS
Codec ID/Info : Picture based subtitle format used on BDs/HD-DVDs
Duration : 2 h 11 min
Bit rate : 71.8 kb/s
Count of elements : 5220
Stream size : 67.5 MiB (0%)
Title : Dutch-COMMENTARY-PGS
Language : Dutch
Default : No
Forced : No

Text #18
ID : 27
Format : PGS
Muxing mode : zlib
Codec ID : S_HDMV/PGS
Codec ID/Info : Picture based subtitle format used on BDs/HD-DVDs
Duration : 2 h 11 min
Bit rate : 67.6 kb/s
Count of elements : 5172
Stream size : 63.6 MiB (0%)
Title : Finnish-COMMENTARY-PGS
Language : Finnish
Default : No
Forced : No

Text #19
ID : 28
Format : PGS
Muxing mode : zlib
Codec ID : S_HDMV/PGS
Codec ID/Info : Picture based subtitle format used on BDs/HD-DVDs
Duration : 2 h 11 min
Bit rate : 76.2 kb/s
Count of elements : 5236
Stream size : 71.6 MiB (0%)
Title : German-COMMENTARY-PGS
Language : German
Default : No
Forced : No

Text #20
ID : 29
Format : PGS
Muxing mode : zlib
Codec ID : S_HDMV/PGS
Codec ID/Info : Picture based subtitle format used on BDs/HD-DVDs
Duration : 2 h 11 min
Bit rate : 66.3 kb/s
Count of elements : 5236
Stream size : 62.4 MiB (0%)
Title : Italian-COMMENTARY-PGS
Language : Italian
Default : No
Forced : No

Text #21
ID : 30
Format : PGS
Muxing mode : zlib
Codec ID : S_HDMV/PGS
Codec ID/Info : Picture based subtitle format used on BDs/HD-DVDs
Duration : 2 h 11 min
Bit rate : 40.0 kb/s
Count of elements : 3642
Stream size : 37.7 MiB (0%)
Title : Japanese-COMMENTARY-PGS
Language : Japanese
Default : No
Forced : No

Text #22
ID : 31
Format : PGS
Muxing mode : zlib
Codec ID : S_HDMV/PGS
Codec ID/Info : Picture based subtitle format used on BDs/HD-DVDs
Duration : 2 h 11 min
Bit rate : 68.1 kb/s
Count of elements : 5236
Stream size : 64.1 MiB (0%)
Title : Norwegian-COMMENTARY-PGS
Language : Norwegian
Default : No
Forced : No

Text #23
ID : 32
Format : PGS
Muxing mode : zlib
Codec ID : S_HDMV/PGS
Codec ID/Info : Picture based subtitle format used on BDs/HD-DVDs
Duration : 2 h 11 min
Bit rate : 67.4 kb/s
Count of elements : 5236
Stream size : 63.4 MiB (0%)
Title : Swedish-COMMENTARY-PGS
Language : Swedish
Default : No
Forced : No

Menu
00:00:00.000 : en:Chapter 1
00:03:33.338 : en:Chapter 2
00:08:00.688 : en:Chapter 3
00:10:28.628 : en:Chapter 4
00:13:58.045 : en:Chapter 5
00:17:02.021 : en:Chapter 6
00:20:16.089 : en:Chapter 7
00:22:11.330 : en:Chapter 8
00:26:37.887 : en:Chapter 9
00:30:32.038 : en:Chapter 10
00:34:29.776 : en:Chapter 11
00:36:00.992 : en:Chapter 12
00:38:18.087 : en:Chapter 13
00:40:37.101 : en:Chapter 14
00:45:53.792 : en:Chapter 15
00:48:53.847 : en:Chapter 16
00:51:58.156 : en:Chapter 17
00:54:43.113 : en:Chapter 18
00:57:51.426 : en:Chapter 19
01:00:48.186 : en:Chapter 20
01:03:26.594 : en:Chapter 21
01:07:09.567 : en:Chapter 22
01:09:43.596 : en:Chapter 23
01:13:11.470 : en:Chapter 24
01:15:31.860 : en:Chapter 25
01:17:27.726 : en:Chapter 26
01:19:30.098 : en:Chapter 27
01:24:50.710 : en:Chapter 28
01:26:58.254 : en:Chapter 29
01:31:04.250 : en:Chapter 30
01:34:03.679 : en:Chapter 31
01:37:33.180 : en:Chapter 32
01:41:54.817 : en:Chapter 33
01:44:52.995 : en:Chapter 34
01:47:19.808 : en:Chapter 35
01:51:29.766 : en:Chapter 36
01:56:42.745 : en:Chapter 37
02:00:12.413 : en:Chapter 38
02:02:34.972 : en:Chapter 39
02:10:31.907 : en:Chapter 40
movie BDRip Video
ID : 1
Format : HEVC
Format/Info : High Efficiency Video Coding
Format profile : Main 10@L5.1@High
Codec ID : V_MPEGH/ISO/HEVC
Duration : 2 h 11 min
Bit rate : 16.1 Mb/s
Width : 3 840 pixels
Height : 1 600 pixels
Display aspect ratio : 2.40:1
Frame rate mode : Constant
Frame rate : 23.976 (24000/1001) FPS
Color space : YUV
Chroma subsampling : 4:2:0 (Type 2)
Bit depth : 10 bits
Bits/(Pixel*Frame) : 0.109
Stream size : 14.8 GiB (73%)
Writing library : x265 2.6+12-7bd8751a8183:[Windows][GCC 7.2.0][64 bit] 10bit
Encoding settings : cpuid=1173503 / frame-threads=4 / numa-pools=16 / wpp / no-pmode / no-pme / no-psnr / no-ssim / log-level=2 / input-csp=1 / input-res=3840x1600 / interlace=0 / total-frames=189297 / level-idc=51 / high-tier=1 / uhd-bd=0 / ref=4 / no-allow-non-conformance / repeat-headers / annexb / aud / hrd / info / hash=0 / no-temporal-layers / no-open-gop / min-keyint=24 / keyint=240 / gop-lookahead=0 / bframes=4 / b-adapt=2 / b-pyramid / bframe-bias=0 / rc-lookahead=25 / lookahead-slices=4 / scenecut=40 / no-intra-refresh / ctu=64 / min-cu-size=8 / rect / no-amp / max-tu-size=32 / tu-inter-depth=1 / tu-intra-depth=1 / limit-tu=0 / rdoq-level=2 / dynamic-rd=0.00 / no-ssim-rd / signhide / no-tskip / nr-intra=0 / nr-inter=0 / no-constrained-intra / no-strong-intra-smoothing / max-merge=3 / limit-refs=3 / limit-modes / me=3 / subme=3 / merange=57 / temporal-mvp / weightp / no-weightb / no-analyze-src-pics / deblock=-3:-3 / no-sao / no-sao-non-deblock / rd=4 / no-early-skip / rskip / no-fast-intra / no-tskip-fast / no-cu-lossless / no-b-intra / no-splitrd-skip / rdpenalty=0 / psy-rd=2.00 / psy-rdoq=1.00 / no-rd-refine / analysis-reuse-mode=0 / no-lossless / cbqpoffs=0 / crqpoffs=0 / rc=crf / crf=17.0 / qcomp=0.60 / qpstep=4 / stats-write=0 / stats-read=0 / vbv-maxrate=160000 / vbv-bufsize=160000 / vbv-init=0.9 / crf-max=0.0 / crf-min=0.0 / ipratio=1.40 / pbratio=1.30 / aq-mode=1 / aq-strength=1.00 / cutree / zone-count=0 / no-strict-cbr / qg-size=32 / no-rc-grain / qpmax=69 / qpmin=0 / no-const-vbv / sar=1 / overscan=0 / videoformat=5 / range=0 / colorprim=9 / transfer=16 / colormatrix=9 / chromaloc=1 / chromaloc-top=2 / chromaloc-bottom=2 / display-window=0 / master-display=G(13250,34500)B(7500,3000)R(34000,16000)WP(15635,16450)L(11000000,0) / max-cll=0,0 / min-luma=0 / max-luma=1023 / log2-max-poc-lsb=8 / vui-timing-info / vui-hrd-info / slices=1 / opt-qp-pps / opt-ref-list-length-pps / no-multi-pass-opt-rps / scenecut-bias=0.05 / no-opt-cu-delta-qp / no-aq-motion / hdr / hdr-opt / no-dhdr10-opt / analysis-reuse-level=5 / scale-factor=0 / refine-intra=0 / refine-inter=0 / refine-mv=0 / no-limit-sao / ctu-info=0 / no-lowpass-dct / refine-mv-type=0 / copy-pic=1
Default : Yes
Forced : No
Color range : Limited
Color primaries : BT.2020
Transfer characteristics : PQ
Matrix coefficients : BT.2020 non-constant
Mastering display color primaries : R: x=0.680000 y=0.320000, G: x=0.265000 y=0.690000, B: x=0.150000 y=0.060000, White point: x=0.312700 y=0.329000
Mastering display luminance : min: 0.0000 cd/m2, max: 1100.0000 cd/m2

Audio #1
ID : 2
Format : DTS
Format/Info : Digital Theater Systems
Format profile : MA / ES Matrix / Core
Codec ID : A_DTS
Duration : 2 h 11 min
Bit rate mode : Variable / Constant / Constant
Bit rate : 5 490 kb/s / 1 509 kb/s / 1 509 kb/s
Channel(s) : 8 channels / 7 channels / 6 channels
Channel positions : Front: L C R, Side: L R, Back: L R, LFE / Front: L C R, Side: L R, Back: C, LFE / Front: L C R, Side: L R, LFE
Sampling rate : 48.0 kHz
Frame rate : 93.750 FPS (512 SPF)
Bit depth : 24 bits
Compression mode : Lossless / Lossy / Lossy
Stream size : 5.05 GiB (25%)
Language : English
Default : Yes
Forced : No

Audio #2
ID : 3
Format : AC-3
Format/Info : Audio Coding 3
Codec ID : A_AC3
Duration : 2 h 11 min
Bit rate mode : Constant
Bit rate : 224 kb/s
Channel(s) : 2 channels
Channel positions : Front: L R
Sampling rate : 48.0 kHz
Frame rate : 31.250 FPS (1536 SPF)
Bit depth : 16 bits
Compression mode : Lossy
Stream size : 211 MiB (1%)
Title : Commentary with Director Bryan Singer and writer Simon Kinberg
Language : English
Service kind : Complete Main
Default : No
Forced : No

Text #1
ID : 4
Format : UTF-8
Codec ID : S_TEXT/UTF8
Codec ID/Info : UTF-8 Plain Text
Duration : 17 min 56 s
Bit rate : 5 b/s
Count of elements : 24
Stream size : 700 Bytes (0%)
Title : Forced SRT
Language : English
Default : Yes
Forced : Yes

Text #2
ID : 5
Format : PGS
Muxing mode : zlib
Codec ID : S_HDMV/PGS
Codec ID/Info : Picture based subtitle format used on BDs/HD-DVDs
Duration : 17 min 56 s
Bit rate : 2 765 b/s
Count of elements : 48
Stream size : 363 KiB (0%)
Title : Forced
Language : English
Default : No
Forced : No

Text #3
ID : 6
Format : UTF-8
Codec ID : S_TEXT/UTF8
Codec ID/Info : UTF-8 Plain Text
Duration : 2 h 1 min
Bit rate : 45 b/s
Count of elements : 1400
Stream size : 40.3 KiB (0%)
Title : Stripped SRT
Language : English
Default : No
Forced : No

Text #4
ID : 7
Format : UTF-8
Codec ID : S_TEXT/UTF8
Codec ID/Info : UTF-8 Plain Text
Duration : 2 h 9 min
Bit rate : 48 b/s
Count of elements : 1707
Stream size : 46.1 KiB (0%)
Title : SDH SRT
Language : English
Default : No
Forced : No

Text #5
ID : 8
Format : PGS
Muxing mode : zlib
Codec ID : S_HDMV/PGS
Codec ID/Info : Picture based subtitle format used on BDs/HD-DVDs
Duration : 2 h 9 min
Bit rate : 31.4 kb/s
Count of elements : 3414
Stream size : 29.2 MiB (0%)
Title : SDH
Language : English
Default : No
Forced : No

Text #6
ID : 9
Format : PGS
Muxing mode : zlib
Codec ID : S_HDMV/PGS
Codec ID/Info : Picture based subtitle format used on BDs/HD-DVDs
Duration : 2 h 11 min
Bit rate : 85.6 kb/s
Count of elements : 5396
Stream size : 80.5 MiB (0%)
Title : Commentary with Director Bryan Singer and writer Simon Kinberg
Language : English
Default : No
Forced : No

Text #7
ID : 10
Format : PGS
Muxing mode : zlib
Codec ID : S_HDMV/PGS
Codec ID/Info : Picture based subtitle format used on BDs/HD-DVDs
Duration : 2 h 10 min
Bit rate : 20.8 kb/s
Count of elements : 2446
Stream size : 19.4 MiB (0%)
Language : French
Default : No
Forced : No

Text #8
ID : 11
Format : PGS
Muxing mode : zlib
Codec ID : S_HDMV/PGS
Codec ID/Info : Picture based subtitle format used on BDs/HD-DVDs
Duration : 2 h 11 min
Bit rate : 69.2 kb/s
Count of elements : 5222
Stream size : 65.1 MiB (0%)
Title : Commentary with Director Bryan Singer and writer Simon Kinberg
Language : French
Default : No
Forced : No

Text #9
ID : 12
Format : PGS
Muxing mode : zlib
Codec ID : S_HDMV/PGS
Codec ID/Info : Picture based subtitle format used on BDs/HD-DVDs
Duration : 2 h 10 min
Bit rate : 24.8 kb/s
Count of elements : 2470
Stream size : 23.2 MiB (0%)
Language : Spanish
Default : No
Forced : No

Text #10
ID : 13
Format : PGS
Muxing mode : zlib
Codec ID : S_HDMV/PGS
Codec ID/Info : Picture based subtitle format used on BDs/HD-DVDs
Duration : 2 h 10 min
Bit rate : 23.9 kb/s
Count of elements : 2614
Stream size : 22.3 MiB (0%)
Language : Italian
Default : No
Forced : No

Text #11
ID : 14
Format : PGS
Muxing mode : zlib
Codec ID : S_HDMV/PGS
Codec ID/Info : Picture based subtitle format used on BDs/HD-DVDs
Duration : 2 h 11 min
Bit rate : 66.3 kb/s
Count of elements : 5236
Stream size : 62.4 MiB (0%)
Title : Commentary with Director Bryan Singer and writer Simon Kinberg
Language : Italian
Default : No
Forced : No

Text #12
ID : 15
Format : PGS
Muxing mode : zlib
Codec ID : S_HDMV/PGS
Codec ID/Info : Picture based subtitle format used on BDs/HD-DVDs
Duration : 2 h 10 min
Bit rate : 25.3 kb/s
Count of elements : 2616
Stream size : 23.6 MiB (0%)
Language : German
Default : No
Forced : No

Text #13
ID : 16
Format : PGS
Muxing mode : zlib
Codec ID : S_HDMV/PGS
Codec ID/Info : Picture based subtitle format used on BDs/HD-DVDs
Duration : 2 h 11 min
Bit rate : 76.2 kb/s
Count of elements : 5236
Stream size : 71.6 MiB (0%)
Title : Commentary with Director Bryan Singer and writer Simon Kinberg
Language : German
Default : No
Forced : No

Text #14
ID : 17
Format : PGS
Muxing mode : zlib
Codec ID : S_HDMV/PGS
Codec ID/Info : Picture based subtitle format used on BDs/HD-DVDs
Duration : 2 h 10 min
Bit rate : 21.7 kb/s
Count of elements : 2240
Stream size : 20.2 MiB (0%)
Language : Dutch
Default : No
Forced : No

Text #15
ID : 18
Format : PGS
Muxing mode : zlib
Codec ID : S_HDMV/PGS
Codec ID/Info : Picture based subtitle format used on BDs/HD-DVDs
Duration : 2 h 11 min
Bit rate : 71.8 kb/s
Count of elements : 5220
Stream size : 67.5 MiB (0%)
Title : Commentary with Director Bryan Singer and writer Simon Kinberg
Language : Dutch
Default : No
Forced : No

Text #16
ID : 19
Format : PGS
Muxing mode : zlib
Codec ID : S_HDMV/PGS
Codec ID/Info : Picture based subtitle format used on BDs/HD-DVDs
Duration : 2 h 10 min
Bit rate : 24.0 kb/s
Count of elements : 2608
Stream size : 22.4 MiB (0%)
Language : Swedish
Default : No
Forced : No

Text #17
ID : 20
Format : PGS
Muxing mode : zlib
Codec ID : S_HDMV/PGS
Codec ID/Info : Picture based subtitle format used on BDs/HD-DVDs
Duration : 2 h 11 min
Bit rate : 67.4 kb/s
Count of elements : 5236
Stream size : 63.4 MiB (0%)
Title : Commentary with Director Bryan Singer and writer Simon Kinberg
Language : Swedish
Default : No
Forced : No

Text #18
ID : 21
Format : PGS
Muxing mode : zlib
Codec ID : S_HDMV/PGS
Codec ID/Info : Picture based subtitle format used on BDs/HD-DVDs
Duration : 2 h 10 min
Bit rate : 23.4 kb/s
Count of elements : 2604
Stream size : 21.8 MiB (0%)
Language : Norwegian
Default : No
Forced : No

Text #19
ID : 22
Format : PGS
Muxing mode : zlib
Codec ID : S_HDMV/PGS
Codec ID/Info : Picture based subtitle format used on BDs/HD-DVDs
Duration : 2 h 11 min
Bit rate : 68.1 kb/s
Count of elements : 5236
Stream size : 64.1 MiB (0%)
Title : Commentary with Director Bryan Singer and writer Simon Kinberg
Language : Norwegian
Default : No
Forced : No

Text #20
ID : 23
Format : PGS
Muxing mode : zlib
Codec ID : S_HDMV/PGS
Codec ID/Info : Picture based subtitle format used on BDs/HD-DVDs
Duration : 2 h 10 min
Bit rate : 23.8 kb/s
Count of elements : 2416
Stream size : 22.1 MiB (0%)
Language : Danish
Default : No
Forced : No

Text #21
ID : 24
Format : PGS
Muxing mode : zlib
Codec ID : S_HDMV/PGS
Codec ID/Info : Picture based subtitle format used on BDs/HD-DVDs
Duration : 2 h 11 min
Bit rate : 68.0 kb/s
Count of elements : 5168
Stream size : 64.0 MiB (0%)
Title : Commentary with Director Bryan Singer and writer Simon Kinberg
Language : Danish
Default : No
Forced : No

Text #22
ID : 25
Format : PGS
Muxing mode : zlib
Codec ID : S_HDMV/PGS
Codec ID/Info : Picture based subtitle format used on BDs/HD-DVDs
Duration : 2 h 10 min
Bit rate : 21.0 kb/s
Count of elements : 2310
Stream size : 19.6 MiB (0%)
Language : Finnish
Default : No
Forced : No

Text #23
ID : 26
Format : PGS
Muxing mode : zlib
Codec ID : S_HDMV/PGS
Codec ID/Info : Picture based subtitle format used on BDs/HD-DVDs
Duration : 2 h 11 min
Bit rate : 67.6 kb/s
Count of elements : 5172
Stream size : 63.6 MiB (0%)
Title : Commentary with Director Bryan Singer and writer Simon Kinberg
Language : Finnish
Default : No
Forced : No

Text #24
ID : 27
Format : PGS
Muxing mode : zlib
Codec ID : S_HDMV/PGS
Codec ID/Info : Picture based subtitle format used on BDs/HD-DVDs
Duration : 2 h 10 min
Bit rate : 16.6 kb/s
Count of elements : 2563
Stream size : 15.5 MiB (0%)
Language : Japanese
Default : No
Forced : No

Text #25
ID : 28
Format : PGS
Muxing mode : zlib
Codec ID : S_HDMV/PGS
Codec ID/Info : Picture based subtitle format used on BDs/HD-DVDs
Duration : 2 h 11 min
Bit rate : 40.0 kb/s
Count of elements : 3642
Stream size : 37.7 MiB (0%)
Title : Commentary with Director Bryan Singer and writer Simon Kinberg
Language : Japanese
Default : No
Forced : No

Menu
00:00:00.000 : en:00:00:00.000
00:03:33.338 : en:00:03:33.338
00:08:00.689 : en:00:08:00.689
00:10:28.628 : en:00:10:28.628
00:13:58.046 : en:00:13:58.046
00:17:02.021 : en:00:17:02.021
00:20:16.090 : en:00:20:16.090
00:22:11.330 : en:00:22:11.330
00:26:37.888 : en:00:26:37.888
00:30:32.039 : en:00:30:32.039
00:34:29.776 : en:00:34:29.776
00:36:00.992 : en:00:36:00.992
00:38:18.087 : en:00:38:18.087
00:40:37.101 : en:00:40:37.101
00:45:53.793 : en:00:45:53.793
00:48:53.848 : en:00:48:53.848
00:51:58.157 : en:00:51:58.157
00:54:43.113 : en:00:54:43.113
00:57:51.426 : en:00:57:51.426
01:00:48.186 : en:01:00:48.186
01:03:26.594 : en:01:03:26.594
01:07:09.567 : en:01:07:09.567
01:09:43.596 : en:01:09:43.596
01:13:11.470 : en:01:13:11.470
01:15:31.861 : en:01:15:31.861
01:17:27.726 : en:01:17:27.726
01:19:30.099 : en:01:19:30.099
01:24:50.711 : en:01:24:50.711
01:26:58.255 : en:01:26:58.255
01:31:04.250 : en:01:31:04.250
01:34:03.680 : en:01:34:03.680
01:37:33.181 : en:01:37:33.181
01:41:54.817 : en:01:41:54.817
01:44:52.995 : en:01:44:52.995
01:47:19.808 : en:01:47:19.808
01:51:29.766 : en:01:51:29.766
01:56:42.746 : en:01:56:42.746
02:00:12.414 : en:02:00:12.414
02:02:34.973 : en:02:02:34.973
02:10:31.907 : en:02:10:31.907

Download

download 4k hdr movies download 4k hdr movies

X-Men: Days of Future Past 4K 2014 Ultra HD 2160p


Watch a movie trailer - X-Men: Days of Future Past 4K 2014 Ultra HD 2160p
Comments and Feedback
Add your comment:
Your name:
Your E-Mail:
Code:
reload, if the code cannot be seen
Enter code: