Select movie Search movie Close search My Account

Despicable Me 3 4K 2017 Ultra HD 2160p

Despicable Me 3 4K 2017 Ultra HD 2160p
BDRemux / BDRip
Country: USA
Time: 1h 29min
IMDB: 6.3
Director: Kyle Balda , Pierre Coffin
Actors: Steve Carell, Kristen Wiig, Trey Parker, Miranda Cosgrove, Dana Gaier, Nev Scharrel, Pierre Coffin, Steve Coogan, Julie Andrews, Jenny Slate, Michael Beattie, Andy Nyman, Adrian Ciscato, Brian T. Delaney, Katia Saponenko...

Story Movie

Gru meets his long-lost charming, cheerful, and more successful twin brother Dru who wants to team up with him for one last criminal heist. BDRemux and BDRip full movies for download.

After he is fired from the Anti-Villain League for failing to take down the latest bad guy to threaten humanity, Gru finds himself in the midst of a major identity crisis. But when a mysterious stranger shows up to inform Gru that he has a long-lost twin brother-a brother who desperately wishes to follow in his twin's despicable footsteps-one former super-villain will rediscover just how good it feels to be bad.

Review 4K Movie

As far as disposable sequels to kids films, Despicable Me 3 is pretty much on par with Cars 3 (2017). It's not a particularly memorable film nor can it really hold its own against something like The LEGO Batman Movie (2017) but at least it's not unpleasant. In-fact in may ways Despicable Me 3 is better than the original in that it improves its look-and-feel and provides a decent foil for once in the form of Trey Parker's Balthazar Bratt. Of course it's to the detriment of neutering the refreshing mean-spirited-ness of the original, but hey, at least you still got those Minions am I right? Despicable Me 3 catches Gru (Carell) and newly minted wife Lucy (Wiig) trying and failing to secure the world's largest diamond from the hands of Bratt our flamboyant 80's themed villain. Fired by the new head of the Anti-Villain League (Slate), Gru and Lucy discover he has a twin brother named Dru (also Carell) whom their parents separated at birth. With nothing on their plate, Gru, Lucy and the girls (Cosgrove, Gaier and Scharrel), travel to the Mediterranean coasts of Freedonia to meet Dru.

When the family lands in Freedonia, the movie descends into a series of fun but thematically incongruous vignettes. Gru bonds with his brother over Dru's desire to become a villain, Lucy fails, succeeds and fails again to become a mother figure to the three girls, Agnes, the youngest of the three tries to capture a unicorn, Balthazar Bratt sees his plans for world domination come to near-fruition and the Minions...well let's just say they have their own thing going as well.

About half of all this busy, busy, business works at least as far as furthering the plot. The fact that none of the film's insanity really coalesces into a compelling whole, only makes the film feel more like a mediocre sitcom episode than an actual movie. Yet as far as inspired moments of slapstick, Despicable Me 3 supplies a little bit more than is to be expected. One highlight involves Gru and Dru driving around the Freedonian countryside in a golden-plated mean machine while police follow while riding literal pigs. Parents will find these comedic bits more amusing than funny but the kids, the kids will be rolling up and down the aisles.

And isn't that what this movie is ultimately about? To provide entertainment to children? While I don't necessarily condone families watching kid's films for their own sake (and this one in particular is all over the map as far as messaging), there's not really all that much to object about here. Despicable Me 3 is at its core a thoughtless but entertaining jumble of sights, sounds and goofiness. Thankfully unlike your racist aunt, Illumination Entertainment has not used the Minions for nefarious purposes...at least not yet.

Mediainfo

movie BDRemux Video #1
ID : 1
Format : HEVC
Format/Info : High Efficiency Video Coding
Format profile : Main 10@L5.1@High
Codec ID : V_MPEGH/ISO/HEVC
Duration : 1 h 29 min
Bit rate : 60.9 Mb/s
Width : 3 840 pixels
Height : 2 160 pixels
Display aspect ratio : 16:9
Frame rate mode : Constant
Frame rate : 23.976 (24000/1001) FPS
Color space : YUV
Chroma subsampling : 4:2:0 (Type 2)
Bit depth : 10 bits
Bits/(Pixel*Frame) : 0.306
Stream size : 38.1 GiB (74%)
Title : Despicable.Me.3.2017.2160p.BluRay.REMUX.HEVC.DTS-X.7.1-FGT
Default : Yes
Forced : No
Color range : Limited
Color primaries : BT.2020
Transfer characteristics : PQ
Matrix coefficients : BT.2020 non-constant
Mastering display color primaries : R: x=0.680000 y=0.320000, G: x=0.265000 y=0.690000, B: x=0.150000 y=0.060000, White point: x=0.312700 y=0.329000
Mastering display luminance : min: 0.0050 cd/m2, max: 1000.0000 cd/m2
Maximum Content Light Level : 1000 cd/m2
Maximum Frame-Average Light Level : 701 cd/m2

Video #2
ID : 2
Format : HEVC
Format/Info : High Efficiency Video Coding
Format profile : Main 10@L5.1@High
Codec ID : V_MPEGH/ISO/HEVC
Duration : 1 h 29 min
Bit rate : 6 838 kb/s
Width : 1 920 pixels
Height : 1 080 pixels
Display aspect ratio : 16:9
Frame rate mode : Constant
Frame rate : 23.976 (24000/1001) FPS
Color space : YUV
Chroma subsampling : 4:2:0 (Type 2)
Bit depth : 10 bits
Bits/(Pixel*Frame) : 0.138
Stream size : 4.28 GiB (8%)
Title : Despicable.Me.3.2017.2160p.BluRay.REMUX.HEVC.DTS-X.7.1-FGT
Default : No
Forced : No
Color range : Limited
Color primaries : BT.2020
Transfer characteristics : PQ
Matrix coefficients : BT.2020 non-constant
Mastering display color primaries : R: x=0.680000 y=0.320000, G: x=0.265000 y=0.690000, B: x=0.150000 y=0.060000, White point: x=0.312700 y=0.329000
Mastering display luminance : min: 0.0050 cd/m2, max: 1000.0000 cd/m2

Audio #1
ID : 3
Format : DTS
Format/Info : Digital Theater Systems
Format profile : X / MA / Core
Codec ID : A_DTS
Duration : 1 h 29 min
Bit rate mode : Variable / Variable / Constant
Bit rate : 5 524 kb/s / 5 524 kb/s / 1 509 kb/s
Channel(s) : Object Based / 8 channels / 6 channels
Channel positions : Object Based / Front: L C R, Side: L R, Back: L R, LFE / Front: L C R, Side: L R, LFE
Sampling rate : / 48.0 kHz / 48.0 kHz
Frame rate : 93.750 FPS (512 SPF)
Bit depth : / 24 bits / 24 bits
Compression mode : / Lossless / Lossy
Stream size : 3.46 GiB (7%)
Title : Despicable.Me.3.2017.2160p.BluRay.REMUX.HEVC.DTS-X.7.1-FGT
Language : English
Default : Yes
Forced : No

Audio #2
ID : 4
Format : DTS
Format/Info : Digital Theater Systems
Codec ID : A_DTS
Duration : 1 h 29 min
Bit rate mode : Constant
Bit rate : 255 kb/s
Channel(s) : 2 channels
Channel positions : Front: L R
Sampling rate : 48.0 kHz
Frame rate : 93.750 FPS (512 SPF)
Bit depth : 24 bits
Compression mode : Lossy
Stream size : 164 MiB (0%)
Title : Despicable.Me.3.2017.2160p.BluRay.REMUX.HEVC.DTS-X.7.1-FGT
Language : English
Default : No
Forced : No

Audio #3
ID : 5
Format : DTS
Format/Info : Digital Theater Systems
Format profile : HRA / Core
Codec ID : A_DTS
Duration : 1 h 29 min
Bit rate mode : Constant
Bit rate : 2 046 kb/s / 1 509 kb/s
Channel(s) : 8 channels / 6 channels
Channel positions : Front: L C R, Side: L R, Back: L R, LFE / Front: L C R, Side: L R, LFE
Sampling rate : 48.0 kHz
Frame rate : 93.750 FPS (512 SPF)
Bit depth : 24 bits
Compression mode : Lossy
Stream size : 1.28 GiB (2%)
Title : Despicable.Me.3.2017.2160p.BluRay.REMUX.HEVC.DTS-X.7.1-FGT
Language : French
Default : No
Forced : No

Audio #4
ID : 6
Format : DTS
Format/Info : Digital Theater Systems
Format profile : X / MA / Core
Codec ID : A_DTS
Duration : 1 h 29 min
Bit rate mode : Variable / Variable / Constant
Bit rate : 3 614 kb/s / 3 614 kb/s / 1 509 kb/s
Channel(s) : Object Based / 8 channels / 6 channels
Channel positions : Object Based / Front: L C R, Side: L R, Back: L R, LFE / Front: L C R, Side: L R, LFE
Sampling rate : / 48.0 kHz / 48.0 kHz
Frame rate : 93.750 FPS (512 SPF)
Bit depth : / 24 bits / 24 bits
Compression mode : / Lossless / Lossy
Stream size : 2.26 GiB (4%)
Title : Despicable.Me.3.2017.2160p.BluRay.REMUX.HEVC.DTS-X.7.1-FGT
Language : German
Default : No
Forced : No

Audio #5
ID : 7
Format : DTS
Format/Info : Digital Theater Systems
Format profile : HRA / Core
Codec ID : A_DTS
Duration : 1 h 29 min
Bit rate mode : Constant
Bit rate : 2 046 kb/s / 1 509 kb/s
Channel(s) : 8 channels / 6 channels
Channel positions : Front: L C R, Side: L R, Back: L R, LFE / Front: L C R, Side: L R, LFE
Sampling rate : 48.0 kHz
Frame rate : 93.750 FPS (512 SPF)
Bit depth : 24 bits
Compression mode : Lossy
Stream size : 1.28 GiB (2%)
Title : Despicable.Me.3.2017.2160p.BluRay.REMUX.HEVC.DTS-X.7.1-FGT
Language : Dutch
Default : No
Forced : No

Audio #6
ID : 8
Format : DTS
Format/Info : Digital Theater Systems
Codec ID : A_DTS
Duration : 1 h 29 min
Bit rate mode : Constant
Bit rate : 768 kb/s
Channel(s) : 6 channels
Channel positions : Front: L C R, Side: L R, LFE
Sampling rate : 48.0 kHz
Frame rate : 93.750 FPS (512 SPF)
Bit depth : 24 bits
Compression mode : Lossy
Stream size : 493 MiB (1%)
Title : Despicable.Me.3.2017.2160p.BluRay.REMUX.HEVC.DTS-X.7.1-FGT
Language : Dutch
Default : No
Forced : No

Audio #7
ID : 9
Format : DTS
Format/Info : Digital Theater Systems
Codec ID : A_DTS
Duration : 1 h 29 min
Bit rate mode : Constant
Bit rate : 768 kb/s
Channel(s) : 6 channels
Channel positions : Front: L C R, Side: L R, LFE
Sampling rate : 48.0 kHz
Frame rate : 93.750 FPS (512 SPF)
Bit depth : 24 bits
Compression mode : Lossy
Stream size : 493 MiB (1%)
Title : Despicable.Me.3.2017.2160p.BluRay.REMUX.HEVC.DTS-X.7.1-FGT
Language : Polish
Default : No
Forced : No

Text #1
ID : 10
Format : PGS
Muxing mode : zlib
Codec ID : S_HDMV/PGS
Codec ID/Info : Picture based subtitle format used on BDs/HD-DVDs
Duration : 1 h 21 min
Bit rate : 46.3 kb/s
Count of elements : 3054
Stream size : 27.0 MiB (0%)
Title : English-PGS
Language : English
Default : Yes
Forced : No

Text #2
ID : 11
Format : PGS
Muxing mode : zlib
Codec ID : S_HDMV/PGS
Codec ID/Info : Picture based subtitle format used on BDs/HD-DVDs
Duration : 1 h 28 min
Bit rate : 25.7 kb/s
Count of elements : 2164
Stream size : 16.3 MiB (0%)
Title : French-PGS
Language : French
Default : No
Forced : No

Text #3
ID : 12
Format : PGS
Muxing mode : zlib
Codec ID : S_HDMV/PGS
Codec ID/Info : Picture based subtitle format used on BDs/HD-DVDs
Duration : 1 h 28 min
Bit rate : 30.7 kb/s
Count of elements : 1814
Stream size : 19.5 MiB (0%)
Title : German-PGS
Language : German
Default : No
Forced : No

Text #4
ID : 13
Format : PGS
Muxing mode : zlib
Codec ID : S_HDMV/PGS
Codec ID/Info : Picture based subtitle format used on BDs/HD-DVDs
Duration : 1 h 28 min
Bit rate : 25.3 kb/s
Count of elements : 1502
Stream size : 16.1 MiB (0%)
Title : Dutch-PGS
Language : Dutch
Default : No
Forced : No

Text #5
ID : 14
Format : PGS
Muxing mode : zlib
Codec ID : S_HDMV/PGS
Codec ID/Info : Picture based subtitle format used on BDs/HD-DVDs
Duration : 1 h 28 min
Bit rate : 27.1 kb/s
Count of elements : 2144
Stream size : 17.2 MiB (0%)
Title : Polish-PGS
Language : Polish
Default : No
Forced : No

Text #6
ID : 15
Format : PGS
Muxing mode : zlib
Codec ID : S_HDMV/PGS
Codec ID/Info : Picture based subtitle format used on BDs/HD-DVDs
Duration : 1 h 26 min
Bit rate : 172 b/s
Count of elements : 16
Stream size : 110 KiB (0%)
Title : French-FORCED-PGS
Language : French
Default : No
Forced : No

Text #7
ID : 16
Format : PGS
Muxing mode : zlib
Codec ID : S_HDMV/PGS
Codec ID/Info : Picture based subtitle format used on BDs/HD-DVDs
Duration : 1 h 27 min
Bit rate : 438 b/s
Count of elements : 30
Stream size : 280 KiB (0%)
Title : German-FORCED-PGS
Language : German
Default : No
Forced : No

Text #8
ID : 17
Format : PGS
Muxing mode : zlib
Codec ID : S_HDMV/PGS
Codec ID/Info : Picture based subtitle format used on BDs/HD-DVDs
Duration : 1 h 27 min
Bit rate : 303 b/s
Count of elements : 28
Stream size : 194 KiB (0%)
Title : Dutch-FORCED-PGS
Language : Dutch
Default : No
Forced : No

Text #9
ID : 18
Format : PGS
Muxing mode : zlib
Codec ID : S_HDMV/PGS
Codec ID/Info : Picture based subtitle format used on BDs/HD-DVDs
Duration : 1 h 27 min
Bit rate : 434 b/s
Count of elements : 36
Stream size : 278 KiB (0%)
Title : Dutch-FORCED-PGS
Language : Dutch
Default : No
Forced : No

Text #10
ID : 19
Format : PGS
Muxing mode : zlib
Codec ID : S_HDMV/PGS
Codec ID/Info : Picture based subtitle format used on BDs/HD-DVDs
Duration : 1 h 27 min
Bit rate : 585 b/s
Count of elements : 46
Stream size : 374 KiB (0%)
Title : Polish-FORCED-PGS
Language : Polish
Default : No
Forced : No

Menu
00:00:00.000 : en:Chapter 1
00:03:06.102 : en:Chapter 2
00:07:57.977 : en:Chapter 3
00:11:12.838 : en:Chapter 4
00:16:15.766 : en:Chapter 5
00:20:07.497 : en:Chapter 6
00:24:07.988 : en:Chapter 7
00:28:57.068 : en:Chapter 8
00:32:55.348 : en:Chapter 9
00:39:01.839 : en:Chapter 10
00:42:44.186 : en:Chapter 11
00:46:47.179 : en:Chapter 12
00:50:55.635 : en:Chapter 13
00:56:12.077 : en:Chapter 14
01:00:02.265 : en:Chapter 15
01:05:41.228 : en:Chapter 16
01:10:14.543 : en:Chapter 17
01:14:33.760 : en:Chapter 18
01:19:29.723 : en:Chapter 19
01:21:56.995 : en:Chapter 20
movie BDRip Video
ID : 1
Format : HEVC
Format/Info : High Efficiency Video Coding
Format profile : Main 10@L5.1@High
Codec ID : V_MPEGH/ISO/HEVC
Duration : 1 h 29 min
Bit rate : 15.1 Mb/s
Width : 3 840 pixels
Height : 1 608 pixels
Display aspect ratio : 2.40:1
Frame rate mode : Constant
Frame rate : 23.976 (24000/1001) FPS
Color space : YUV
Chroma subsampling : 4:2:0 (Type 2)
Bit depth : 10 bits
Bits/(Pixel*Frame) : 0.102
Stream size : 9.45 GiB (71%)
Title : Despicable.Me.3.2017.2160p.BluRay.x265.10bit.HDR.DTS-X.7.1-SWTYBLZ
Writing library : x265 2.5+4-b4a5bcfe29c7:[Windows][GCC 4.9.3][64 bit] 10bit
Encoding settings : cpuid=1173503 / frame-threads=16 / numa-pools=24,24,24,24 / wpp / no-pmode / no-pme / no-psnr / no-ssim / log-level=2 / input-csp=1 / input-res=3840x1608 / interlace=0 / total-frames=0 / level-idc=51 / high-tier=1 / uhd-bd=0 / ref=3 / no-allow-non-conformance / repeat-headers / annexb / aud / hrd / info / hash=0 / no-temporal-layers / no-open-gop / min-keyint=1 / keyint=24 / bframes=4 / b-adapt=2 / b-pyramid / bframe-bias=0 / rc-lookahead=25 / lookahead-slices=4 / scenecut=40 / no-intra-refresh / ctu=64 / min-cu-size=8 / no-rect / no-amp / max-tu-size=32 / tu-inter-depth=1 / tu-intra-depth=1 / limit-tu=0 / rdoq-level=0 / dynamic-rd=0.00 / no-ssim-rd / signhide / no-tskip / nr-intra=0 / nr-inter=0 / no-constrained-intra / strong-intra-smoothing / max-merge=2 / limit-refs=3 / no-limit-modes / me=1 / subme=2 / merange=57 / temporal-mvp / weightp / no-weightb / no-analyze-src-pics / deblock=0:0 / no-sao / no-sao-non-deblock / rd=3 / no-early-skip / rskip / no-fast-intra / no-tskip-fast / no-cu-lossless / no-b-intra / rdpenalty=0 / psy-rd=2.00 / psy-rdoq=0.00 / no-rd-refine / analysis-reuse-mode=0 / no-lossless / cbqpoffs=0 / crqpoffs=0 / rc=crf / crf=16.0 / qcomp=0.60 / qpstep=4 / stats-write=0 / stats-read=0 / vbv-maxrate=160000 / vbv-bufsize=160000 / vbv-init=0.9 / crf-max=0.0 / crf-min=0.0 / ipratio=1.40 / pbratio=1.30 / aq-mode=1 / aq-strength=1.00 / cutree / zone-count=0 / no-strict-cbr / qg-size=32 / no-rc-grain / qpmax=69 / qpmin=0 / no-const-vbv / sar=1 / overscan=0 / videoformat=5 / range=0 / colorprim=9 / transfer=16 / colormatrix=9 / chromaloc=1 / chromaloc-top=2 / chromaloc-bottom=2 / display-window=0 / master-display=G(13250,34500)B(7500,3000)R(34000,16000)WP(15635,16450)L(10000000,50) / max-cll=1000,701 / min-luma=0 / max-luma=1023 / log2-max-poc-lsb=8 / vui-timing-info / vui-hrd-info / slices=1 / opt-qp-pps / opt-ref-list-length-pps / no-multi-pass-opt-rps / scenecut-bias=0.05 / no-opt-cu-delta-qp / no-aq-motion / hdr / hdr-opt / no-dhdr10-opt / analysis-reuse-level=5 / scale-factor=0 / refine-intra=0 / refine-inter=0 / refine-mv=0 / no-limit-sao / ctu-info=0
Language : English
Default : Yes
Forced : No
Color range : Limited
Color primaries : BT.2020
Transfer characteristics : PQ
Matrix coefficients : BT.2020 non-constant
Mastering display color primaries : R: x=0.680000 y=0.320000, G: x=0.265000 y=0.690000, B: x=0.150000 y=0.060000, White point: x=0.312700 y=0.329000
Mastering display luminance : min: 0.0050 cd/m2, max: 1000.0000 cd/m2
Maximum Content Light Level : 1000 cd/m2
Maximum Frame-Average Light Level : 701 cd/m2

Audio #1
ID : 2
Format : DTS
Format/Info : Digital Theater Systems
Format profile : X / MA / Core
Codec ID : A_DTS
Duration : 1 h 29 min
Bit rate mode : Variable / Variable / Constant
Bit rate : 5 524 kb/s / 5 524 kb/s / 1 509 kb/s
Channel(s) : Object Based / 8 channels / 6 channels
Channel positions : Object Based / Front: L C R, Side: L R, Back: L R, LFE / Front: L C R, Side: L R, LFE
Sampling rate : / 48.0 kHz / 48.0 kHz
Frame rate : 93.750 FPS (512 SPF)
Bit depth : / 24 bits / 24 bits
Compression mode : / Lossless / Lossy
Stream size : 3.46 GiB (26%)
Title : Despicable.Me.3.2017.2160p.BluRay.x265.10bit.HDR.DTS-X.7.1-SWTYBLZ
Language : English
Default : Yes
Forced : No

Audio #2
ID : 3
Format : AC-3
Format/Info : Audio Coding 3
Codec ID : A_AC3
Duration : 1 h 29 min
Bit rate mode : Constant
Bit rate : 640 kb/s
Channel(s) : 6 channels
Channel positions : Front: L C R, Side: L R, LFE
Sampling rate : 48.0 kHz
Frame rate : 31.250 FPS (1536 SPF)
Bit depth : 16 bits
Compression mode : Lossy
Stream size : 410 MiB (3%)
Title : Despicable.Me.3.2017.2160p.BluRay.x265.10bit.HDR.DTS-X.7.1-SWTYBLZ
Language : English
Service kind : Complete Main
Default : No
Forced : No

Text #1
ID : 4
Format : UTF-8
Codec ID : S_TEXT/UTF8
Codec ID/Info : UTF-8 Plain Text
Duration : 1 h 21 min
Bit rate : 50 b/s
Count of elements : 1152
Stream size : 30.2 KiB (0%)
Title : English-SRT
Language : English
Default : Yes
Forced : No

Text #2
ID : 5
Format : PGS
Muxing mode : zlib
Codec ID : S_HDMV/PGS
Codec ID/Info : Picture based subtitle format used on BDs/HD-DVDs
Duration : 1 h 21 min
Bit rate : 46.3 kb/s
Count of elements : 3054
Stream size : 27.0 MiB (0%)
Title : English-PGS
Language : English
Default : No
Forced : No

Text #3
ID : 6
Format : PGS
Muxing mode : zlib
Codec ID : S_HDMV/PGS
Codec ID/Info : Picture based subtitle format used on BDs/HD-DVDs
Duration : 1 h 28 min
Bit rate : 25.7 kb/s
Count of elements : 2164
Stream size : 16.3 MiB (0%)
Title : French-PGS
Language : French
Default : No
Forced : No

Text #4
ID : 7
Format : PGS
Muxing mode : zlib
Codec ID : S_HDMV/PGS
Codec ID/Info : Picture based subtitle format used on BDs/HD-DVDs
Duration : 1 h 28 min
Bit rate : 30.7 kb/s
Count of elements : 1814
Stream size : 19.5 MiB (0%)
Title : German-PGS
Language : German
Default : No
Forced : No

Text #5
ID : 8
Format : PGS
Muxing mode : zlib
Codec ID : S_HDMV/PGS
Codec ID/Info : Picture based subtitle format used on BDs/HD-DVDs
Duration : 1 h 28 min
Bit rate : 25.3 kb/s
Count of elements : 1502
Stream size : 16.1 MiB (0%)
Title : Dutch-PGS
Language : Dutch
Default : No
Forced : No

Text #6
ID : 9
Format : PGS
Muxing mode : zlib
Codec ID : S_HDMV/PGS
Codec ID/Info : Picture based subtitle format used on BDs/HD-DVDs
Duration : 1 h 28 min
Bit rate : 27.1 kb/s
Count of elements : 2144
Stream size : 17.2 MiB (0%)
Title : Polish-PGS
Language : Polish
Default : No
Forced : No

Menu
00:00:00.000 : en:Chapter 1
00:03:06.102 : en:Chapter 2
00:07:57.977 : en:Chapter 3
00:11:12.838 : en:Chapter 4
00:16:15.766 : en:Chapter 5
00:20:07.497 : en:Chapter 6
00:24:07.988 : en:Chapter 7
00:28:57.068 : en:Chapter 8
00:32:55.348 : en:Chapter 9
00:39:01.839 : en:Chapter 10
00:42:44.186 : en:Chapter 11
00:46:47.179 : en:Chapter 12
00:50:55.635 : en:Chapter 13
00:56:12.077 : en:Chapter 14
01:00:02.265 : en:Chapter 15
01:05:41.228 : en:Chapter 16
01:10:14.543 : en:Chapter 17
01:14:33.760 : en:Chapter 18
01:19:29.723 : en:Chapter 19
01:21:56.995 : en:Chapter 20

Download

download 4k hdr movies download 4k hdr movies

Despicable Me 3 4K 2017 Ultra HD 2160p


Watch a movie trailer - Despicable Me 3 4K 2017 Ultra HD 2160p
Comments and Feedback
Add your comment:
Your name:
Your E-Mail:
Enter the two words shown in the image: *