Select movie Search movie Close search My Account

The Dark Tower 4K 2017 Ultra HD 2160p

The Dark Tower 4K 2017 Ultra HD 2160p
BDRemux
Country: USA
Time: 1h 35min
IMDB: 5.7
Director: Nikolaj Arcel
Actors: Matthew, Idris Elba, Tom Taylor, Dennis Haysbert, Ben Gavin, Claudia Kim, Jackie Earle, Fran Kranz, Abbey Lee, Katheryn Winnick, Nicholas Pauling, Michael Barbieri, Jos Ziga, Nicholas Hamilton, Inge Beckmann...

Story Movie

The last Gunslinger, Roland Deschain, has been locked in an eternal battle with Walter O'Dim, also known as the Man in Black, determined to prevent him from toppling the Dark Tower, which holds the universe together. With the fate of the worlds at stake, good and evil will collide in the ultimate battle as only Roland can defend the Tower from the Man in Black.

Review 4K Movie

This film reminds me of the situation surrounding the making of The Lord of the Rings trilogy. The film was turned down by one studio after another as none of the studios wanted to commit to making 3 films. One of the studios actually agreed to make it, but only if the script was condensed into a single film. Thankfully the people that had the rights and were pitching the films understood that the idea of translating the entire Lord of the Rings trilogy in a single film was a laughable proposition and the end result would have been a terrible film that would ultimately do no justice to the source material. They were willing to bring it down to 2 films instead of 3, but the studio wound up turning them down.

The final studio they approached was New Line and because all of the other studios had turned them down, they pitched it to New Line as a 2 film series as opposed to a trilogy. Amazingly, New Line agreed to take on the project but only if it was made as a trilogy. Clearly someone at New Line smartly recognized that Lord of the Rings was an amazing project and the only way to do it right was to make it a trilogy. And anyone who has read the Lord of the Rings trilogy understands first hand that there is just way too much material to be condensed into a single film or even 2 films. And as we all know, the films wound up being a HUGE success and made New Line billions. At last look the Trilogy had made more than 6 billion world wide.

Like Lord of the Rings, The Dark Tower series is just way too big to be condensed into a single film. Any film studio that was legitimately serious about doing the Dark Tower series justice would understand that right out of the gate. The Lord of the Rings was 3 books and the running time for the extended versions of the films was 682 minutes or just over 11 hours long. .The Dark Tower series is 8 books and many of them are BIG books. Anyone who thinks that amount of material can be condensed into a single film is living in la la land. I knew going in that this was going to be a cheap attempt at making money off of Stephen Kings name and the popularity of The Dark Tower series and that's exactly what it was. The Dark Tower series is one of my all time favorite book series, as is Lord of the Rings, and this film is literally a bad joke compared to the source material. How they got Matthew McConaughey to sign on to this film when he has had such an amazing run the last 4-5 years is simply beyond my understanding. I will never understand how such an amazing writer has had so many terrible films made from his books.

Bottom line - this was a terrible film, one that does no justice to the source material at all. If your a fan of the Dark Tower books, do yourself a HUGE favor and skip this film. Its like a bad joke of the Dark Tower universe. Everyone involved with this film should be ashamed of being a part of it. The only reason I saw it is because I have a nephew than basically begged me to take him to see it and I have to admit, part of me was curious to see just how bad it really was and in that regard it didn't disappoint. It was just as bad as I expected it to be. This is Hollywood garbage, nothing more and nothing less. Do yourself a favor and put your money elsewhere.

Mediainfo

movie BDRemux Video #1
ID : 1
Format : HEVC
Format/Info : High Efficiency Video Coding
Format profile : Main 10@L5.1@High
Codec ID : V_MPEGH/ISO/HEVC
Duration : 1 h 34 min
Bit rate : 55.1 Mb/s
Width : 3 840 pixels
Height : 2 160 pixels
Display aspect ratio : 16:9
Frame rate mode : Constant
Frame rate : 23.976 (24000/1001) FPS
Color space : YUV
Chroma subsampling : 4:2:0 (Type 2)
Bit depth : 10 bits
Bits/(Pixel*Frame) : 0.277
Stream size : 36.5 GiB (81%)
Title : The.Dark.Tower.2017.2160p.BluRay.REMUX.HEVC.DTS-HD.MA.TrueHD.7.1.Atmos-FGT
Default : Yes
Forced : No
Color range : Limited
Color primaries : BT.2020
Transfer characteristics : PQ
Matrix coefficients : BT.2020 non-constant
Mastering display color primaries : R: x=0.680000 y=0.320000, G: x=0.265000 y=0.690000, B: x=0.150000 y=0.060000, White point: x=0.312700 y=0.329000
Mastering display luminance : min: 0.0050 cd/m2, max: 4000.0000 cd/m2
Maximum Content Light Level : 1542 cd/m2
Maximum Frame-Average Light Level : 555 cd/m2

Video #2
ID : 2
Format : HEVC
Format/Info : High Efficiency Video Coding
Format profile : Main 10@L5.1@High
Codec ID : V_MPEGH/ISO/HEVC
Duration : 1 h 34 min
Bit rate : 123 kb/s
Width : 1 920 pixels
Height : 1 080 pixels
Display aspect ratio : 16:9
Frame rate mode : Constant
Frame rate : 23.976 (24000/1001) FPS
Color space : YUV
Chroma subsampling : 4:2:0 (Type 2)
Bit depth : 10 bits
Bits/(Pixel*Frame) : 0.002
Stream size : 83.1 MiB (0%)
Title : The.Dark.Tower.2017.2160p.BluRay.REMUX.HEVC.DTS-HD.MA.TrueHD.7.1.Atmos-FGT
Default : No
Forced : No
Color range : Limited
Color primaries : BT.2020
Transfer characteristics : PQ
Matrix coefficients : BT.2020 non-constant
Mastering display color primaries : R: x=0.680000 y=0.320000, G: x=0.265000 y=0.690000, B: x=0.150000 y=0.060000, White point: x=0.312700 y=0.329000
Mastering display luminance : min: 0.0050 cd/m2, max: 4000.0000 cd/m2

Audio #1
ID : 3
Format : TrueHD
Format profile : TrueHD+Atmos / TrueHD
Codec ID : A_TRUEHD
Duration : 1 h 34 min
Bit rate mode : Variable
Bit rate : 4 729 kb/s
Maximum bit rate : 7 734 kb/s
Channel(s) : Object Based / 8 channels
Channel positions : Object Based / Front: L C R, Side: L R, Back: L R, LFE
Sampling rate : / 48.0 kHz
Frame rate : 1 200.000 FPS (40 SPF)
Compression mode : Lossless
Stream size : 3.13 GiB (7%)
Title : The.Dark.Tower.2017.2160p.BluRay.REMUX.HEVC.DTS-HD.MA.TrueHD.7.1.Atmos-FGT
Language : English
Default : Yes
Forced : No

Audio #2
ID : 4
Format : DTS
Format/Info : Digital Theater Systems
Format profile : MA / Core
Codec ID : A_DTS
Duration : 1 h 34 min
Bit rate mode : Variable / Constant
Bit rate : 3 953 kb/s / 1 509 kb/s
Channel(s) : 8 channels / 6 channels
Channel positions : Front: L C R, Side: L R, Back: L R, LFE / Front: L C R, Side: L R, LFE
Sampling rate : 48.0 kHz
Frame rate : 93.750 FPS (512 SPF)
Bit depth : 24 bits
Compression mode : Lossless / Lossy
Stream size : 2.62 GiB (6%)
Title : The.Dark.Tower.2017.2160p.BluRay.REMUX.HEVC.DTS-HD.MA.TrueHD.7.1.Atmos-FGT
Language : English
Default : No
Forced : No

Audio #3
ID : 5
Format : AC-3
Format/Info : Audio Coding 3
Codec ID : A_AC3
Duration : 1 h 34 min
Bit rate mode : Constant
Bit rate : 640 kb/s
Channel(s) : 6 channels
Channel positions : Front: L C R, Side: L R, LFE
Sampling rate : 48.0 kHz
Frame rate : 31.250 FPS (1536 SPF)
Bit depth : 16 bits
Compression mode : Lossy
Stream size : 434 MiB (1%)
Title : The.Dark.Tower.2017.2160p.BluRay.REMUX.HEVC.DTS-HD.MA.TrueHD.7.1.Atmos-FGT
Language : English
Service kind : Complete Main
Default : No
Forced : No

Audio #4
ID : 6
Format : AC-3
Format/Info : Audio Coding 3
Codec ID : A_AC3
Duration : 1 h 34 min
Bit rate mode : Constant
Bit rate : 640 kb/s
Channel(s) : 6 channels
Channel positions : Front: L C R, Side: L R, LFE
Sampling rate : 48.0 kHz
Frame rate : 31.250 FPS (1536 SPF)
Bit depth : 16 bits
Compression mode : Lossy
Delay relative to video : 24 ms
Stream size : 434 MiB (1%)
Title : The.Dark.Tower.2017.2160p.BluRay.REMUX.HEVC.DTS-HD.MA.TrueHD.7.1.Atmos-FGT
Language : English
Service kind : Complete Main
Default : No
Forced : No

Audio #5
ID : 7
Format : AC-3
Format/Info : Audio Coding 3
Codec ID : A_AC3
Duration : 1 h 34 min
Bit rate mode : Constant
Bit rate : 640 kb/s
Channel(s) : 6 channels
Channel positions : Front: L C R, Side: L R, LFE
Sampling rate : 48.0 kHz
Frame rate : 31.250 FPS (1536 SPF)
Bit depth : 16 bits
Compression mode : Lossy
Delay relative to video : 24 ms
Stream size : 434 MiB (1%)
Title : The.Dark.Tower.2017.2160p.BluRay.REMUX.HEVC.DTS-HD.MA.TrueHD.7.1.Atmos-FGT
Language : French
Service kind : Complete Main
Default : No
Forced : No

Audio #6
ID : 8
Format : AC-3
Format/Info : Audio Coding 3
Codec ID : A_AC3
Duration : 1 h 34 min
Bit rate mode : Constant
Bit rate : 640 kb/s
Channel(s) : 6 channels
Channel positions : Front: L C R, Side: L R, LFE
Sampling rate : 48.0 kHz
Frame rate : 31.250 FPS (1536 SPF)
Bit depth : 16 bits
Compression mode : Lossy
Delay relative to video : 24 ms
Stream size : 434 MiB (1%)
Title : The.Dark.Tower.2017.2160p.BluRay.REMUX.HEVC.DTS-HD.MA.TrueHD.7.1.Atmos-FGT
Language : Portuguese
Service kind : Complete Main
Default : No
Forced : No

Audio #7
ID : 9
Format : AC-3
Format/Info : Audio Coding 3
Codec ID : A_AC3
Duration : 1 h 34 min
Bit rate mode : Constant
Bit rate : 640 kb/s
Channel(s) : 6 channels
Channel positions : Front: L C R, Side: L R, LFE
Sampling rate : 48.0 kHz
Frame rate : 31.250 FPS (1536 SPF)
Bit depth : 16 bits
Compression mode : Lossy
Delay relative to video : 24 ms
Stream size : 434 MiB (1%)
Title : The.Dark.Tower.2017.2160p.BluRay.REMUX.HEVC.DTS-HD.MA.TrueHD.7.1.Atmos-FGT
Language : Spanish
Service kind : Complete Main
Default : No
Forced : No

Audio #8
ID : 10
Format : AC-3
Format/Info : Audio Coding 3
Codec ID : A_AC3
Duration : 1 h 34 min
Bit rate mode : Constant
Bit rate : 640 kb/s
Channel(s) : 6 channels
Channel positions : Front: L C R, Side: L R, LFE
Sampling rate : 48.0 kHz
Frame rate : 31.250 FPS (1536 SPF)
Bit depth : 16 bits
Compression mode : Lossy
Delay relative to video : 24 ms
Stream size : 434 MiB (1%)
Title : The.Dark.Tower.2017.2160p.BluRay.REMUX.HEVC.DTS-HD.MA.TrueHD.7.1.Atmos-FGT
Language : Thai
Service kind : Complete Main
Default : No
Forced : No

Text #1
ID : 11
Format : PGS
Muxing mode : zlib
Codec ID : S_HDMV/PGS
Codec ID/Info : Picture based subtitle format used on BDs/HD-DVDs
Duration : 1 h 33 min
Bit rate : 25.8 kb/s
Count of elements : 2110
Stream size : 17.2 MiB (0%)
Title : English-PGS
Language : English
Default : Yes
Forced : No

Text #2
ID : 12
Format : PGS
Muxing mode : zlib
Codec ID : S_HDMV/PGS
Codec ID/Info : Picture based subtitle format used on BDs/HD-DVDs
Duration : 1 h 25 min
Bit rate : 24.4 kb/s
Count of elements : 1782
Stream size : 14.9 MiB (0%)
Title : English-PGS
Language : English
Default : No
Forced : No

Text #3
ID : 13
Format : PGS
Muxing mode : zlib
Codec ID : S_HDMV/PGS
Codec ID/Info : Picture based subtitle format used on BDs/HD-DVDs
Duration : 1 h 33 min
Bit rate : 18.0 kb/s
Count of elements : 1766
Stream size : 12.1 MiB (0%)
Title : Chinese-PGS
Language : Chinese
Default : No
Forced : No

Text #4
ID : 14
Format : PGS
Muxing mode : zlib
Codec ID : S_HDMV/PGS
Codec ID/Info : Picture based subtitle format used on BDs/HD-DVDs
Duration : 1 h 33 min
Bit rate : 18.9 kb/s
Count of elements : 1824
Stream size : 12.6 MiB (0%)
Title : Chinese-PGS
Language : Chinese
Default : No
Forced : No

Text #5
ID : 15
Format : PGS
Muxing mode : zlib
Codec ID : S_HDMV/PGS
Codec ID/Info : Picture based subtitle format used on BDs/HD-DVDs
Duration : 1 h 33 min
Bit rate : 17.5 kb/s
Count of elements : 1715
Stream size : 11.7 MiB (0%)
Title : Chinese-PGS
Language : Chinese
Default : No
Forced : No

Text #6
ID : 16
Format : PGS
Muxing mode : zlib
Codec ID : S_HDMV/PGS
Codec ID/Info : Picture based subtitle format used on BDs/HD-DVDs
Duration : 1 h 33 min
Bit rate : 19.2 kb/s
Count of elements : 1672
Stream size : 12.9 MiB (0%)
Title : French-PGS
Language : French
Default : No
Forced : No

Text #7
ID : 17
Format : PGS
Muxing mode : zlib
Codec ID : S_HDMV/PGS
Codec ID/Info : Picture based subtitle format used on BDs/HD-DVDs
Duration : 1 h 33 min
Bit rate : 23.8 kb/s
Count of elements : 1706
Stream size : 16.0 MiB (0%)
Title : Indonesian-PGS
Language : Indonesian
Default : No
Forced : No

Text #8
ID : 18
Format : PGS
Muxing mode : zlib
Codec ID : S_HDMV/PGS
Codec ID/Info : Picture based subtitle format used on BDs/HD-DVDs
Duration : 1 h 33 min
Bit rate : 17.5 kb/s
Count of elements : 1788
Stream size : 11.7 MiB (0%)
Title : Korean-PGS
Language : Korean
Default : No
Forced : No

Text #9
ID : 19
Format : PGS
Muxing mode : zlib
Codec ID : S_HDMV/PGS
Codec ID/Info : Picture based subtitle format used on BDs/HD-DVDs
Duration : 1 h 33 min
Bit rate : 25.6 kb/s
Count of elements : 1802
Stream size : 17.2 MiB (0%)
Title : Malay-PGS
Language : Malay
Default : No
Forced : No

Text #10
ID : 20
Format : PGS
Muxing mode : zlib
Codec ID : S_HDMV/PGS
Codec ID/Info : Picture based subtitle format used on BDs/HD-DVDs
Duration : 1 h 33 min
Bit rate : 22.6 kb/s
Count of elements : 1701
Stream size : 15.1 MiB (0%)
Title : Portuguese-PGS
Language : Portuguese
Default : No
Forced : No

Text #11
ID : 21
Format : PGS
Muxing mode : zlib
Codec ID : S_HDMV/PGS
Codec ID/Info : Picture based subtitle format used on BDs/HD-DVDs
Duration : 1 h 33 min
Bit rate : 21.2 kb/s
Count of elements : 1756
Stream size : 14.2 MiB (0%)
Title : Spanish-PGS
Language : Spanish
Default : No
Forced : No

Text #12
ID : 22
Format : PGS
Muxing mode : zlib
Codec ID : S_HDMV/PGS
Codec ID/Info : Picture based subtitle format used on BDs/HD-DVDs
Duration : 1 h 33 min
Bit rate : 20.7 kb/s
Count of elements : 1707
Stream size : 13.9 MiB (0%)
Title : Thai-PGS
Language : Thai
Default : No
Forced : No

Text #13
ID : 23
Format : PGS
Muxing mode : zlib
Codec ID : S_HDMV/PGS
Codec ID/Info : Picture based subtitle format used on BDs/HD-DVDs
Duration : 1 h 33 min
Bit rate : 25.1 kb/s
Count of elements : 1806
Stream size : 16.8 MiB (0%)
Title : Vietnamese-PGS
Language : Vietnamese
Default : No
Forced : No

Text #14
ID : 24
Format : PGS
Muxing mode : zlib
Codec ID : S_HDMV/PGS
Codec ID/Info : Picture based subtitle format used on BDs/HD-DVDs
Duration : 1 h 33 min
Bit rate : 165 b/s
Count of elements : 8
Stream size : 113 KiB (0%)
Title : French-FORCED-PGS
Language : French
Default : No
Forced : No

Menu
00:00:00.000 : en:Chapter 1
00:05:51.642 : en:Chapter 2
00:10:36.093 : en:Chapter 3
00:16:33.617 : en:Chapter 4
00:21:54.896 : en:Chapter 5
00:25:35.534 : en:Chapter 6
00:31:01.985 : en:Chapter 7
00:36:25.183 : en:Chapter 8
00:40:49.822 : en:Chapter 9
00:46:02.134 : en:Chapter 10
00:53:18.403 : en:Chapter 11
00:58:42.852 : en:Chapter 12
01:03:51.118 : en:Chapter 13
01:10:37.650 : en:Chapter 14
01:15:53.173 : en:Chapter 15
01:21:15.203 : en:Chapter 16

Download

download 4k hdr movies

The Dark Tower 4K 2017 Ultra HD 2160p


Watch a movie trailer - The Dark Tower 4K 2017 Ultra HD 2160p
Comments and Feedback
Add your comment:
Your name:
Your E-Mail:
Code:
reload, if the code cannot be seen
Enter code: