Select movie Search movie Close search My Account

Avengers: Infinity War 4K 2018 Ultra HD 2160p

Avengers: Infinity War 4K 2018 Ultra HD 2160p
BDRemux / BDRip
Country: USA
Time: 2h 29min
IMDB: 8.7
Director: Anthony Russo, Joe Russo
Actors: Robert Downey Jr., Chris Hemsworth, Mark Ruffalo, Chris Evans, Scarlett Johansson, Don Cheadle, Benedict Cumberbatch, Tom Holland, Chadwick Boseman, Zoe Saldana, Karen Gillan, Tom Hiddleston, Paul Bettany, Elizabeth Olsen, Anthony Mackie...

Story Movie

Avengers: Infinity War 4K 2018 Ultra HD 2160p
Movie 4K for download title Avengers: Infinity War 4K 2018. Remux Ultra HD movie online on iMAC. Enjoy!

Review 4K Movie

Of course, I expected this 4K movie to be good. After all, this is, in fact, the culmination of the entire cinematic universe "Marvel". Surprisingly, the franchise is only ten years old and the first film, Iron Man, appeared relatively recently, in 2008, and it has already become cultic. Of course, most of the success of films is comics, but I mean those. who did not read comics from Marvel and for whom these characters: Thor, Iron Man and Captain America were new. "Marvel" from the film to the film demonstrates the quality of Ultra ND. Some of their films are better ("Iron Man", both parts of "The Guardians of the Galaxy", "The First Avenger: Confrontation"), others are clearly worse (solo films of Captain America, Hulk and Black Panther, which, however, were needed to present the characters but the average quality bar has always been and remains high, but the fact that the "Avengers: War of Infinity" will turn out to be such a chic movie, I did not expect. "This film is not justified, it even managed to outdo my expectations. Anthony and Joe Russo shot one of the best If not the most, the film franchise. But in terms of emotion no one in the cinematic universe, I think, do not argue with the "War of infinity."

The film 4K really wants to be praised for the fact that he was able to competently show a huge number of characters, with which not everyone can cope. From the examples you can recall the last "Ice Age", the plot of which, because of the large number of heroes, literally fell apart. Of course, the example is not entirely correct, but the meaning, I think it is clear. It is difficult to show all these charismatic and bright heroes together, while intelligently smearing their presence in the film for two and a half hours of tape timing. Again, we can cite the example of the "League of Justice", whose action due to the need to represent a large number of superheroes turned out to be too chaotic and inconsistent. Fortunately, in "Marvel" they are able to make team films, they have everything (except, perhaps, "The Age of the Altron") turned out to be at the proper level. Moreover, the smooth development of the franchise, the solos of various characters have made it possible to do without unnecessary representation of the heroes and go straight to the action. The film looks holistically, and the story lines develop very consistently. We do not need to know who Peter Quill, Gamora and others are. Do not need to tell who Dr. Stephen Strange is and where he has such abilities. Wakida also needs no introduction, for everything you need to know about it can be seen in the recent "Black Panther".

Acting at a height. However, as always. Robert Downey Jr., Chris Pratt, Zoe Saldana, Tom Holland, Chris Hamsworth, Benedict Cumberbatch, and especially Josh Brolin in the role of the mad Thanos were very good. The rest of the actors are on the level. Most of all, in addition to Thanos, liked Dr. Strange. Cumberbatch gorgeous in this role.

I liked very much how the creators introduced Thanos. His motivation, his plan. Thanos did not turn out to be an unequivocal villain who wants only to do evil and whom you hate along with the main characters. No, Thanos is completely different. At some point, even begin to empathize with him. Yes, his methods are terrible, but, in the end, he does everything not because he's so evil and wants to drown the universe in his blood, but because he wants to do it better. Yes, everyone has his own idea about that. how to make the world better, in Thanos it is. Thanos is the best villain in the cinematic universe "Marvel". This is a film about him. This is completely his picture.

Visual effects are very good. Scenes in space, on Earth, in Wakanda are shot just fine.

The film competently combines several genres at once. Here and to you and the space opera (everything that is connected with the Guardians of the Galaxy), and science fiction (scenes on Earth), even fantasy (that is related to Dr. Strange and Thanos). The film does not turn into a hodge-podge, and all genres competently fit into this picture.

You can also praise the movie for humor. It's enough here - a typical humor from "Marvel". But it works, the jokes are very good and they make fun when it's necessary.

Find fault with the film, there are shortcomings, there are a lot of them. However, the film is so good that all the flaws just fade away.

"Avengers: The War of Infinity" is. without exaggeration, a gorgeous film. This is a real feast for the fans of "Marvel" and not only. This is a real apogee of what they did "Marvel". The film was given huge hopes and it completely justifies them. For the sake of these two and a half hours it took a decade to carefully and painstakingly build a franchise. "War of Infinity" was a success. Watching this is necessary on a large screen, preferably in IMAX. Believe me, it's worth it.

Mediainfo

movie BDRemux Video
ID : 1
Format : HEVC
Format/Info : High Efficiency Video Coding
Commercial name : HDR10
Format profile : Main 10@L5.1@High
Codec ID : V_MPEGH/ISO/HEVC
Duration : 2 h 29 min
Bit rate : 45.9 Mb/s
Width : 3 840 pixels
Height : 2 160 pixels
Display aspect ratio : 16:9
Frame rate mode : Constant
Frame rate : 23.976 (24000/1001) FPS
Color space : YUV
Chroma subsampling : 4:2:0 (Type 2)
Bit depth : 10 bits
Bits/(Pixel*Frame) : 0.231
Stream size : 47.9 GiB (80%)
Title : Avengers.Infinity.War.2018.2160p.BluRay.REMUX.HEVC.DTS-HD.MA.TrueHD.7.1.Atmos
Writing library : ATEME Titan File 3.8.16 (4.8.16.0)
Language : English
Default : Yes
Forced : No
Color range : Limited
Color primaries : BT.2020
Transfer characteristics : PQ
Matrix coefficients : BT.2020 non-constant
Mastering display color primaries : Display P3
Mastering display luminance : min: 0.0001 cd/m2, max: 1000 cd/m2

Audio #1
ID : 2
Format : TrueHD
Format profile : TrueHD+Atmos / TrueHD
Codec ID : A_TRUEHD
Duration : 2 h 29 min
Bit rate mode : Variable
Bit rate : 4 534 kb/s
Maximum bit rate : 6 930 kb/s
Channel(s) : Object Based / 8 channels
Channel positions : Object Based / Front: L C R, Side: L R, Back: L R, LFE
Sampling rate : / 48.0 kHz
Frame rate : 1 200.000 FPS (40 SPF)
Compression mode : Lossless
Stream size : 4.73 GiB (8%)
Title : Avengers.Infinity.War.2018.2160p.BluRay.REMUX.HEVC.DTS-HD.MA.TrueHD.7.1.Atmos
Language : English
Default : Yes
Forced : No

Audio #2
ID : 3
Format : DTS
Format/Info : Digital Theater Systems
Format profile : MA / Core
Codec ID : A_DTS
Duration : 2 h 29 min
Bit rate mode : Variable / Constant
Bit rate : 3 290 kb/s / 1 509 kb/s
Channel(s) : 8 channels / 6 channels
Channel positions : Front: L C R, Side: L R, Back: L R, LFE / Front: L C R, Side: L R, LFE
Sampling rate : 48.0 kHz
Frame rate : 93.750 FPS (512 SPF)
Bit depth : 24 bits
Compression mode : Lossless / Lossy
Stream size : 3.43 GiB (6%)
Title : Avengers.Infinity.War.2018.2160p.BluRay.REMUX.HEVC.DTS-HD.MA.TrueHD.7.1.Atmos
Language : English
Default : No
Forced : No

Audio #3
ID : 4
Format : AC-3
Format/Info : Audio Coding 3
Codec ID : A_AC3
Duration : 2 h 29 min
Bit rate mode : Constant
Bit rate : 640 kb/s
Channel(s) : 6 channels
Channel positions : Front: L C R, Side: L R, LFE
Sampling rate : 48.0 kHz
Frame rate : 31.250 FPS (1536 SPF)
Bit depth : 16 bits
Compression mode : Lossy
Stream size : 684 MiB (1%)
Title : Avengers.Infinity.War.2018.2160p.BluRay.REMUX.HEVC.DTS-HD.MA.TrueHD.7.1.Atmos
Language : English
Service kind : Complete Main
Default : No
Forced : No

Audio #4
ID : 5
Format : AC-3
Format/Info : Audio Coding 3
Codec ID : A_AC3
Duration : 2 h 29 min
Bit rate mode : Constant
Bit rate : 320 kb/s
Channel(s) : 2 channels
Channel positions : Front: L R
Sampling rate : 48.0 kHz
Frame rate : 31.250 FPS (1536 SPF)
Bit depth : 16 bits
Compression mode : Lossy
Stream size : 342 MiB (1%)
Title : Avengers.Infinity.War.2018.2160p.BluRay.REMUX.HEVC.DTS-HD.MA.TrueHD.7.1.Atmos
Language : English
Service kind : Complete Main
Default : No
Forced : No

Audio #5
ID : 6
Format : AC-3
Format/Info : Audio Coding 3
Codec ID : A_AC3
Duration : 2 h 29 min
Bit rate mode : Constant
Bit rate : 640 kb/s
Channel(s) : 6 channels
Channel positions : Front: L C R, Side: L R, LFE
Sampling rate : 48.0 kHz
Frame rate : 31.250 FPS (1536 SPF)
Bit depth : 16 bits
Compression mode : Lossy
Stream size : 684 MiB (1%)
Title : Avengers.Infinity.War.2018.2160p.BluRay.REMUX.HEVC.DTS-HD.MA.TrueHD.7.1.Atmos
Language : French
Service kind : Complete Main
Default : No
Forced : No

Audio #6
ID : 7
Format : E-AC-3
Format/Info : Enhanced Audio Coding 3
Codec ID : A_EAC3
Duration : 2 h 29 min
Bit rate mode : Constant
Bit rate : 500 b/s
Channel(s) : 8 channels
Channel(s)_Original : 6 channels
Channel positions : Front: L C R, Side: L R, LFE
Sampling rate : 48.0 kHz
Frame rate : 187.500 FPS (256 SPF)
Compression mode : Lossy
Stream size : 1.07 GiB (2%)
Title : Avengers.Infinity.War.2018.2160p.BluRay.REMUX.HEVC.DTS-HD.MA.TrueHD.7.1.Atmos
Language : Spanish
Service kind : Complete Main
Default : No
Forced : No

Audio #7
ID : 8
Format : E-AC-3
Format/Info : Enhanced Audio Coding 3
Codec ID : A_EAC3
Duration : 2 h 29 min
Bit rate mode : Constant
Bit rate : 500 b/s
Channel(s) : 8 channels
Channel(s)_Original : 6 channels
Channel positions : Front: L C R, Side: L R, LFE
Sampling rate : 48.0 kHz
Frame rate : 187.500 FPS (256 SPF)
Compression mode : Lossy
Stream size : 1.07 GiB (2%)
Title : Avengers.Infinity.War.2018.2160p.BluRay.REMUX.HEVC.DTS-HD.MA.TrueHD.7.1.Atmos
Language : Japanese
Service kind : Complete Main
Default : No
Forced : No

Text #1
ID : 9
Format : PGS
Muxing mode : zlib
Codec ID : S_HDMV/PGS
Codec ID/Info : Picture based subtitle format used on BDs/HD-DVDs
Duration : 2 h 28 min
Bit rate : 32.7 kb/s
Count of elements : 4134
Stream size : 34.7 MiB (0%)
Title : English-PGS
Language : English
Default : Yes
Forced : No

Text #2
ID : 10
Format : PGS
Muxing mode : zlib
Codec ID : S_HDMV/PGS
Codec ID/Info : Picture based subtitle format used on BDs/HD-DVDs
Duration : 2 h 28 min
Bit rate : 24.8 kb/s
Count of elements : 3194
Stream size : 26.4 MiB (0%)
Title : French-PGS
Language : French
Default : No
Forced : No

Text #3
ID : 11
Format : PGS
Muxing mode : zlib
Codec ID : S_HDMV/PGS
Codec ID/Info : Picture based subtitle format used on BDs/HD-DVDs
Duration : 2 h 28 min
Bit rate : 24.3 kb/s
Count of elements : 3144
Stream size : 25.9 MiB (0%)
Title : Spanish-PGS
Language : Spanish
Default : No
Forced : No

Text #4
ID : 12
Format : PGS
Muxing mode : zlib
Codec ID : S_HDMV/PGS
Codec ID/Info : Picture based subtitle format used on BDs/HD-DVDs
Duration : 2 h 28 min
Bit rate : 15.6 kb/s
Count of elements : 3152
Stream size : 16.6 MiB (0%)
Title : Chinese-PGS
Language : Chinese
Default : No
Forced : No

Text #5
ID : 13
Format : PGS
Muxing mode : zlib
Codec ID : S_HDMV/PGS
Codec ID/Info : Picture based subtitle format used on BDs/HD-DVDs
Duration : 2 h 28 min
Bit rate : 20.1 kb/s
Count of elements : 3040
Stream size : 21.4 MiB (0%)
Title : Japanese-PGS
Language : Japanese
Default : No
Forced : No

Text #6
ID : 14
Format : PGS
Muxing mode : zlib
Codec ID : S_HDMV/PGS
Codec ID/Info : Picture based subtitle format used on BDs/HD-DVDs
Duration : 2 h 28 min
Bit rate : 12.8 kb/s
Count of elements : 3150
Stream size : 13.6 MiB (0%)
Title : Korean-PGS
Language : Korean
Default : No
Forced : No

Text #7
ID : 15
Format : PGS
Muxing mode : zlib
Codec ID : S_HDMV/PGS
Codec ID/Info : Picture based subtitle format used on BDs/HD-DVDs
Duration : 2 h 28 min
Bit rate : 15.8 kb/s
Count of elements : 3154
Stream size : 16.8 MiB (0%)
Title : Thai-PGS
Language : Thai
Default : No
Forced : No

Text #8
ID : 16
Format : PGS
Muxing mode : zlib
Codec ID : S_HDMV/PGS
Codec ID/Info : Picture based subtitle format used on BDs/HD-DVDs
Duration : 2 h 28 min
Bit rate : 18.4 kb/s
Count of elements : 3150
Stream size : 19.6 MiB (0%)
Title : Chinese-PGS
Language : Chinese
Default : No
Forced : No

Text #9
ID : 17
Format : PGS
Muxing mode : zlib
Codec ID : S_HDMV/PGS
Codec ID/Info : Picture based subtitle format used on BDs/HD-DVDs
Duration : 1 s 126 ms
Bit rate : 87.8 kb/s
Count of elements : 2
Stream size : 12.1 KiB (0%)
Title : English-FORCED-PGS
Language : English
Default : No
Forced : No

Text #10
ID : 18
Format : PGS
Muxing mode : zlib
Codec ID : S_HDMV/PGS
Codec ID/Info : Picture based subtitle format used on BDs/HD-DVDs
Duration : 2 h 17 min
Bit rate : 431 b/s
Count of elements : 70
Stream size : 436 KiB (0%)
Title : French-FORCED-PGS
Language : French
Default : No
Forced : No

Text #11
ID : 19
Format : PGS
Muxing mode : zlib
Codec ID : S_HDMV/PGS
Codec ID/Info : Picture based subtitle format used on BDs/HD-DVDs
Duration : 2 h 1 min
Bit rate : 136 b/s
Count of elements : 16
Stream size : 122 KiB (0%)
Title : Spanish-FORCED-PGS
Language : Spanish
Default : No
Forced : No

Text #12
ID : 20
Format : PGS
Muxing mode : zlib
Codec ID : S_HDMV/PGS
Codec ID/Info : Picture based subtitle format used on BDs/HD-DVDs
Duration : 2 h 12 min
Bit rate : 152 b/s
Count of elements : 28
Stream size : 148 KiB (0%)
Title : Japanese-FORCED-PGS
Language : Japanese
Default : No
Forced : No

Menu
00:00:00.000 : en:Chapter 1
00:11:28.729 : en:Chapter 2
00:18:13.884 : en:Chapter 3
00:27:23.808 : en:Chapter 4
00:35:48.813 : en:Chapter 5
00:42:23.541 : en:Chapter 6
00:54:12.874 : en:Chapter 7
00:59:36.739 : en:Chapter 8
01:05:07.153 : en:Chapter 9
01:10:53.666 : en:Chapter 10
01:17:06.955 : en:Chapter 11
01:24:14.758 : en:Chapter 12
01:31:08.004 : en:Chapter 13
01:42:00.405 : en:Chapter 14
01:45:57.809 : en:Chapter 15
01:53:04.068 : en:Chapter 16
01:58:52.917 : en:Chapter 17
02:03:58.180 : en:Chapter 18
02:11:13.282 : en:Chapter 19
02:17:31.284 : en:Chapter 20
movie BDRip Video
ID : 1
Format : HEVC
Format/Info : High Efficiency Video Coding
Commercial name : HDR10
Format profile : Main 10@L5.1@High
Codec ID : V_MPEGH/ISO/HEVC
Duration : 2 h 29 min
Bit rate : 13.7 Mb/s
Width : 3 840 pixels
Height : 1 608 pixels
Display aspect ratio : 2.40:1
Frame rate mode : Constant
Frame rate : 23.976 (24000/1001) FPS
Color space : YUV
Chroma subsampling : 4:2:0 (Type 2)
Bit depth : 10 bits
Bits/(Pixel*Frame) : 0.093
Stream size : 14.3 GiB (72%)
Writing library : x265 2.8+10-703eade86b53:[Windows][MSVC 1914][64 bit] 10bit
Encoding settings : cpuid=1111039 / frame-threads=4 / numa-pools=20 / wpp / no-pmode / no-pme / no-psnr / no-ssim / log-level=2 / input-csp=1 / input-res=3840x1608 / interlace=0 / total-frames=214872 / level-idc=51 / high-tier=1 / uhd-bd=0 / ref=4 / no-allow-non-conformance / repeat-headers / annexb / aud / hrd / info / hash=0 / no-temporal-layers / no-open-gop / min-keyint=1 / keyint=24 / gop-lookahead=0 / bframes=4 / b-adapt=2 / b-pyramid / bframe-bias=0 / rc-lookahead=25 / lookahead-slices=4 / scenecut=40 / radl=0 / no-intra-refresh / ctu=64 / min-cu-size=8 / rect / no-amp / max-tu-size=32 / tu-inter-depth=1 / tu-intra-depth=1 / limit-tu=0 / rdoq-level=2 / dynamic-rd=0.00 / no-ssim-rd / signhide / no-tskip / nr-intra=0 / nr-inter=0 / no-constrained-intra / no-strong-intra-smoothing / max-merge=3 / limit-refs=3 / limit-modes / me=3 / subme=3 / merange=57 / temporal-mvp / weightp / no-weightb / no-analyze-src-pics / deblock=-3:-3 / no-sao / no-sao-non-deblock / rd=4 / no-early-skip / rskip / no-fast-intra / no-tskip-fast / no-cu-lossless / no-b-intra / no-splitrd-skip / rdpenalty=0 / psy-rd=2.00 / psy-rdoq=1.00 / no-rd-refine / no-lossless / cbqpoffs=0 / crqpoffs=0 / rc=crf / crf=17.0 / qcomp=0.60 / qpstep=4 / stats-write=0 / stats-read=0 / vbv-maxrate=160000 / vbv-bufsize=160000 / vbv-init=0.9 / crf-max=0.0 / crf-min=0.0 / ipratio=1.40 / pbratio=1.30 / aq-mode=1 / aq-strength=1.00 / cutree / zone-count=0 / no-strict-cbr / qg-size=32 / no-rc-grain / qpmax=69 / qpmin=0 / no-const-vbv / sar=1 / overscan=0 / videoformat=5 / range=0 / colorprim=9 / transfer=16 / colormatrix=9 / chromaloc=1 / chromaloc-top=2 / chromaloc-bottom=2 / display-window=0 / master-display=G(13250,34500)B(7500,3000)R(34000,16000)WP(15635,16450)L(10000000,1) / max-cll=0,0 / min-luma=0 / max-luma=1023 / log2-max-poc-lsb=8 / vui-timing-info / vui-hrd-info / slices=1 / no-opt-qp-pps / no-opt-ref-list-length-pps / no-multi-pass-opt-rps / scenecut-bias=0.05 / no-opt-cu-delta-qp / no-aq-motion / hdr / hdr-opt / no-dhdr10-opt / no-idr-recovery-sei / analysis-reuse-level=5 / scale-factor=0 / refine-intra=0 / refine-inter=0 / refine-mv=0 / no-limit-sao / ctu-info=0 / no-lowpass-dct / refine-mv-type=0 / copy-pic=1 / max-ausize-factor=1.0 / no-dynamic-refine / no-single-sei
Default : Yes
Forced : No
Color range : Limited
Color primaries : BT.2020
Transfer characteristics : PQ
Matrix coefficients : BT.2020 non-constant
Mastering display color primaries : Display P3
Mastering display luminance : min: 0.0001 cd/m2, max: 1000 cd/m2

Audio #1
ID : 2
Format : TrueHD
Format profile : TrueHD+Atmos / TrueHD
Codec ID : A_TRUEHD
Duration : 2 h 29 min
Bit rate mode : Variable
Bit rate : 4 534 kb/s
Maximum bit rate : 6 930 kb/s
Channel(s) : Object Based / 8 channels
Channel positions : Object Based / Front: L C R, Side: L R, Back: L R, LFE
Sampling rate : / 48.0 kHz
Frame rate : 1 200.000 FPS (40 SPF)
Compression mode : Lossless
Stream size : 4.73 GiB (24%)
Language : English
Default : Yes
Forced : No

Audio #2
ID : 3
Format : AC-3
Format/Info : Audio Coding 3
Codec ID : A_AC3
Duration : 2 h 29 min
Bit rate mode : Constant
Bit rate : 640 kb/s
Channel(s) : 6 channels
Channel positions : Front: L C R, Side: L R, LFE
Sampling rate : 48.0 kHz
Frame rate : 31.250 FPS (1536 SPF)
Bit depth : 16 bits
Compression mode : Lossy
Stream size : 684 MiB (3%)
Language : English
Service kind : Complete Main
Default : No
Forced : No

Text #1
ID : 4
Format : UTF-8
Codec ID : S_TEXT/UTF8
Codec ID/Info : UTF-8 Plain Text
Duration : 1 s 126 ms
Bit rate : 134 b/s
Count of elements : 1
Stream size : 19.0 Bytes (0%)
Title : English Forced
Language : English
Default : Yes
Forced : Yes

Text #2
ID : 5
Format : PGS
Muxing mode : zlib
Codec ID : S_HDMV/PGS
Codec ID/Info : Picture based subtitle format used on BDs/HD-DVDs
Duration : 2 h 28 min
Bit rate : 32.7 kb/s
Count of elements : 4134
Stream size : 34.7 MiB (0%)
Title : English SDH
Language : English
Default : No
Forced : No

Text #3
ID : 6
Format : PGS
Muxing mode : zlib
Codec ID : S_HDMV/PGS
Codec ID/Info : Picture based subtitle format used on BDs/HD-DVDs
Duration : 2 h 28 min
Bit rate : 24.8 kb/s
Count of elements : 3194
Stream size : 26.4 MiB (0%)
Language : French
Default : No
Forced : No

Text #4
ID : 7
Format : PGS
Muxing mode : zlib
Codec ID : S_HDMV/PGS
Codec ID/Info : Picture based subtitle format used on BDs/HD-DVDs
Duration : 2 h 28 min
Bit rate : 24.3 kb/s
Count of elements : 3144
Stream size : 25.9 MiB (0%)
Language : Spanish
Default : No
Forced : No

Text #5
ID : 8
Format : PGS
Muxing mode : zlib
Codec ID : S_HDMV/PGS
Codec ID/Info : Picture based subtitle format used on BDs/HD-DVDs
Duration : 2 h 28 min
Bit rate : 15.6 kb/s
Count of elements : 3152
Stream size : 16.6 MiB (0%)
Language : Chinese
Default : No
Forced : No

Text #6
ID : 9
Format : PGS
Muxing mode : zlib
Codec ID : S_HDMV/PGS
Codec ID/Info : Picture based subtitle format used on BDs/HD-DVDs
Duration : 2 h 28 min
Bit rate : 20.1 kb/s
Count of elements : 3040
Stream size : 21.4 MiB (0%)
Language : Japanese
Default : No
Forced : No

Text #7
ID : 10
Format : PGS
Muxing mode : zlib
Codec ID : S_HDMV/PGS
Codec ID/Info : Picture based subtitle format used on BDs/HD-DVDs
Duration : 2 h 28 min
Bit rate : 12.8 kb/s
Count of elements : 3150
Stream size : 13.6 MiB (0%)
Language : Korean
Default : No
Forced : No

Text #8
ID : 11
Format : PGS
Muxing mode : zlib
Codec ID : S_HDMV/PGS
Codec ID/Info : Picture based subtitle format used on BDs/HD-DVDs
Duration : 2 h 28 min
Bit rate : 15.8 kb/s
Count of elements : 3154
Stream size : 16.8 MiB (0%)
Language : Thai
Default : No
Forced : No

Text #9
ID : 12
Format : PGS
Muxing mode : zlib
Codec ID : S_HDMV/PGS
Codec ID/Info : Picture based subtitle format used on BDs/HD-DVDs
Duration : 2 h 28 min
Bit rate : 18.4 kb/s
Count of elements : 3150
Stream size : 19.6 MiB (0%)
Language : Chinese
Default : No
Forced : No

Text #10
ID : 13
Format : PGS
Muxing mode : zlib
Codec ID : S_HDMV/PGS
Codec ID/Info : Picture based subtitle format used on BDs/HD-DVDs
Duration : 2 h 17 min
Bit rate : 431 b/s
Count of elements : 70
Stream size : 436 KiB (0%)
Language : French
Default : No
Forced : No

Text #11
ID : 14
Format : PGS
Muxing mode : zlib
Codec ID : S_HDMV/PGS
Codec ID/Info : Picture based subtitle format used on BDs/HD-DVDs
Duration : 2 h 1 min
Bit rate : 136 b/s
Count of elements : 16
Stream size : 122 KiB (0%)
Language : Spanish
Default : No
Forced : No

Text #12
ID : 15
Format : PGS
Muxing mode : zlib
Codec ID : S_HDMV/PGS
Codec ID/Info : Picture based subtitle format used on BDs/HD-DVDs
Duration : 2 h 12 min
Bit rate : 152 b/s
Count of elements : 28
Stream size : 148 KiB (0%)
Language : Japanese
Default : No
Forced : No

Menu
00:00:00.000 : en:00:00:00.000
00:11:28.730 : en:00:11:28.730
00:18:13.884 : en:00:18:13.884
00:27:23.809 : en:00:27:23.809
00:35:48.813 : en:00:35:48.813
00:42:23.541 : en:00:42:23.541
00:54:12.875 : en:00:54:12.875
00:59:36.740 : en:00:59:36.740
01:05:07.153 : en:01:05:07.153
01:10:53.666 : en:01:10:53.666
01:17:06.956 : en:01:17:06.956
01:24:14.758 : en:01:24:14.758
01:31:08.004 : en:01:31:08.004
01:42:00.406 : en:01:42:00.406
01:45:57.810 : en:01:45:57.810
01:53:04.069 : en:01:53:04.069
01:58:52.917 : en:01:58:52.917
02:03:58.181 : en:02:03:58.181
02:11:13.282 : en:02:11:13.282
02:17:31.285 : en:02:17:31.285
Trailer:

Download

download 4k hdr movies download 4k hdr movies

Watch a movie trailer - Avengers: Infinity War 4K 2018 Ultra HD 2160p
Comments and Feedback
  1. - 0 +
    MSN  пишет:
    6 April 2019 12:00
    Anyone guide me how to download movies frome this site as free download user?
  2. - 0 +
    Cialis Coupon  пишет:
    18 April 2019 15:18
    Are there any precautions of alcohol and Cialis Generic? Coupon for Cialis Ordering Cialis Coupon side effects breast. Buy Cialis Coupon pills. Cialis Coupon How long for Cialis Coupon side effects to go away?
  3. - 0 +
    Siddhardha  пишет:
    19 May 2019 11:47
    Could you please give below 10gb
    Please 🙏
Add your comment:
Your name:
Your E-Mail:
Code:
reload, if the code cannot be seen
Enter code: