Select movie Search movie Close search My Account

Star Wars Episode VIII - The Last Jedi 4K 2017 Ultra HD 2160p

Star Wars Episode VIII - The Last Jedi 4K 2017 Ultra HD 2160p
BDRemux / BDRip
Country: USA
Time: 2h 32min
IMDB: 7.4
Director: Rian Johnson
Actors: Mark Hamill, Carrie Fisher, Adam Driver, Daisy Ridley, John Boyega, Oscar Isaac, Andy Serkis, Lupita Nyong'o, Domhnall Gleeson, Anthony Daniels, Gwendoline Christie, Kelly Marie Tran, Laura Dern, Benicio Del Toro, Frank Oz...

Story Movie

Star Wars Episode VIII - The Last Jedi 4K Ultra HD movie download. The resolution of the film is 3840 x 2160 pixels, the exact image quality of Blu-ray REMUX, excellent sound quality Dolby TrueHD 7.1.

Review 4K Movie

"I'll tell you about the Jedi way and why they should disappear"

Let's start with the reaction of the professional "component" of the audience to this creation. In the first days of the shows, the opinions of journalists and critics were in one word - "delight". Of the 162 reviews, only 11 negative (Rotten Tomatoes). Star Wars Episode VIII - The Last Jedi 4k download.

As soon as the film Ultra HD was released and the crowds of "sofa critics" ran to write reviews - opinions were divided clearly into two sides. From the answers to the question "what kind of a failure was the audience found in the eighth episode?", We will also reveal a new episode of the famous universe:

First - a complete violation of the logic and realism of the picture. To begin with, Star Wars has always been not just a cosmopolitan, but also a fantastic comedy and, recalling the original parts of the franchise, it can not be said that logic, and all the more realism, is "off scale". Against the background of what a new chapter came out, talking about the bombers of the "Second World War", Hux's funny pursuit of resistance and the Force of Yoda from the parallel world means just finding fault with the film. In this episode appeared thin modern humor, the self-irony of the characters over the canons, completely new rules of the universe and the evolution of the Force in the person of Kylo Ren - and this is where the weight of any violations of physics.

The effect that it turned out to reach Johnson - a dose of pure oxygen for the history of "Star Wars 4K"!

Many wrote that Mark Hamill and Carrie Fisher are present in the film only as "legends", not heroes of Leah and Luke. I can not agree on Hamill. Personally, I did not expect a great game from any of the actors (and before that it was not professional), but Luke managed to surprise me. He managed to really fit into the picture, he was able to show charisma, irony and serve as part of this episode, and not just its "special effect".

With Leia it's harder. None I noticed that the actress was physically difficult to play, and therefore talk about professionalism or disclosure of the heroine is very difficult. And, provided that the actress died shortly after the completion of filming, discussing her game is generally wrong. I can only say that leaving Leia in the film, the creators made the actress a real gift, but for Abrams, who has already begun to create the 9th episode - this will be a real problem.

Humor and irony, different from any part of the "Star Wars 4K Ultra HD", many seemed a failure. Writing of satirical remarks and the creation of such personnel as an iron-starship or a connection between Hax and Po are all, of course, a risk. After every joke, the "ice" under Johnson's feet cracked with might and main! Someone decided that as a result, the director "crashed under the water" with a bang, but it was rather a matter of not accepting a new stroke in the already familiar universe.

Many called it the most terrible part and the complete death of Star Wars 4k download. Personally, I can not agree with that! The eighth episode is the evolution of the old Lucas world, the logical transformation and the beginning of something new: The words that the Jedi are dead, the "fire" of the great library of the Order of Light, the refusal to acquire the Force by inheritance, new abilities, Kylo and his revolution and motivation in "Struggle for what we love, not for the destruction of what we hate" ...

This episode is not just an old inverted hourglass that has been idle for many years. Abrams and Johnson replaced the sand themselves, changed the design of the clock and only then turned them around, starting a new report with a completely new universe of the same name!

It is interesting that the "fans" talk a lot about the absurdity of the plot, heroes and physics, but they are silent about the sorceries to the original franchise. R2D2, with the record "Help me Obi Wan Kenobi"; old Master Yoda, as though he had become a puppet again; episode with the "disappearance" of Luke, as if we are in the times of Qui-Gon Jinn and much, much more - nothing more than a tribute to the peace of Lucas.

"The last Jedi" are filled with a huge number of new creatures and territories. The keepers of the temple island of Ech-To, the sea birds of the porches, the crystal foxes of the planet Crete and, of course, the unique fatires with human expressions of faces. Players of the casino on Kanto-Byte are also worth noting, for they are all unique and very comical. It is clear that the "move" for the creation of porches and others was made for commercial purposes (Chewbacca did not like this, and he pushed one of them off the table), but what they came out is worthy of applause, regardless of any factors.

In addition to "juggling" with humor, epic and novelties in the film there is Benicio Del Toro! This actor, in his time, had to play Darth Maul, but refused, as Lucas cut out the character's replicas. His hero approached him in the image, and the actor coped with the work perfectly. Ray in the performance of Daisy Ridley came out very well, even if it has many frames with the same, sometimes slightly empty, facial expression. But the scenes of emotions and emotions turned out to be very believable.

Mediainfo

movie BDRemux Video #1
ID : 1
Format : HEVC
Format/Info : High Efficiency Video Coding
Format profile : Main 10@L5.1@High
Codec ID : V_MPEGH/ISO/HEVC
Duration : 2 h 31 min
Bit rate : 45.9 Mb/s
Width : 3 840 pixels
Height : 2 160 pixels
Display aspect ratio : 16:9
Frame rate mode : Constant
Frame rate : 23.976 (24000/1001) FPS
Color space : YUV
Chroma subsampling : 4:2:0 (Type 2)
Bit depth : 10 bits
Bits/(Pixel*Frame) : 0.231
Stream size : 48.7 GiB (82%)
Title : Star.Wars.The.Last.Jedi.2017.2160p.BluRay.REMUX.HEVC.DTS-HD.MA.TrueHD.7.1.Atmos
Default : Yes
Forced : No
Color range : Limited
Color primaries : BT.2020
Transfer characteristics : PQ
Matrix coefficients : BT.2020 non-constant
Mastering display color primaries : Display P3
Mastering display luminance : min: 0.0020 cd/m2, max: 1000 cd/m2

Video #2
ID : 2
Format : HEVC
Format/Info : High Efficiency Video Coding
Format profile : Main 10@L5.1@High
Codec ID : V_MPEGH/ISO/HEVC
Duration : 2 h 31 min
Bit rate : 71.2 kb/s
Width : 1 920 pixels
Height : 1 080 pixels
Display aspect ratio : 16:9
Frame rate mode : Constant
Frame rate : 23.976 (24000/1001) FPS
Color space : YUV
Chroma subsampling : 4:2:0 (Type 2)
Bit depth : 10 bits
Bits/(Pixel*Frame) : 0.001
Stream size : 77.4 MiB (0%)
Title : Star.Wars.The.Last.Jedi.2017.2160p.BluRay.REMUX.HEVC.DTS-HD.MA.TrueHD.7.1.Atmos
Default : No
Forced : No
Color range : Limited
Color primaries : BT.2020
Transfer characteristics : PQ
Matrix coefficients : BT.2020 non-constant
Mastering display color primaries : Display P3
Mastering display luminance : min: 0.0020 cd/m2, max: 1000 cd/m2

Audio #1
ID : 3
Format : TrueHD
Format profile : TrueHD+Atmos / TrueHD
Codec ID : A_TRUEHD
Duration : 2 h 31 min
Bit rate mode : Variable
Bit rate : 3 941 kb/s
Maximum bit rate : 5 853 kb/s
Channel(s) : Object Based / 8 channels
Channel positions : Object Based / Front: L C R, Side: L R, Back: L R, LFE
Sampling rate : / 48.0 kHz
Frame rate : 1 200.000 FPS (40 SPF)
Compression mode : Lossless
Delay relative to video : 32 ms
Stream size : 4.18 GiB (7%)
Title : Star.Wars.The.Last.Jedi.2017.2160p.BluRay.REMUX.HEVC.DTS-HD.MA.TrueHD.7.1.Atmos
Language : English
Default : Yes
Forced : No

Audio #2
ID : 4
Format : DTS
Format/Info : Digital Theater Systems
Format profile : MA / Core
Codec ID : A_DTS
Duration : 2 h 31 min
Bit rate mode : Variable / Constant
Bit rate : 3 163 kb/s / 1 509 kb/s
Channel(s) : 8 channels / 6 channels
Channel positions : Front: L C R, Side: L R, Back: L R, LFE / Front: L C R, Side: L R, LFE
Sampling rate : 48.0 kHz
Frame rate : 93.750 FPS (512 SPF)
Bit depth : 24 bits
Compression mode : Lossless / Lossy
Stream size : 3.35 GiB (6%)
Title : Star.Wars.The.Last.Jedi.2017.2160p.BluRay.REMUX.HEVC.DTS-HD.MA.TrueHD.7.1.Atmos
Language : English
Default : No
Forced : No

Audio #3
ID : 5
Format : AC-3
Format/Info : Audio Coding 3
Codec ID : A_AC3
Duration : 2 h 31 min
Bit rate mode : Constant
Bit rate : 640 kb/s
Channel(s) : 6 channels
Channel positions : Front: L C R, Side: L R, LFE
Sampling rate : 48.0 kHz
Frame rate : 31.250 FPS (1536 SPF)
Bit depth : 16 bits
Compression mode : Lossy
Delay relative to video : 31 ms
Stream size : 695 MiB (1%)
Title : Star.Wars.The.Last.Jedi.2017.2160p.BluRay.REMUX.HEVC.DTS-HD.MA.TrueHD.7.1.Atmos
Language : English
Service kind : Complete Main
Default : No
Forced : No

Audio #4
ID : 6
Format : E-AC-3
Format/Info : Enhanced Audio Coding 3
Codec ID : A_EAC3
Duration : 2 h 31 min
Bit rate mode : Constant
Bit rate : 500 b/s
Channel(s) : 6 channels
Channel positions : Front: L C R, Side: L R, LFE
Sampling rate : 48.0 kHz
Frame rate : 187.500 FPS (256 SPF)
Compression mode : Lossy
Stream size : 1.09 GiB (2%)
Title : Star.Wars.The.Last.Jedi.2017.2160p.BluRay.REMUX.HEVC.DTS-HD.MA.TrueHD.7.1.Atmos
Language : English
Service kind : Complete Main
Default : No
Forced : No

Audio #5
ID : 7
Format : AC-3
Format/Info : Audio Coding 3
Codec ID : A_AC3
Duration : 2 h 31 min
Bit rate mode : Constant
Bit rate : 320 kb/s
Channel(s) : 2 channels
Channel positions : Front: L R
Sampling rate : 48.0 kHz
Frame rate : 31.250 FPS (1536 SPF)
Bit depth : 16 bits
Compression mode : Lossy
Stream size : 348 MiB (1%)
Title : Star.Wars.The.Last.Jedi.2017.2160p.BluRay.REMUX.HEVC.DTS-HD.MA.TrueHD.7.1.Atmos
Language : English
Service kind : Complete Main
Default : No
Forced : No

Audio #6
ID : 8
Format : E-AC-3
Format/Info : Enhanced Audio Coding 3
Codec ID : A_EAC3
Duration : 2 h 31 min
Bit rate mode : Constant
Bit rate : 500 b/s
Channel(s) : 6 channels
Channel positions : Front: L C R, Side: L R, LFE
Sampling rate : 48.0 kHz
Frame rate : 187.500 FPS (256 SPF)
Compression mode : Lossy
Stream size : 1.09 GiB (2%)
Title : Star.Wars.The.Last.Jedi.2017.2160p.BluRay.REMUX.HEVC.DTS-HD.MA.TrueHD.7.1.Atmos
Language : Spanish
Service kind : Complete Main
Default : No
Forced : No

Text #1
ID : 9
Format : PGS
Muxing mode : zlib
Codec ID : S_HDMV/PGS
Codec ID/Info : Picture based subtitle format used on BDs/HD-DVDs
Duration : 2 h 23 min
Bit rate : 30.9 kb/s
Count of elements : 3796
Stream size : 31.7 MiB (0%)
Title : English-PGS
Language : English
Default : Yes
Forced : No

Text #2
ID : 10
Format : PGS
Muxing mode : zlib
Codec ID : S_HDMV/PGS
Codec ID/Info : Picture based subtitle format used on BDs/HD-DVDs
Duration : 2 h 22 min
Bit rate : 25.7 kb/s
Count of elements : 3182
Stream size : 26.3 MiB (0%)
Title : Spanish-PGS
Language : Spanish
Default : No
Forced : No

Menu
00:00:00.000 : en:Chapter 1
00:00:18.643 : en:Chapter 2
00:01:45.730 : en:Chapter 3
00:03:11.816 : en:Chapter 4
00:07:43.296 : en:Chapter 5
00:12:48.434 : en:Chapter 6
00:13:44.573 : en:Chapter 7
00:16:29.279 : en:Chapter 8
00:19:59.281 : en:Chapter 9
00:22:51.369 : en:Chapter 10
00:26:04.980 : en:Chapter 11
00:27:22.849 : en:Chapter 12
00:31:24.757 : en:Chapter 13
00:32:54.681 : en:Chapter 14
00:35:27.667 : en:Chapter 15
00:38:11.497 : en:Chapter 16
00:41:53.427 : en:Chapter 17
00:44:29.541 : en:Chapter 18
00:46:51.475 : en:Chapter 19
00:51:41.932 : en:Chapter 20
00:53:50.060 : en:Chapter 21
00:55:41.504 : en:Chapter 22
00:57:39.581 : en:Chapter 23
00:59:16.636 : en:Chapter 24
01:02:05.847 : en:Chapter 25
01:03:07.700 : en:Chapter 26
01:05:41.729 : en:Chapter 27
01:07:03.477 : en:Chapter 28
01:10:25.721 : en:Chapter 29
01:13:30.322 : en:Chapter 30
01:17:43.450 : en:Chapter 31
01:20:53.056 : en:Chapter 32
01:24:17.969 : en:Chapter 33
01:26:23.219 : en:Chapter 34
01:27:59.524 : en:Chapter 35
01:30:49.360 : en:Chapter 36
01:32:54.568 : en:Chapter 37
01:35:53.706 : en:Chapter 38
01:37:10.616 : en:Chapter 39
01:39:12.863 : en:Chapter 40
01:42:07.663 : en:Chapter 41
01:45:03.714 : en:Chapter 42
01:49:35.694 : en:Chapter 43
01:52:20.608 : en:Chapter 44
01:56:04.749 : en:Chapter 45
01:58:52.083 : en:Chapter 46
02:03:11.133 : en:Chapter 47
02:06:39.758 : en:Chapter 48
02:11:43.604 : en:Chapter 49
02:15:12.103 : en:Chapter 50
02:20:16.699 : en:Chapter 51
02:23:39.694 : en:Chapter 52
movie BDRip Video
ID : 1
Format : HEVC
Format/Info : High Efficiency Video Coding
Format profile : Main 10@L5.1@High
Codec ID : V_MPEGH/ISO/HEVC
Duration : 2 h 31 min
Width : 3 840 pixels
Height : 1 608 pixels
Display aspect ratio : 2.40:1
Frame rate mode : Constant
Frame rate : 23.976 (24000/1001) FPS
Color space : YUV
Chroma subsampling : 4:2:0 (Type 2)
Bit depth : 10 bits
Writing library : x265 2.7+3-0b781d592c8e:[Windows][GCC 6.3.0][64 bit] 10bit
Encoding settings : cpuid=1173503 / frame-threads=4 / numa-pools=16 / wpp / no-pmode / no-pme / no-psnr / no-ssim / log-level=2 / input-csp=1 / input-res=3840x1608 / interlace=0 / total-frames=218462 / level-idc=51 / high-tier=1 / uhd-bd=0 / ref=4 / no-allow-non-conformance / repeat-headers / annexb / aud / hrd / info / hash=0 / no-temporal-layers / no-open-gop / min-keyint=24 / keyint=240 / gop-lookahead=0 / bframes=4 / b-adapt=2 / b-pyramid / bframe-bias=0 / rc-lookahead=25 / lookahead-slices=4 / scenecut=40 / radl=0 / no-intra-refresh / ctu=64 / min-cu-size=8 / rect / no-amp / max-tu-size=32 / tu-inter-depth=1 / tu-intra-depth=1 / limit-tu=0 / rdoq-level=2 / dynamic-rd=0.00 / no-ssim-rd / signhide / no-tskip / nr-intra=0 / nr-inter=0 / no-constrained-intra / no-strong-intra-smoothing / max-merge=3 / limit-refs=3 / limit-modes / me=3 / subme=3 / merange=57 / temporal-mvp / weightp / no-weightb / no-analyze-src-pics / deblock=-3:-3 / no-sao / no-sao-non-deblock / rd=4 / no-early-skip / rskip / no-fast-intra / no-tskip-fast / no-cu-lossless / no-b-intra / no-splitrd-skip / rdpenalty=0 / psy-rd=2.00 / psy-rdoq=1.00 / no-rd-refine / no-lossless / cbqpoffs=0 / crqpoffs=0 / rc=crf / crf=17.0 / qcomp=0.60 / qpstep=4 / stats-write=0 / stats-read=0 / vbv-maxrate=160000 / vbv-bufsize=160000 / vbv-init=0.9 / crf-max=0.0 / crf-min=0.0 / ipratio=1.40 / pbratio=1.30 / aq-mode=1 / aq-strength=1.00 / cutree / zone-count=0 / no-strict-cbr / qg-size=32 / no-rc-grain / qpmax=69 / qpmin=0 / no-const-vbv / sar=1 / overscan=0 / videoformat=5 / range=0 / colorprim=9 / transfer=16 / colormatrix=9 / chromaloc=1 / chromaloc-top=2 / chromaloc-bottom=2 / display-window=0 / master-display=G(13250,34500)B(7500,3000)R(34000,16000)WP(15635,16450)L(10000000,20) / max-cll=0,0 / min-luma=0 / max-luma=1023 / log2-max-poc-lsb=8 / vui-timing-info / vui-hrd-info / slices=1 / no-opt-qp-pps / no-opt-ref-list-length-pps / no-multi-pass-opt-rps / scenecut-bias=0.05 / no-opt-cu-delta-qp / no-aq-motion / hdr / hdr-opt / no-dhdr10-opt / analysis-reuse-level=5 / scale-factor=0 / refine-intra=0 / refine-inter=0 / refine-mv=0 / no-limit-sao / ctu-info=0 / no-lowpass-dct / refine-mv-type=0 / copy-pic=1
Language : English
Default : Yes
Forced : No
Color range : Limited
Color primaries : BT.2020
Transfer characteristics : PQ
Matrix coefficients : BT.2020 non-constant
Mastering display color primaries : Display P3
Mastering display luminance : min: 0.0020 cd/m2, max: 1000 cd/m2

Audio #1
ID : 2
Format : TrueHD
Format profile : TrueHD+Atmos / TrueHD
Codec ID : A_TRUEHD
Bit rate mode : Variable
Maximum bit rate : 5 853 kb/s
Channel(s) : Object Based / 8 channels
Channel positions : Object Based / Front: L C R, Side: L R, Back: L R, LFE
Sampling rate : / 48.0 kHz
Frame rate : 1 200.000 FPS (40 SPF)
Compression mode : Lossless
Language : English
Default : Yes
Forced : No

Audio #2
ID : 3
Format : AC-3
Format/Info : Audio Coding 3
Codec ID : A_AC3
Duration : 2 h 31 min
Bit rate mode : Constant
Bit rate : 640 kb/s
Channel(s) : 6 channels
Channel positions : Front: L C R, Side: L R, LFE
Sampling rate : 48.0 kHz
Frame rate : 31.250 FPS (1536 SPF)
Bit depth : 16 bits
Compression mode : Lossy
Stream size : 695 MiB (2%)
Language : English
Service kind : Complete Main
Default : No
Forced : No

Text #1
ID : 4
Format : UTF-8
Codec ID : S_TEXT/UTF8
Codec ID/Info : UTF-8 Plain Text
Title : English SRT REGULAR
Language : English
Default : No
Forced : No

Text #2
ID : 5
Format : UTF-8
Codec ID : S_TEXT/UTF8
Codec ID/Info : UTF-8 Plain Text
Title : English SDH SRT
Language : English
Default : No
Forced : No

Text #3
ID : 6
Format : PGS
Codec ID : S_HDMV/PGS
Codec ID/Info : Picture based subtitle format used on BDs/HD-DVDs
Title : English SUP
Language : English
Default : No
Forced : No

Text #4
ID : 7
Format : PGS
Codec ID : S_HDMV/PGS
Codec ID/Info : Picture based subtitle format used on BDs/HD-DVDs
Title : Spanish SUP
Language : Spanish
Default : No
Forced : No

Menu
00:00:00.000 : en:00:00:00.000
00:00:18.644 : en:00:00:18.644
00:01:45.731 : en:00:01:45.731
00:03:11.817 : en:00:03:11.817
00:07:43.296 : en:00:07:43.296
00:12:48.434 : en:00:12:48.434
00:13:44.574 : en:00:13:44.574
00:16:29.280 : en:00:16:29.280
00:19:59.281 : en:00:19:59.281
00:22:51.370 : en:00:22:51.370
00:26:04.980 : en:00:26:04.980
00:27:22.850 : en:00:27:22.850
00:31:24.758 : en:00:31:24.758
00:32:54.681 : en:00:32:54.681
00:35:27.667 : en:00:35:27.667
00:38:11.498 : en:00:38:11.498
00:41:53.428 : en:00:41:53.428
00:44:29.542 : en:00:44:29.542
00:46:51.475 : en:00:46:51.475
00:51:41.932 : en:00:51:41.932
00:53:50.060 : en:00:53:50.060
00:55:41.505 : en:00:55:41.505
00:57:39.581 : en:00:57:39.581
00:59:16.636 : en:00:59:16.636
01:02:05.847 : en:01:02:05.847
01:03:07.701 : en:01:03:07.701
01:05:41.729 : en:01:05:41.729
01:07:03.478 : en:01:07:03.478
01:10:25.721 : en:01:10:25.721
01:13:30.323 : en:01:13:30.323
01:17:43.450 : en:01:17:43.450
01:20:53.057 : en:01:20:53.057
01:24:17.970 : en:01:24:17.970
01:26:23.220 : en:01:26:23.220
01:27:59.524 : en:01:27:59.524
01:30:49.361 : en:01:30:49.361
01:32:54.569 : en:01:32:54.569
01:35:53.706 : en:01:35:53.706
01:37:10.616 : en:01:37:10.616
01:39:12.864 : en:01:39:12.864
01:42:07.663 : en:01:42:07.663
01:45:03.714 : en:01:45:03.714
01:49:35.694 : en:01:49:35.694
01:52:20.609 : en:01:52:20.609
01:56:04.749 : en:01:56:04.749
01:58:52.083 : en:01:58:52.083
02:03:11.134 : en:02:03:11.134
02:06:39.759 : en:02:06:39.759
02:11:43.604 : en:02:11:43.604
02:15:12.104 : en:02:15:12.104
02:20:16.700 : en:02:20:16.700
02:23:39.694 : en:02:23:39.694

Download

download 4k hdr movies download 4k hdr movies

Watch a movie trailer - Star Wars Episode VIII - The Last Jedi 4K 2017 Ultra HD 2160p
Comments and Feedback
Add your comment:
Your name:
Your E-Mail:
Code:
reload, if the code cannot be seen
Enter code: