Select movie Search movie Close search My Account

The Incredibles 4K 2004 Ultra HD 2160p

The Incredibles 4K 2004 Ultra HD 2160p
BDRemux / BDRip
Country: USA
Time: 1h 55min
IMDB: 8.00
Director: Brad Bird
Actors: Craig T. Nelson, Holly Hunter, Samuel L. Jackson, Jason Lee, Dominique Louis, Teddy Newton, Jean Sincere, Eli Fucile, Maeve Andrews, Wallace Shawn, Spencer Fox, Lou Romano, Wayne Canney, Sarah Vowell, Michael Bird...

Story Movie

Animation The Incredibles 4K 2004 download. History of the family of superheroes, whose members have already moved away from big things and prefer to live the uninviting life of ordinary earthlings. In the past, they all had supernatural powers and coped relatively easily with the world's evil. But one day, dad and his household have to re-dress themselves in rubberized suits of superheroes (and for this you need to quickly lose those extra pounds!) And once again save humanity from the mysterious villain. Who is he? Even the they do not know ...

Review 4K Movie

Having released several, I'm not afraid of this word, masterpieces of animation, Pixar studio, unfortunately, slightly weakened the grip. "Incredibles 4K", which, incidentally, like the previous work of the studio, received an "Oscar" (Ask: For what ?!), came out somewhat weaker than other pictures of the company Steve Jobs.

Immediately make a reservation that I like this cartoon and I'm looking forward to his second part, and begging after the open final first. However, against the background of the "Toy Story", "Monsters' Corporations" and "In Search of Nemo", which by the time of the release of "The Incredibles" have already won the audience's love, this work seems a step back.

My first claim concerns animation. It would seem that the studio Pixar does not have a bad picture and, strictly speaking, it is. The cartoon has colorful 3D drawing, but, again, against the background of previous works, it looks bleak. There is no realism that was inherent in at least their last two cartoons ("Monsters' Corporations" and, especially, "In Search of Nemo"). I do not want to believe such a picture.

The second claim refers to the dramatic component of the "Incredibles 4K". If "In search of Nemo" still somehow tried to wake up the viewer's emotions, then this is not observed at all. During the viewing, I never wanted to empathize with the characters, who, incidentally, fell into very serious and even seemingly hopeless situations. It is unclear why the creators of Pixar, who previously skillfully knocked out a tear from the viewer, did not achieve this effect this time.

In other aspects, "The Incredibles 4K" is a very good and high-quality cartoon. There is a strong enough (though not brilliant) story, wonderfully prescribed characters, a beautiful morality that makes you think about the values ​​of family life and an excellent soundtrack. But I personally do not have enough of this. For the Pixar studio, I put a much higher bar and sincerely can not understand why critics who previously extolled the previous work of the studio, and to this picture were extremely positive. On the site Rotten Tomatoes, the rating of critics is as much as 97% !!! No, I would understand 70-80%, but such a high score causes me a lot of questions. Well, how many people have so many opinions. And for me, the Pixar studio can do much better.

Mediainfo

movie BDRemux Video
ID : 1
Format : HEVC
Format/Info : High Efficiency Video Coding
Commercial name : HDR10
Format profile : Main 10@L5.1@High
Codec ID : V_MPEGH/ISO/HEVC
Duration : 1 h 55 min
Bit rate : 43.3 Mb/s
Width : 3 840 pixels
Height : 2 160 pixels
Display aspect ratio : 16:9
Frame rate mode : Constant
Frame rate : 23.976 (23976/1000) FPS
Original frame rate : 23.976 (24000/1001) FPS
Color space : YUV
Chroma subsampling : 4:2:0 (Type 2)
Bit depth : 10 bits
Bits/(Pixel*Frame) : 0.218
Stream size : 34.9 GiB (70%)
Title : The.Incredibles.2004.2160p.BluRay.REMUX.HEVC.DTS-HD.MA.TrueHD.7.1.Atmos-FGT
Default : Yes
Forced : No
Color range : Limited
Color primaries : BT.2020
Transfer characteristics : PQ
Matrix coefficients : BT.2020 non-constant
Mastering display color primaries : BT.2020
Mastering display luminance : min: 0.0001 cd/m2, max: 1000 cd/m2

Audio #1
ID : 2
Format : TrueHD
Format profile : TrueHD+Atmos / TrueHD
Codec ID : A_TRUEHD
Duration : 1 h 55 min
Bit rate mode : Variable
Bit rate : 7 354 kb/s
Maximum bit rate : 7 071 kb/s
Channel(s) : Object Based / 8 channels
Channel positions : Object Based / Front: L C R, Side: L R, Back: L R, LFE
Sampling rate : / 48.0 kHz
Frame rate : 1 200.000 FPS (40 SPF)
Compression mode : Lossless
Stream size : 5.92 GiB (12%)
Title : The.Incredibles.2004.2160p.BluRay.REMUX.HEVC.DTS-HD.MA.TrueHD.7.1.Atmos-FGT
Language : English
Default : Yes
Forced : No

Audio #2
ID : 3
Format : DTS
Format/Info : Digital Theater Systems
Format profile : MA / Core
Codec ID : A_DTS
Duration : 1 h 55 min
Bit rate mode : Variable / Constant
Bit rate : 4 413 kb/s / 1 509 kb/s
Channel(s) : 8 channels / 6 channels
Channel positions : Front: L C R, Side: L R, Back: L R, LFE / Front: L C R, Side: L R, LFE
Sampling rate : 48.0 kHz
Frame rate : 93.750 FPS (512 SPF)
Bit depth : 24 bits
Compression mode : Lossless / Lossy
Stream size : 3.55 GiB (7%)
Title : The.Incredibles.2004.2160p.BluRay.REMUX.HEVC.DTS-HD.MA.TrueHD.7.1.Atmos-FGT
Language : English
Default : No
Forced : No

Audio #3
ID : 4
Format : AC-3
Format/Info : Audio Coding 3
Codec ID : A_AC3
Duration : 1 h 55 min
Bit rate mode : Constant
Bit rate : 640 kb/s
Channel(s) : 6 channels
Channel positions : Front: L C R, Side: L R, LFE
Sampling rate : 48.0 kHz
Frame rate : 31.250 FPS (1536 SPF)
Bit depth : 16 bits
Compression mode : Lossy
Stream size : 528 MiB (1%)
Title : The.Incredibles.2004.2160p.BluRay.REMUX.HEVC.DTS-HD.MA.TrueHD.7.1.Atmos-FGT
Language : English
Service kind : Complete Main
Default : No
Forced : No

Audio #4
ID : 5
Format : DTS
Format/Info : Digital Theater Systems
Format profile : MA / ES Matrix / Core
Codec ID : A_DTS
Duration : 1 h 55 min
Bit rate mode : Variable / Constant / Constant
Bit rate : 3 840 kb/s / 1 509 kb/s / 1 509 kb/s
Channel(s) : 7 channels / 7 channels / 6 channels
Channel positions : Front: L C R, Side: L R, Back: C, LFE / Front: L C R, Side: L R, Back: C, LFE / Front: L C R, Side: L R, LFE
Sampling rate : 48.0 kHz
Frame rate : 93.750 FPS (512 SPF)
Bit depth : 24 bits
Compression mode : Lossless / Lossy / Lossy
Stream size : 3.09 GiB (6%)
Title : The.Incredibles.2004.2160p.BluRay.REMUX.HEVC.DTS-HD.MA.TrueHD.7.1.Atmos-FGT
Language : English
Default : No
Forced : No

Audio #5
ID : 6
Format : AC-3
Format/Info : Audio Coding 3
Codec ID : A_AC3
Duration : 1 h 55 min
Bit rate mode : Constant
Bit rate : 320 kb/s
Channel(s) : 2 channels
Channel positions : Front: L R
Sampling rate : 48.0 kHz
Frame rate : 31.250 FPS (1536 SPF)
Bit depth : 16 bits
Compression mode : Lossy
Stream size : 264 MiB (1%)
Title : The.Incredibles.2004.2160p.BluRay.REMUX.HEVC.DTS-HD.MA.TrueHD.7.1.Atmos-FGT
Language : English
Service kind : Complete Main
Default : No
Forced : No

Audio #6
ID : 7
Format : AC-3
Format/Info : Audio Coding 3
Codec ID : A_AC3
Duration : 1 h 55 min
Bit rate mode : Constant
Bit rate : 320 kb/s
Channel(s) : 2 channels
Channel positions : Front: L R
Sampling rate : 48.0 kHz
Frame rate : 31.250 FPS (1536 SPF)
Bit depth : 16 bits
Compression mode : Lossy
Stream size : 264 MiB (1%)
Title : The.Incredibles.2004.2160p.BluRay.REMUX.HEVC.DTS-HD.MA.TrueHD.7.1.Atmos-FGT
Language : English
Service kind : Complete Main
Default : No
Forced : No

Audio #7
ID : 8
Format : AC-3
Format/Info : Audio Coding 3
Codec ID : A_AC3
Duration : 1 h 55 min
Bit rate mode : Constant
Bit rate : 640 kb/s
Channel(s) : 6 channels
Channel positions : Front: L C R, Side: L R, LFE
Sampling rate : 48.0 kHz
Frame rate : 31.250 FPS (1536 SPF)
Bit depth : 16 bits
Compression mode : Lossy
Stream size : 528 MiB (1%)
Title : The.Incredibles.2004.2160p.BluRay.REMUX.HEVC.DTS-HD.MA.TrueHD.7.1.Atmos-FGT
Language : French
Service kind : Complete Main
Default : No
Forced : No

Audio #8
ID : 9
Format : AC-3
Format/Info : Audio Coding 3
Codec ID : A_AC3
Duration : 1 h 55 min
Bit rate mode : Constant
Bit rate : 640 kb/s
Channel(s) : 6 channels
Channel positions : Front: L C R, Side: L R, LFE
Sampling rate : 48.0 kHz
Frame rate : 31.250 FPS (1536 SPF)
Bit depth : 16 bits
Compression mode : Lossy
Stream size : 528 MiB (1%)
Title : The.Incredibles.2004.2160p.BluRay.REMUX.HEVC.DTS-HD.MA.TrueHD.7.1.Atmos-FGT
Language : Spanish
Service kind : Complete Main
Default : No
Forced : No

Text #1
ID : 10
Format : PGS
Muxing mode : zlib
Codec ID : S_HDMV/PGS
Codec ID/Info : Picture based subtitle format used on BDs/HD-DVDs
Duration : 1 h 49 min
Bit rate : 39.0 kb/s
Count of elements : 2668
Stream size : 30.7 MiB (0%)
Title : English-PGS
Language : English
Default : Yes
Forced : No

Text #2
ID : 11
Format : PGS
Muxing mode : zlib
Codec ID : S_HDMV/PGS
Codec ID/Info : Picture based subtitle format used on BDs/HD-DVDs
Duration : 1 h 49 min
Bit rate : 37.1 kb/s
Count of elements : 2414
Stream size : 29.1 MiB (0%)
Title : French-PGS
Language : French
Default : No
Forced : No

Text #3
ID : 12
Format : PGS
Muxing mode : zlib
Codec ID : S_HDMV/PGS
Codec ID/Info : Picture based subtitle format used on BDs/HD-DVDs
Duration : 1 h 49 min
Bit rate : 36.2 kb/s
Count of elements : 2394
Stream size : 28.4 MiB (0%)
Title : Spanish-PGS
Language : Spanish
Default : No
Forced : No

Text #4
ID : 13
Format : PGS
Muxing mode : zlib
Codec ID : S_HDMV/PGS
Codec ID/Info : Picture based subtitle format used on BDs/HD-DVDs
Duration : 1 h 49 min
Bit rate : 61 b/s
Count of elements : 50
Stream size : 49.8 KiB (0%)
Title : English-FORCED-PGS
Language : English
Default : No
Forced : No

Text #5
ID : 14
Format : PGS
Muxing mode : zlib
Codec ID : S_HDMV/PGS
Codec ID/Info : Picture based subtitle format used on BDs/HD-DVDs
Duration : 1 h 49 min
Bit rate : 63 b/s
Count of elements : 50
Stream size : 50.7 KiB (0%)
Title : Spanish-FORCED-PGS
Language : Spanish
Default : No
Forced : No

Menu
00:00:00.000 : en:Chapter 1
00:09:15.388 : en:Chapter 2
00:11:33.567 : en:Chapter 3
00:13:32.186 : en:Chapter 4
00:17:09.361 : en:Chapter 5
00:20:45.744 : en:Chapter 6
00:26:54.362 : en:Chapter 7
00:30:43.049 : en:Chapter 8
00:34:55.426 : en:Chapter 9
00:41:28.068 : en:Chapter 10
00:46:02.509 : en:Chapter 11
00:48:55.348 : en:Chapter 12
00:50:02.958 : en:Chapter 13
00:54:02.614 : en:Chapter 14
00:57:10.385 : en:Chapter 15
01:00:36.632 : en:Chapter 16
01:05:05.693 : en:Chapter 17
01:10:54.541 : en:Chapter 18
01:12:58.749 : en:Chapter 19
01:16:28.416 : en:Chapter 20
01:19:20.046 : en:Chapter 21
01:21:14.744 : en:Chapter 22
01:24:00.493 : en:Chapter 23
01:27:06.471 : en:Chapter 24
01:30:30.675 : en:Chapter 25
01:32:48.229 : en:Chapter 26
01:33:33.858 : en:Chapter 27
01:34:31.373 : en:Chapter 28
01:37:03.984 : en:Chapter 29
01:41:58.904 : en:Chapter 30
01:45:40.834 : en:Chapter 31
01:47:34.155 : en:Chapter 32
movie BDRip Video
ID : 1
Format : HEVC
Format/Info : High Efficiency Video Coding
Commercial name : HDR10
Format profile : Main 10@L5.1@High
Codec ID : V_MPEGH/ISO/HEVC
Duration : 1 h 55 min
Width : 3 840 pixels
Height : 1 606 pixels
Display aspect ratio : 2.40:1
Frame rate mode : Constant
Frame rate : 23.976 (24000/1001) FPS
Color space : YUV
Chroma subsampling : 4:2:0 (Type 2)
Bit depth : 10 bits
Writing library : x265 2.8+10-703eade86b53:[Windows][GCC 8.1.0][64 bit] 10bit
Encoding settings : cpuid=1176575 / frame-threads=5 / numa-pools=36 / wpp / no-pmode / no-pme / no-psnr / no-ssim / log-level=2 / input-csp=1 / input-res=3840x1606 / interlace=0 / total-frames=165883 / level-idc=51 / high-tier=1 / uhd-bd=0 / ref=4 / no-allow-non-conformance / repeat-headers / annexb / aud / hrd / info / hash=0 / no-temporal-layers / no-open-gop / min-keyint=24 / keyint=240 / gop-lookahead=0 / bframes=4 / b-adapt=2 / b-pyramid / bframe-bias=0 / rc-lookahead=25 / lookahead-slices=4 / scenecut=40 / radl=0 / no-intra-refresh / ctu=64 / min-cu-size=8 / rect / no-amp / max-tu-size=32 / tu-inter-depth=1 / tu-intra-depth=1 / limit-tu=0 / rdoq-level=2 / dynamic-rd=0.00 / no-ssim-rd / signhide / no-tskip / nr-intra=0 / nr-inter=0 / no-constrained-intra / no-strong-intra-smoothing / max-merge=3 / limit-refs=3 / limit-modes / me=3 / subme=3 / merange=57 / temporal-mvp / weightp / no-weightb / no-analyze-src-pics / deblock=-3:-3 / no-sao / no-sao-non-deblock / rd=4 / no-early-skip / rskip / no-fast-intra / no-tskip-fast / no-cu-lossless / no-b-intra / no-splitrd-skip / rdpenalty=0 / psy-rd=2.00 / psy-rdoq=1.00 / no-rd-refine / no-lossless / cbqpoffs=0 / crqpoffs=0 / rc=crf / crf=17.0 / qcomp=0.60 / qpstep=4 / stats-write=0 / stats-read=0 / vbv-maxrate=160000 / vbv-bufsize=160000 / vbv-init=0.9 / crf-max=0.0 / crf-min=0.0 / ipratio=1.40 / pbratio=1.30 / aq-mode=1 / aq-strength=1.00 / cutree / zone-count=0 / no-strict-cbr / qg-size=32 / no-rc-grain / qpmax=69 / qpmin=0 / no-const-vbv / sar=1 / overscan=0 / videoformat=5 / range=0 / colorprim=9 / transfer=16 / colormatrix=9 / chromaloc=1 / chromaloc-top=2 / chromaloc-bottom=2 / display-window=0 / master-display=G(13250,34500)B(7500,3000)R(34000,16000)WP(15635,16450)L(10000000,1) / max-cll=0,0 / min-luma=0 / max-luma=1023 / log2-max-poc-lsb=8 / vui-timing-info / vui-hrd-info / slices=1 / no-opt-qp-pps / no-opt-ref-list-length-pps / no-multi-pass-opt-rps / scenecut-bias=0.05 / no-opt-cu-delta-qp / no-aq-motion / hdr / hdr-opt / no-dhdr10-opt / no-idr-recovery-sei / analysis-reuse-level=5 / scale-factor=0 / refine-intra=0 / refine-inter=0 / refine-mv=0 / no-limit-sao / ctu-info=0 / no-lowpass-dct / refine-mv-type=0 / copy-pic=1 / max-ausize-factor=1.0 / no-dynamic-refine / no-single-sei
Default : Yes
Forced : No
Color range : Limited
Color primaries : BT.2020
Transfer characteristics : PQ
Matrix coefficients : BT.2020 non-constant
Statistics Tags Issue : no_variable_data 1970-01-01 00:00:00 / no_variable_data 2010-02-22 21:41:29
FromStats_BitRate : 6080165
FromStats_Duration : 01:55:18.704000000
FromStats_FrameCount : 165883
FromStats_StreamSize : 5258358454
Mastering display color primaries : Display P3
Mastering display luminance : min: 0.0001 cd/m2, max: 1000 cd/m2

Audio #1
ID : 2
Format : TrueHD
Format profile : TrueHD+Atmos / TrueHD
Codec ID : A_TRUEHD
Bit rate mode : Variable
Maximum bit rate : 7 071 kb/s
Channel(s) : Object Based / 8 channels
Channel positions : Object Based / Front: L C R, Side: L R, Back: L R, LFE
Sampling rate : / 48.0 kHz
Frame rate : 1 200.000 FPS (40 SPF)
Compression mode : Lossless
Title : Atmos 7.1
Language : English
Default : Yes
Forced : No
Statistics Tags Issue : no_variable_data 1970-01-01 00:00:00 / no_variable_data 2010-02-22 21:41:29
FromStats_BitRate : 7353904
FromStats_Duration : 01:55:18.705000000
FromStats_FrameCount : 8302446
FromStats_StreamSize : 6359937158

Audio #2
ID : 3
Format : AC-3
Format/Info : Audio Coding 3
Codec ID : A_AC3
Duration : 1 h 55 min
Bit rate mode : Constant
Bit rate : 640 kb/s
Channel(s) : 6 channels
Channel positions : Front: L C R, Side: L R, LFE
Sampling rate : 48.0 kHz
Frame rate : 31.250 FPS (1536 SPF)
Bit depth : 16 bits
Compression mode : Lossy
Stream size : 528 MiB (5%)
Title : AC-3 5.1
Language : English
Service kind : Complete Main
Default : No
Forced : No
Statistics Tags Issue : no_variable_data 1970-01-01 00:00:00 / no_variable_data 2010-02-22 21:41:29
FromStats_BitRate : 640000
FromStats_Duration : 01:55:18.720000000
FromStats_FrameCount : 216210
FromStats_StreamSize : 553497600

Text #1
ID : 4
Format : UTF-8
Codec ID : S_TEXT/UTF8
Codec ID/Info : UTF-8 Plain Text
Title : Stripped SRT
Language : English
Default : No
Forced : No
Statistics Tags Issue : no_variable_data 1970-01-01 00:00:00 / no_variable_data 2010-02-22 21:41:29
FromStats_BitRate : 59
FromStats_Duration : 01:46:57.954000000
FromStats_FrameCount : 1210
FromStats_StreamSize : 47814

Text #2
ID : 5
Format : UTF-8
Codec ID : S_TEXT/UTF8
Codec ID/Info : UTF-8 Plain Text
Title : SDH SRT
Language : English
Default : No
Forced : No
Statistics Tags Issue : no_variable_data 1970-01-01 00:00:00 / no_variable_data 2010-02-22 21:41:29
FromStats_BitRate : 64
FromStats_Duration : 01:47:05.002000000
FromStats_FrameCount : 1329
FromStats_StreamSize : 51496

Text #3
ID : 6
Format : PGS
Muxing mode : zlib
Codec ID : S_HDMV/PGS
Codec ID/Info : Picture based subtitle format used on BDs/HD-DVDs
Title : SDH
Language : English
Default : No
Forced : No
Statistics Tags Issue : no_variable_data 1970-01-01 00:00:00 / no_variable_data 2010-02-22 21:41:29
FromStats_BitRate : 39030
FromStats_Duration : 01:49:47.831000000
FromStats_FrameCount : 2668
FromStats_StreamSize : 32140835

Text #4
ID : 7
Format : PGS
Muxing mode : zlib
Codec ID : S_HDMV/PGS
Codec ID/Info : Picture based subtitle format used on BDs/HD-DVDs
Language : French
Default : No
Forced : No
Statistics Tags Issue : no_variable_data 1970-01-01 00:00:00 / no_variable_data 2010-02-22 21:41:29
FromStats_BitRate : 37068
FromStats_Duration : 01:49:47.831000000
FromStats_FrameCount : 2414
FromStats_StreamSize : 30525306

Text #5
ID : 8
Format : PGS
Muxing mode : zlib
Codec ID : S_HDMV/PGS
Codec ID/Info : Picture based subtitle format used on BDs/HD-DVDs
Language : Spanish
Default : No
Forced : No
Statistics Tags Issue : no_variable_data 1970-01-01 00:00:00 / no_variable_data 2010-02-22 21:41:29
FromStats_BitRate : 36187
FromStats_Duration : 01:49:47.831000000
FromStats_FrameCount : 2394
FromStats_StreamSize : 29799346

Menu
00:00:00.000 : en:00:00:00.000
00:09:15.388 : en:00:09:15.388
00:11:33.568 : en:00:11:33.568
00:13:32.186 : en:00:13:32.186
00:17:09.362 : en:00:17:09.362
00:20:45.744 : en:00:20:45.744
00:26:54.363 : en:00:26:54.363
00:30:43.049 : en:00:30:43.049
00:34:55.427 : en:00:34:55.427
00:41:28.069 : en:00:41:28.069
00:46:02.510 : en:00:46:02.510
00:48:55.349 : en:00:48:55.349
00:50:02.958 : en:00:50:02.958
00:54:02.614 : en:00:54:02.614
00:57:10.385 : en:00:57:10.385
01:00:36.633 : en:01:00:36.633
01:05:05.693 : en:01:05:05.693
01:10:54.542 : en:01:10:54.542
01:12:58.749 : en:01:12:58.749
01:16:28.417 : en:01:16:28.417
01:19:20.047 : en:01:19:20.047
01:21:14.745 : en:01:21:14.745
01:24:00.494 : en:01:24:00.494
01:27:06.471 : en:01:27:06.471
01:30:30.675 : en:01:30:30.675
01:32:48.229 : en:01:32:48.229
01:33:33.858 : en:01:33:33.858
01:34:31.374 : en:01:34:31.374
01:37:03.985 : en:01:37:03.985
01:41:58.904 : en:01:41:58.904
01:45:40.834 : en:01:45:40.834
01:47:34.156 : en:01:47:34.156

Download

download 4k hdr movies download 4k hdr movies

Watch a movie trailer - The Incredibles 4K 2004 Ultra HD 2160p
Comments and Feedback
Add your comment:
Your name:
Your E-Mail:
Code:
reload, if the code cannot be seen
Enter code: