Select movie Search movie Close search My Account

The Death of Superman 4K 2018 Ultra HD 2160p

The Death of Superman 4K 2018 Ultra HD 2160p
BDRemux / BDRip
Country: USA
Time: 1h 21min
IMDB: 7.4
Director: Jake Castorena (co-director), Sam Liu (co-director)
Actors: erry O'Connell, Rebecca Romijn, Rainn Wilson, Rosario Dawson, Nathan Fillion, Christopher Gorham, Matt Lanter, Shemar Moore, Nyambi Nyambi, Jason O'Mara, Jonathan Adams, Rocky Carroll, Trevor Devall, Paul Eiding, Patrick Fabian

Story Movie

The Death of Superman 4K 2018 Ultra HD 2160p
А little about The Death of Superman 4К. There was a very big mistake, but a fatal mistake when the most famous intergalactic criminal was accidentally released from prison. Superman has to give his life to stop him and the whole world begins to mourn the death of Superman's death. But the enemies reign supreme, they understand that no one else can become on their evil way. All. except for Luthor's lex. which in its perception of this mournful event.

Review 4K Movie

What happens if Superman dies? This question was worried not by one employee of DC Comics and not one fan of painted stories. Metropolis is hard to imagine without a hero in red tights. The creators of the cartoon "The Death of Superman" ultra tried to answer this question and left them, I must say, not for C grade.

According to the story, Kal-El is dying in battle with Doomsday, a huge terrible monster, who, in comics, more than once defeated the famous Kryptonian. However, after the expensive funeral, which visited the whole city, the superhero returns and behaves as something strange ...

"The Death of Superman" 4к is a well-directed cartoon, the main problem of which is illogicality in the plot. First, Clark Kent could easily defeat the monster, sending it into orbit or enlisting the support of the Justice League (which, by the way, is not present throughout the history, even at the funeral). Secondly, the very rebirth of Superman is told indistinctly and without pathos, which, it would seem, should be there (superman was revived, not someone unknown guy). The whole process also does not shine with originality. In 2007, you could come up with something new and not so rotten. Thirdly, the creators disappointed in the big - Lois Lane (the beloved superhero) can not determine in it Clark Kent, when he does not wear glasses. Seriously, this "disguise" was invented in the 60's, now it is not needed and looks wildly idiotic. Especially it is worth doing, given that the whole cartoon and wants to be serious, adult, dark. Even his rating is 12+. But it is impossible to perceive it when creators fly on such rakes.

If the history and you can find fault, then the technical specifications are normal. Risovka cool and definitely copies a cartoon about the Superman of the late 90's. Although the faces of the main characters were not worth changing: Lex Luther lost all realism, Lois Lane is not so attractive, and, in fact, Superman himself looks like a grandfather, who needs to retire. To the battle scenes, there are no complaints at all - they are still the main reason, because of which the projects about Clark Kent look.

In the end, it turned out to be a weak cartoon by the standards of adaptations of DC Comics. The story of the death of Superman 4k cartoon movie download leads to much greater pathos and logicality, which the team is capable of as many as three directors. "The Death of Superman" can only be looked at "bezrybe", when all the other really cool and excellent cartoons on comics are viewed. However, the most ardent fans of the Kryptonians still can get a certain pleasure from viewing. And only they.

Mediainfo

movie BDRemux Video
ID : 1
Format : HEVC
Format/Info : High Efficiency Video Coding
Commercial name : HDR10
Format profile : Main 10@L5.1@High
Codec ID : V_MPEGH/ISO/HEVC
Duration : 1 h 20 min
Bit rate : 70.9 Mb/s
Width : 3 840 pixels
Height : 2 160 pixels
Display aspect ratio : 16:9
Frame rate mode : Constant
Frame rate : 23.976 (24000/1001) FPS
Color space : YUV
Chroma subsampling : 4:2:0 (Type 2)
Bit depth : 10 bits
Bits/(Pixel*Frame) : 0.357
Stream size : 40.1 GiB (95%)
Title : The.Death.of.Superman.2018.2160p.BluRay.REMUX.HEVC.DTS-HD.MA.5.1
Writing library : ATEME Titan File 3.8.16 (4.8.16.0)
Default : Yes
Forced : No
Color range : Limited
Color primaries : BT.2020
Transfer characteristics : PQ
Matrix coefficients : BT.2020 non-constant
Mastering display color primaries : Display P3
Mastering display luminance : min: 0.0050 cd/m2, max: 4000 cd/m2
Maximum Content Light Level : 901 cd/m2
Maximum Frame-Average Light Level : 402 cd/m2

Audio #1
ID : 2
Format : DTS
Format/Info : Digital Theater Systems
Format profile : MA / Core
Codec ID : A_DTS
Duration : 1 h 20 min
Bit rate mode : Variable / Constant
Bit rate : 2 318 kb/s / 1 509 kb/s
Channel(s) : 6 channels
Channel positions : Front: L C R, Side: L R, LFE
Sampling rate : 48.0 kHz
Frame rate : 93.750 FPS (512 SPF)
Bit depth : 24 bits
Compression mode : Lossless / Lossy
Stream size : 1.31 GiB (3%)
Title : The.Death.of.Superman.2018.2160p.BluRay.REMUX.HEVC.DTS-HD.MA.5.1
Language : English
Default : Yes
Forced : No

Audio #2
ID : 3
Format : AC-3
Format/Info : Audio Coding 3
Codec ID : A_AC3
Duration : 1 h 20 min
Bit rate mode : Constant
Bit rate : 640 kb/s
Channel(s) : 6 channels
Channel positions : Front: L C R, Side: L R, LFE
Sampling rate : 48.0 kHz
Frame rate : 31.250 FPS (1536 SPF)
Bit depth : 16 bits
Compression mode : Lossy
Stream size : 370 MiB (1%)
Title : The.Death.of.Superman.2018.2160p.BluRay.REMUX.HEVC.DTS-HD.MA.5.1
Language : French
Service kind : Complete Main
Default : No
Forced : No

Audio #3
ID : 4
Format : AC-3
Format/Info : Audio Coding 3
Codec ID : A_AC3
Duration : 1 h 20 min
Bit rate mode : Constant
Bit rate : 640 kb/s
Channel(s) : 6 channels
Channel positions : Front: L C R, Side: L R, LFE
Sampling rate : 48.0 kHz
Frame rate : 31.250 FPS (1536 SPF)
Bit depth : 16 bits
Compression mode : Lossy
Stream size : 370 MiB (1%)
Title : The.Death.of.Superman.2018.2160p.BluRay.REMUX.HEVC.DTS-HD.MA.5.1
Language : Spanish
Service kind : Complete Main
Default : No
Forced : No

Text #1
ID : 5
Format : PGS
Muxing mode : zlib
Codec ID : S_HDMV/PGS
Codec ID/Info : Picture based subtitle format used on BDs/HD-DVDs
Duration : 1 h 19 min
Bit rate : 33.0 kb/s
Count of elements : 1978
Stream size : 18.9 MiB (0%)
Title : English-PGS
Language : English
Default : Yes
Forced : No

Text #2
ID : 6
Format : PGS
Muxing mode : zlib
Codec ID : S_HDMV/PGS
Codec ID/Info : Picture based subtitle format used on BDs/HD-DVDs
Duration : 1 h 19 min
Bit rate : 26.0 kb/s
Count of elements : 1608
Stream size : 14.9 MiB (0%)
Title : French-PGS
Language : French
Default : No
Forced : No

Text #3
ID : 7
Format : PGS
Muxing mode : zlib
Codec ID : S_HDMV/PGS
Codec ID/Info : Picture based subtitle format used on BDs/HD-DVDs
Duration : 1 h 19 min
Bit rate : 28.5 kb/s
Count of elements : 1618
Stream size : 16.3 MiB (0%)
Title : Spanish-PGS
Language : Spanish
Default : No
Forced : No

Text #4
ID : 8
Format : PGS
Muxing mode : zlib
Codec ID : S_HDMV/PGS
Codec ID/Info : Picture based subtitle format used on BDs/HD-DVDs
Duration : 1 h 13 min
Bit rate : 188 b/s
Count of elements : 14
Stream size : 102 KiB (0%)
Title : French-FORCED-PGS
Language : French
Default : No
Forced : No

Text #5
ID : 9
Format : PGS
Muxing mode : zlib
Codec ID : S_HDMV/PGS
Codec ID/Info : Picture based subtitle format used on BDs/HD-DVDs
Duration : 1 h 13 min
Bit rate : 179 b/s
Count of elements : 14
Stream size : 97.1 KiB (0%)
Title : Spanish-FORCED-PGS
Language : Spanish
Default : No
Forced : No

Menu
00:00:00.000 : en:Chapter 1
00:09:32.071 : en:Chapter 2
00:20:02.409 : en:Chapter 3
00:32:29.489 : en:Chapter 4
00:40:17.706 : en:Chapter 5
00:51:40.055 : en:Chapter 6
01:03:31.307 : en:Chapter 7
01:10:59.797 : en:Chapter 8
01:17:04.161 : en:Chapter 9
movie BDRip Video
ID : 1
Format : HEVC
Format/Info : High Efficiency Video Coding
Commercial name : HDR10
Format profile : Main 10@L5.1@High
Codec ID : V_MPEGH/ISO/HEVC
Duration : 1 h 20 min
Bit rate : 70.9 Mb/s
Width : 3 840 pixels
Height : 2 160 pixels
Display aspect ratio : 16:9
Frame rate mode : Constant
Frame rate : 23.976 (24000/1001) FPS
Color space : YUV
Chroma subsampling : 4:2:0 (Type 2)
Bit depth : 10 bits
Bits/(Pixel*Frame) : 0.357
Stream size : 40.1 GiB (95%)
Title : The.Death.of.Superman.2018.2160p.BluRay.REMUX.HEVC.DTS-HD.MA.5.1-FGT
Writing library : ATEME Titan File 3.8.16 (4.8.16.0)
Default : Yes
Forced : No
Color range : Limited
Color primaries : BT.2020
Transfer characteristics : PQ
Matrix coefficients : BT.2020 non-constant
Mastering display color primaries : Display P3
Mastering display luminance : min: 0.0050 cd/m2, max: 4000 cd/m2
Maximum Content Light Level : 901 cd/m2
Maximum Frame-Average Light Level : 402 cd/m2

Audio #1
ID : 2
Format : DTS
Format/Info : Digital Theater Systems
Format profile : MA / Core
Codec ID : A_DTS
Duration : 1 h 20 min
Bit rate mode : Variable / Constant
Bit rate : 2 318 kb/s / 1 509 kb/s
Channel(s) : 6 channels
Channel positions : Front: L C R, Side: L R, LFE
Sampling rate : 48.0 kHz
Frame rate : 93.750 FPS (512 SPF)
Bit depth : 24 bits
Compression mode : Lossless / Lossy
Stream size : 1.31 GiB (3%)
Title : The.Death.of.Superman.2018.2160p.BluRay.REMUX.HEVC.DTS-HD.MA.5.1-FGT
Language : English
Default : Yes
Forced : No

Audio #2
ID : 3
Format : AC-3
Format/Info : Audio Coding 3
Codec ID : A_AC3
Duration : 1 h 20 min
Bit rate mode : Constant
Bit rate : 640 kb/s
Channel(s) : 6 channels
Channel positions : Front: L C R, Side: L R, LFE
Sampling rate : 48.0 kHz
Frame rate : 31.250 FPS (1536 SPF)
Bit depth : 16 bits
Compression mode : Lossy
Stream size : 370 MiB (1%)
Title : The.Death.of.Superman.2018.2160p.BluRay.REMUX.HEVC.DTS-HD.MA.5.1-FGT
Language : French
Service kind : Complete Main
Default : No
Forced : No

Audio #3
ID : 4
Format : AC-3
Format/Info : Audio Coding 3
Codec ID : A_AC3
Duration : 1 h 20 min
Bit rate mode : Constant
Bit rate : 640 kb/s
Channel(s) : 6 channels
Channel positions : Front: L C R, Side: L R, LFE
Sampling rate : 48.0 kHz
Frame rate : 31.250 FPS (1536 SPF)
Bit depth : 16 bits
Compression mode : Lossy
Stream size : 370 MiB (1%)
Title : The.Death.of.Superman.2018.2160p.BluRay.REMUX.HEVC.DTS-HD.MA.5.1-FGT
Language : Spanish
Service kind : Complete Main
Default : No
Forced : No

Text #1
ID : 5
Format : PGS
Muxing mode : zlib
Codec ID : S_HDMV/PGS
Codec ID/Info : Picture based subtitle format used on BDs/HD-DVDs
Duration : 1 h 19 min
Bit rate : 33.0 kb/s
Count of elements : 1978
Stream size : 18.9 MiB (0%)
Title : English-PGS
Language : English
Default : Yes
Forced : No

Text #2
ID : 6
Format : PGS
Muxing mode : zlib
Codec ID : S_HDMV/PGS
Codec ID/Info : Picture based subtitle format used on BDs/HD-DVDs
Duration : 1 h 19 min
Bit rate : 26.0 kb/s
Count of elements : 1608
Stream size : 14.9 MiB (0%)
Title : French-PGS
Language : French
Default : No
Forced : No

Text #3
ID : 7
Format : PGS
Muxing mode : zlib
Codec ID : S_HDMV/PGS
Codec ID/Info : Picture based subtitle format used on BDs/HD-DVDs
Duration : 1 h 19 min
Bit rate : 28.5 kb/s
Count of elements : 1618
Stream size : 16.3 MiB (0%)
Title : Spanish-PGS
Language : Spanish
Default : No
Forced : No

Text #4
ID : 8
Format : PGS
Muxing mode : zlib
Codec ID : S_HDMV/PGS
Codec ID/Info : Picture based subtitle format used on BDs/HD-DVDs
Duration : 1 h 13 min
Bit rate : 188 b/s
Count of elements : 14
Stream size : 102 KiB (0%)
Title : French-FORCED-PGS
Language : French
Default : No
Forced : No

Text #5
ID : 9
Format : PGS
Muxing mode : zlib
Codec ID : S_HDMV/PGS
Codec ID/Info : Picture based subtitle format used on BDs/HD-DVDs
Duration : 1 h 13 min
Bit rate : 179 b/s
Count of elements : 14
Stream size : 97.1 KiB (0%)
Title : Spanish-FORCED-PGS
Language : Spanish
Default : No
Forced : No

Menu
00:00:00.000 : en:Chapter 1
00:09:32.071 : en:Chapter 2
00:20:02.409 : en:Chapter 3
00:32:29.489 : en:Chapter 4
00:40:17.706 : en:Chapter 5
00:51:40.055 : en:Chapter 6
01:03:31.307 : en:Chapter 7
01:10:59.797 : en:Chapter 8
01:17:04.161 : en:Chapter 9

Download

download 4k hdr movies download 4k hdr movies

Watch a movie trailer - The Death of Superman 4K 2018 Ultra HD 2160p
Comments and Feedback
Add your comment:
Your name:
Your E-Mail:
Code:
reload, if the code cannot be seen
Enter code: