Select movie Search movie Close search My Account

Tangled 4K 2010 Ultra HD 2160p

Tangled 4K 2010 Ultra HD 2160p
BDRemux / BDRip
Country: USA
Time: 1h 40min
IMDB: 7.7
Director: Nathan Greno, Byron Howard
Actors: Mandy Moore, Zachary Levi, Donna Murphy, Ron Perlman, M.C. Gainey, Jeffrey Tambor, Brad Garrett, Paul F. Tompkins, Richard Kiel, Delaney Rose Stein, Nathan Greno, Byron Howard, Tim Mertens, Michael Bell, Bob Bergen.

Story Movie

Tangled 4K 2010 Ultra HD 2160p
The charming robber Flynn travels through life with ease, only because he is handsome, talkative and lucky. And, it seemed, fortune is always on his side, until one day he chooses a tall tower in the thicket of the forest as a "quiet" refuge. Flynn is bound hand and foot by a young beauty named Rapunzel. Tangled 2010 4k content download.

If you think that the most interesting thing in it is 21 meters of magical golden hair, then you are mistaken! Locked in a tower and desperate for adventure, Rapunzel decides to use Flynn as a ticket to the big world. First a comical abduction, then an innocent blackmail - and here are our heroes in the wild. Together with the main characters on an adventurous journey go the brave snoop horse Maximus, a hand-held chameleon and a gang of extravagant robbers.

Review 4K Movie

"Tangled 4K" is the 50th anniversary cartoon from our beloved Disney. And, of course, it wouldn’t be nice to “face the dirt”, but Disney created a wonderful classic Disney cartoon.

Before that, I knew little of the history of Tangled 4K. Therefore, I was interested to see this cartoon. The old sorceress stole Tangled UHD, because her hair had a magical property: they gave youth to those who touch them. She locked Tangled UHD in the tower and did not let her out. Tangled 2160p was a baby when she was stolen by a witch and she thought the witch was her mother. Time passed, Tangled 2160p grew and every year on her birthday, thousands of flashlights lit up in the sky and she dreamed of seeing them in the vicinity and understanding how they were connected with her. By chance, Flynn and Tangled Ultra HD appear in her tower, through blackmail, persuades him to take her to the lanterns.

The cartoon turned out to be very colorful. Bright colors, wonderful animation. Disney created great characters, all the characters will arouse sympathy in the viewer. Rapunzel is a very beautiful and sweet girl who dreams of seeing the world. She's ugly, but that’s what makes her so cute. Flynn is a thief, but he is kind and noble, like a real prince. Chameleon Pascal, Rapunzel's best friend, a very cute and funny animal. Horse Maximus with the habits of a dog, a true servant of the law. Even the secondary characters are very vivid and memorable.

Separately, it is necessary to note the musical numbers. They are made, as in the good old Disney cartoons. There are no musical numbers in modern cartoons and therefore Rapunzel evokes nostalgia for the good old cartoons.

Disney created a wonderful, kind, funny and sincere cartoon, which did not deservedly fly past the Oscar nomination. I really hope that I will live to see the hundredth Disney cartoon and watch it, with the kindest feelings I will remember the 50th cartoon of this studio.

Mediainfo

movie BDRemux Video
ID : 1
Format : HEVC
Format/Info : High Efficiency Video Coding
Format profile : Main 10@L5.1@High
HDR format : SMPTE ST 2086, HDR10 compatible
Codec ID : V_MPEGH/ISO/HEVC
Duration : 1 h 40 min
Bit rate : 52.5 Mb/s
Width : 3 840 pixels
Height : 2 160 pixels
Display aspect ratio : 16:9
Frame rate mode : Constant
Frame rate : 23.976 (24000/1001) FPS
Color space : YUV
Chroma subsampling : 4:2:0 (Type 2)
Bit depth : 10 bits
Bits/(Pixel*Frame) : 0.264
Stream size : 36.8 GiB (79%)
Title : Tangled.2010.2160p.BluRay.REMUX.HEVC.TrueHD.7.1.Atmos
Writing library : ATEME Titan File 3.9.0 (4.9.0.0)
Language : English
Default : No
Forced : No
Color range : Limited
Color primaries : BT.2020
Transfer characteristics : PQ
Matrix coefficients : BT.2020 non-constant
Mastering display color primaries : Display P3
Mastering display luminance : min: 0.0001 cd/m2, max: 1000 cd/m2

Audio #1
ID : 2
Format : MLP FBA 16-ch
Format/Info : Meridian Lossless Packing FBA with 16-channel presentation
Commercial name : Dolby TrueHD with Dolby Atmos
Codec ID : A_TRUEHD
Duration : 1 h 40 min
Bit rate mode : Variable
Bit rate : 7 753 kb/s
Maximum bit rate : 9 480 kb/s
Channel(s) : 8 channels
Channel layout : L R C LFE Ls Rs Lb Rb
Sampling rate : 48.0 kHz
Frame rate : 1 200.000 FPS (40 SPF)
Compression mode : Lossless
Stream size : 5.43 GiB (12%)
Title : Tangled.2010.2160p.BluRay.REMUX.HEVC.TrueHD.7.1.Atmos
Language : English
Default : Yes
Forced : No
Number of dynamic objects : 13
Bed channel count : 1 channel
Bed channel configuration : LFE

Audio #2
ID : 3
Format : AC-3
Format/Info : Audio Coding 3
Commercial name : Dolby Digital
Codec ID : A_AC3
Duration : 1 h 40 min
Bit rate mode : Constant
Bit rate : 640 kb/s
Channel(s) : 6 channels
Channel layout : L R C LFE Ls Rs
Sampling rate : 48.0 kHz
Frame rate : 31.250 FPS (1536 SPF)
Bit depth : 16 bits
Compression mode : Lossy
Stream size : 459 MiB (1%)
Title : Tangled.2010.2160p.BluRay.REMUX.HEVC.TrueHD.7.1.Atmos
Language : English
Service kind : Complete Main
Default : No
Forced : No

Audio #3
ID : 4
Format : AC-3
Format/Info : Audio Coding 3
Commercial name : Dolby Digital
Codec ID : A_AC3
Duration : 1 h 40 min
Bit rate mode : Constant
Bit rate : 320 kb/s
Channel(s) : 2 channels
Channel layout : L R
Sampling rate : 48.0 kHz
Frame rate : 31.250 FPS (1536 SPF)
Bit depth : 16 bits
Compression mode : Lossy
Stream size : 230 MiB (0%)
Title : Tangled.2010.2160p.BluRay.REMUX.HEVC.TrueHD.7.1.Atmos
Language : English
Service kind : Complete Main
Default : No
Forced : No

Audio #4
ID : 5
Format : E-AC-3
Format/Info : Enhanced AC-3
Commercial name : Dolby Digital Plus
Format profile : Blu-ray Disc
Codec ID : A_EAC3
Duration : 1 h 40 min
Bit rate mode : Constant
Bit rate : 1 024 kb/s
Channel(s) : 8 channels
Channel layout : L R C LFE Ls Rs Lb Rb
Sampling rate : 48.0 kHz
Frame rate : 31.250 FPS (1536 SPF)
Compression mode : Lossy
Stream size : 735 MiB (2%)
Title : Tangled.2010.2160p.BluRay.REMUX.HEVC.TrueHD.7.1.Atmos
Language : French
Service kind : Complete Main
Default : No
Forced : No

Audio #5
ID : 6
Format : AC-3
Format/Info : Audio Coding 3
Commercial name : Dolby Digital
Codec ID : A_AC3
Duration : 1 h 40 min
Bit rate mode : Constant
Bit rate : 576 kb/s
Channel(s) : 6 channels
Channel layout : L R C LFE Ls Rs
Sampling rate : 48.0 kHz
Frame rate : 31.250 FPS (1536 SPF)
Bit depth : 16 bits
Compression mode : Lossy
Stream size : 413 MiB (1%)
Title : Tangled.2010.2160p.BluRay.REMUX.HEVC.TrueHD.7.1.Atmos
Language : French
Service kind : Complete Main
Default : No
Forced : No

Audio #6
ID : 7
Format : E-AC-3
Format/Info : Enhanced AC-3
Commercial name : Dolby Digital Plus
Format profile : Blu-ray Disc
Codec ID : A_EAC3
Duration : 1 h 40 min
Bit rate mode : Constant
Bit rate : 1 024 kb/s
Channel(s) : 8 channels
Channel layout : L R C LFE Ls Rs Lb Rb
Sampling rate : 48.0 kHz
Frame rate : 31.250 FPS (1536 SPF)
Compression mode : Lossy
Stream size : 735 MiB (2%)
Title : Tangled.2010.2160p.BluRay.REMUX.HEVC.TrueHD.7.1.Atmos
Language : Spanish
Service kind : Complete Main
Default : No
Forced : No

Audio #7
ID : 8
Format : AC-3
Format/Info : Audio Coding 3
Commercial name : Dolby Digital
Codec ID : A_AC3
Duration : 1 h 40 min
Bit rate mode : Constant
Bit rate : 576 kb/s
Channel(s) : 6 channels
Channel layout : L R C LFE Ls Rs
Sampling rate : 48.0 kHz
Frame rate : 31.250 FPS (1536 SPF)
Bit depth : 16 bits
Compression mode : Lossy
Stream size : 413 MiB (1%)
Title : Tangled.2010.2160p.BluRay.REMUX.HEVC.TrueHD.7.1.Atmos
Language : Spanish
Service kind : Complete Main
Default : No
Forced : No

Audio #8
ID : 9
Format : E-AC-3
Format/Info : Enhanced AC-3
Commercial name : Dolby Digital Plus
Format profile : Blu-ray Disc
Codec ID : A_EAC3
Duration : 1 h 40 min
Bit rate mode : Constant
Bit rate : 1 024 kb/s
Channel(s) : 8 channels
Channel layout : L R C LFE Ls Rs Lb Rb
Sampling rate : 48.0 kHz
Frame rate : 31.250 FPS (1536 SPF)
Compression mode : Lossy
Stream size : 735 MiB (2%)
Title : Tangled.2010.2160p.BluRay.REMUX.HEVC.TrueHD.7.1.Atmos
Language : Japanese
Service kind : Complete Main
Default : No
Forced : No

Audio #9
ID : 10
Format : AC-3
Format/Info : Audio Coding 3
Commercial name : Dolby Digital
Codec ID : A_AC3
Duration : 1 h 40 min
Bit rate mode : Constant
Bit rate : 576 kb/s
Channel(s) : 6 channels
Channel layout : L R C LFE Ls Rs
Sampling rate : 48.0 kHz
Frame rate : 31.250 FPS (1536 SPF)
Bit depth : 16 bits
Compression mode : Lossy
Stream size : 413 MiB (1%)
Title : Tangled.2010.2160p.BluRay.REMUX.HEVC.TrueHD.7.1.Atmos
Language : Japanese
Service kind : Complete Main
Default : No
Forced : No

Text #1
ID : 11
Format : UTF-8
Codec ID : S_TEXT/UTF8
Codec ID/Info : UTF-8 Plain Text
Duration : 1 h 39 min
Bit rate : 42 b/s
Count of elements : 918
Stream size : 30.8 KiB (0%)
Title : English-SRT
Language : English
Default : Yes
Forced : No

Text #2
ID : 12
Format : PGS
Muxing mode : zlib
Codec ID : S_HDMV/PGS
Codec ID/Info : Picture based subtitle format used on BDs/HD-DVDs
Duration : 1 h 39 min
Bit rate : 34.2 kb/s
Count of elements : 2538
Stream size : 24.3 MiB (0%)
Title : English-PGS
Language : English
Default : No
Forced : No

Text #3
ID : 13
Format : PGS
Muxing mode : zlib
Codec ID : S_HDMV/PGS
Codec ID/Info : Picture based subtitle format used on BDs/HD-DVDs
Duration : 1 h 39 min
Bit rate : 28.2 kb/s
Count of elements : 1850
Stream size : 20.0 MiB (0%)
Title : French-PGS
Language : French
Default : No
Forced : No

Text #4
ID : 14
Format : PGS
Muxing mode : zlib
Codec ID : S_HDMV/PGS
Codec ID/Info : Picture based subtitle format used on BDs/HD-DVDs
Duration : 1 h 39 min
Bit rate : 25.1 kb/s
Count of elements : 1814
Stream size : 17.8 MiB (0%)
Title : Spanish-PGS
Language : Spanish
Default : No
Forced : No

Text #5
ID : 15
Format : PGS
Muxing mode : zlib
Codec ID : S_HDMV/PGS
Codec ID/Info : Picture based subtitle format used on BDs/HD-DVDs
Duration : 1 h 30 min
Bit rate : 24.4 kb/s
Count of elements : 2014
Stream size : 15.7 MiB (0%)
Title : Japanese-PGS
Language : Japanese
Default : No
Forced : No

Menu
00:00:00.000 : en:Chapter 01
00:08:20.958 : en:Chapter 02
00:15:43.275 : en:Chapter 03
00:24:41.021 : en:Chapter 04
00:34:41.788 : en:Chapter 05
00:42:30.881 : en:Chapter 06
00:50:25.939 : en:Chapter 07
00:59:21.641 : en:Chapter 08
01:10:35.522 : en:Chapter 09
01:19:23.216 : en:Chapter 10
01:25:22.033 : en:Chapter 11
01:31:20.808 : en:Chapter 12
movie BDRip Video
ID : 1
Format : HEVC
Format/Info : High Efficiency Video Coding
Format profile : Main 10@L5.1@High
HDR format : SMPTE ST 2086, HDR10 compatible
Codec ID : V_MPEGH/ISO/HEVC
Duration : 1 h 40 min
Bit rate : 8 068 kb/s
Width : 3 840 pixels
Height : 2 160 pixels
Display aspect ratio : 16:9
Frame rate mode : Constant
Frame rate : 23.976 (24000/1001) FPS
Color space : YUV
Chroma subsampling : 4:2:0 (Type 2)
Bit depth : 10 bits
Bits/(Pixel*Frame) : 0.041
Stream size : 5.65 GiB (49%)
Writing library : x265 3.2+8-7fc1f6ef2b96:[Windows][GCC 6.3.0][64 bit] 10bit
Encoding settings : cpuid=1111039 / frame-threads=4 / numa-pools=20 / wpp / no-pmode / no-pme / no-psnr / no-ssim / log-level=2 / input-csp=1 / input-res=3840x2160 / interlace=0 / total-frames=144279 / level-idc=51 / high-tier=1 / uhd-bd=1 / ref=4 / no-allow-non-conformance / repeat-headers / annexb / aud / hrd / info / hash=0 / no-temporal-layers / no-open-gop / min-keyint=1 / keyint=24 / gop-lookahead=0 / bframes=4 / b-adapt=2 / b-pyramid / bframe-bias=0 / rc-lookahead=25 / lookahead-slices=4 / scenecut=40 / radl=0 / no-splice / no-intra-refresh / ctu=64 / min-cu-size=8 / rect / no-amp / max-tu-size=32 / tu-inter-depth=1 / tu-intra-depth=1 / limit-tu=0 / rdoq-level=2 / dynamic-rd=0.00 / no-ssim-rd / signhide / no-tskip / nr-intra=0 / nr-inter=0 / no-constrained-intra / no-strong-intra-smoothing / max-merge=3 / limit-refs=3 / limit-modes / me=3 / subme=3 / merange=57 / temporal-mvp / no-frame-dup / no-hme / weightp / no-weightb / no-analyze-src-pics / deblock=-3:-3 / no-sao / no-sao-non-deblock / rd=4 / selective-sao=0 / no-early-skip / rskip / no-fast-intra / no-tskip-fast / no-cu-lossless / no-b-intra / no-splitrd-skip / rdpenalty=0 / psy-rd=2.00 / psy-rdoq=1.00 / no-rd-refine / no-lossless / cbqpoffs=0 / crqpoffs=0 / rc=crf / crf=17.0 / qcomp=0.60 / qpstep=4 / stats-write=0 / stats-read=0 / vbv-maxrate=160000 / vbv-bufsize=160000 / vbv-init=0.9 / crf-max=0.0 / crf-min=0.0 / ipratio=1.40 / pbratio=1.30 / aq-mode=1 / aq-strength=1.00 / cutree / zone-count=0 / no-strict-cbr / qg-size=32 / no-rc-grain / qpmax=69 / qpmin=0 / no-const-vbv / sar=1 / overscan=0 / videoformat=5 / range=0 / colorprim=9 / transfer=16 / colormatrix=9 / chromaloc=1 / chromaloc-top=2 / chromaloc-bottom=2 / display-window=0 / master-display=G(13250,34500)B(7500,3000)R(34000,16000)WP(15635,16450)L(10000000,1) / cll=0,0 / min-luma=0 / max-luma=1023 / log2-max-poc-lsb=8 / vui-timing-info / vui-hrd-info / slices=1 / no-opt-qp-pps / no-opt-ref-list-length-pps / no-multi-pass-opt-rps / scenecut-bias=0.05 / no-opt-cu-delta-qp / no-aq-motion / hdr / hdr-opt / no-dhdr10-opt / no-idr-recovery-sei / analysis-reuse-level=5 / scale-factor=0 / refine-intra=0 / refine-inter=0 / refine-mv=1 / refine-ctu-distortion=0 / no-limit-sao / ctu-info=0 / no-lowpass-dct / refine-analysis-type=0 / copy-pic=1 / max-ausize-factor=1.0 / no-dynamic-refine / no-single-sei / no-hevc-aq / no-svt / no-field / qp-adaptation-range=1.00
Default : Yes
Forced : No
Color range : Limited
Color primaries : BT.2020
Transfer characteristics : PQ
Matrix coefficients : BT.2020 non-constant
Mastering display color primaries : Display P3
Mastering display luminance : min: 0.0001 cd/m2, max: 1000 cd/m2

Audio #1
ID : 2
Format : MLP FBA 16-ch
Format/Info : Meridian Lossless Packing FBA with 16-channel presentation
Commercial name : Dolby TrueHD with Dolby Atmos
Codec ID : A_TRUEHD
Duration : 1 h 40 min
Bit rate mode : Variable
Bit rate : 7 753 kb/s
Maximum bit rate : 9 480 kb/s
Channel(s) : 8 channels
Channel layout : L R C LFE Ls Rs Lb Rb
Sampling rate : 48.0 kHz
Frame rate : 1 200.000 FPS (40 SPF)
Compression mode : Lossless
Stream size : 5.43 GiB (47%)
Language : English
Default : Yes
Forced : No
Number of dynamic objects : 13
Bed channel count : 1 channel
Bed channel configuration : LFE

Audio #2
ID : 3
Format : AC-3
Format/Info : Audio Coding 3
Commercial name : Dolby Digital
Codec ID : A_AC3
Duration : 1 h 40 min
Bit rate mode : Constant
Bit rate : 640 kb/s
Channel(s) : 6 channels
Channel layout : L R C LFE Ls Rs
Sampling rate : 48.0 kHz
Frame rate : 31.250 FPS (1536 SPF)
Bit depth : 16 bits
Compression mode : Lossy
Stream size : 459 MiB (4%)
Language : English
Service kind : Complete Main
Default : No
Forced : No

Text #1
ID : 4
Format : PGS
Muxing mode : zlib
Codec ID : S_HDMV/PGS
Codec ID/Info : Picture based subtitle format used on BDs/HD-DVDs
Duration : 1 h 39 min
Bit rate : 34.2 kb/s
Count of elements : 2538
Stream size : 24.3 MiB (0%)
Title : SDH
Language : English
Default : No
Forced : No

Text #2
ID : 5
Format : PGS
Muxing mode : zlib
Codec ID : S_HDMV/PGS
Codec ID/Info : Picture based subtitle format used on BDs/HD-DVDs
Duration : 1 h 39 min
Bit rate : 28.2 kb/s
Count of elements : 1850
Stream size : 20.0 MiB (0%)
Language : French
Default : No
Forced : No

Text #3
ID : 6
Format : PGS
Muxing mode : zlib
Codec ID : S_HDMV/PGS
Codec ID/Info : Picture based subtitle format used on BDs/HD-DVDs
Duration : 1 h 39 min
Bit rate : 25.1 kb/s
Count of elements : 1814
Stream size : 17.8 MiB (0%)
Language : Spanish
Default : No
Forced : No

Text #4
ID : 7
Format : PGS
Muxing mode : zlib
Codec ID : S_HDMV/PGS
Codec ID/Info : Picture based subtitle format used on BDs/HD-DVDs
Duration : 1 h 30 min
Bit rate : 24.4 kb/s
Count of elements : 2014
Stream size : 15.7 MiB (0%)
Language : Japanese
Default : No
Forced : No

Menu
00:00:00.000 : en:Chapter 01
00:08:20.958 : en:Chapter 02
00:15:43.275 : en:Chapter 03
00:24:41.021 : en:Chapter 04
00:34:41.788 : en:Chapter 05
00:42:30.881 : en:Chapter 06
00:50:25.939 : en:Chapter 07
00:59:21.641 : en:Chapter 08
01:10:35.522 : en:Chapter 09
01:19:23.216 : en:Chapter 10
01:25:22.033 : en:Chapter 11
01:31:20.808 : en:Chapter 12

Download

download 4k hdr movies download 4k hdr movies

Watch a movie trailer - Tangled 4K 2010 Ultra HD 2160p
Comments and Feedback
Add your comment:
Your name:
Your E-Mail:
Code:
reload, if the code cannot be seen
Enter code: