Select movie Search movie Close search My Account

Pitch Perfect 4K 2012 Ultra HD 2160p

Pitch Perfect 4K 2012 Ultra HD 2160p
BDRemux / BDRip
Country: USA
Time: 1h 52min
IMDB: 7.2
Director: Jason Moore
Actors: Anna Kendrick, Skylar Astin, Ben Platt, Brittany Snow, Anna Camp, Rebel Wilson, Alexis Knapp, Ester Dean, Hana Mae Lee, Kelley Jakle, Wanetah Walmsley, Shelley Regner, Caroline Fourmy, Nicole Lovince, Adam Devine

Story Movie

Pitch Perfect 4K 2012 Ultra HD 2160p
A young student quite accidentally discovers his ability to sing. The girl does not just sing. her voice becomes very famous and popular. At the same time, it becomes very quickly recognizable. But is the main heroine of the movie Pitch Perfect netflix 4k movie download ready for such a turn of events. and how much the girl's life will change after such an opening.

Review 4K Movie

"Pitch Perfect" netflix 4k movie download- this is one of the most popular American musicals of recent times, received positive reviews from critics and warmly received by the audience. This film is a new formation, designed primarily for modern young people, following trends in music, communication, and life in general. Therefore, in the title of my review, I also put the phrase that has already nagged: "Fashionable, stylish, youth."

Immediately I will say that I am a man of fairly traditional, perhaps even conservative views. Therefore, I treat such projects with a certain degree of skepticism and misunderstanding. However, "Pitch Perfect" UHD, in spite of the fact that this is far from the ideal film, made quite a pleasant impression on me.

If we talk about the plot, then it should be said that there is nothing essentially new in it. This is a traditional American comedy about teenagers who get engaged in college. As always in such comedies come to the forefront of some losers who want to establish themselves in the eyes of others. In the role of these losers (or rather losers) in this film is a group of a capella singing, which has been losing a very important competition for a year already. This women's group consists of completely different girls, united by a common goal and opposing the a cappel group of guys. In general, here is a story. Naturally, there will be no divided love, and loneliness, and misunderstanding, and complexes, and other other problems, disturbing the younger generation. In general, the plot is interesting enough, but I repeat - not new, and therefore quite predictable.

But the story is not the main thing in this film. The main thing is his positive energy. The film is very bright, colorful, cheerful and funny, and so it raises the mood. Not the least role in the process of raising the mood is quite interesting and, in my opinion, the correct morality. The film teaches us to change with time, to be more flexible and modern, easier and faster to perceive innovations and changes in life, do not hesitate to express our thoughts and ideas, etc. In general, the thoughts are quite correct and life-affirming. The only moment that personally touched me very much is that these thoughts are good and acceptable in all extent only for American society. I watched this movie and was surprised: Well, how did they get so much time for all these hymns, hobbies and other active activities? Do they study there at all or not ?! I do not know, but it's only after seeing this film with my endless work and studying that I felt myself some kind of flawed old man, who only has enough free time and energy to sleep ... Apparently in this life, something needs to be changed, somehow to reconstruct - this, in fact, teaches us the film.

As for humor, it produces an ambiguous impression. On one side there are a lot of funny moments, but on the other - humor is too dumb, American and flat. But in general, it's funny.

I turn to the characteristic of the main component of any musical - music. "Pitch Perfect" Ultra HD is a jukebox-musical, that is, a film consisting of popular songs, selected for the plot. In this picture, the songs are mostly modern, different genre, but with a predominance of pop music. At first glance - nothing new, but it is not. Because all the songs in the film are mixed and sung exclusively and a cappella. As a result, a completely new sound is produced, already known, and sometimes pretty podnadoevshih tracks. In my opinion, this is just a great idea for a musical. However, that from this film you do not get a headache and your eardrums do not burst, you should look only at high-quality equipment and preferably with good acoustics. The thing is that a cappella performance involves an abundance of voices, which are sung in completely different keys, and even a single song at the same time. And if you watch this film on poor-quality equipment, then you not only will not get the proper pleasure from this film, but you will also be fairly annoyed by the rattling music. But if you watch this musical in quality, then, believe me, you will want to listen to some of the sounded songs (not for nothing the soundtrack of this film was for a long time located in the top ten on American iTunes).

Mediainfo

movie BDRemux Video
ID : 1
Format : HEVC
Format/Info : High Efficiency Video Coding
Format profile : Main 10@L5.1@High
Codec ID : V_MPEGH/ISO/HEVC
Duration : 1 h 52 min
Bit rate : 57.7 Mb/s
Width : 3 840 pixels
Height : 2 160 pixels
Display aspect ratio : 16:9
Frame rate mode : Constant
Frame rate : 23.976 (24000/1001) FPS
Color space : YUV
Chroma subsampling : 4:2:0 (Type 2)
Bit depth : 10 bits
Bits/(Pixel*Frame) : 0.290
Stream size : 45.1 GiB (86%)
Title : Pitch.Perfect.2012.2160p.BluRay.REMUX.HEVC.DTS-X.7.1
Writing library : ATEME Titan File 3.8.13 (4.8.13.0)
Default : Yes
Forced : No
Color range : Limited
Color primaries : BT.2020
Transfer characteristics : PQ
Matrix coefficients : BT.2020 non-constant
Mastering display color primaries : Display P3
Mastering display luminance : min: 0.0050 cd/m2, max: 1000 cd/m2
Maximum Content Light Level : 958 cd/m2
Maximum Frame-Average Light Level : 253 cd/m2

Audio #1
ID : 2
Format : DTS
Format/Info : Digital Theater Systems
Format profile : X / MA / Core
Codec ID : A_DTS
Duration : 1 h 52 min
Bit rate mode : Variable / Variable / Constant
Bit rate : 6 090 kb/s / 6 090 kb/s / 1 509 kb/s
Channel(s) : Object Based / 8 channels / 6 channels
Channel positions : Object Based / Front: L C R, Side: L R, Back: L R, LFE / Front: L C R, Side: L R, LFE
Sampling rate : / 48.0 kHz / 48.0 kHz
Frame rate : 93.750 FPS (512 SPF)
Bit depth : / 24 bits / 24 bits
Compression mode : / Lossless / Lossy
Stream size : 4.77 GiB (9%)
Title : Pitch.Perfect.2012.2160p.BluRay.REMUX.HEVC.DTS-X.7.1
Language : English
Default : Yes
Forced : No

Audio #2
ID : 3
Format : DTS
Format/Info : Digital Theater Systems
Codec ID : A_DTS
Duration : 1 h 52 min
Bit rate mode : Constant
Bit rate : 768 kb/s
Channel(s) : 6 channels
Channel positions : Front: L C R, Side: L R, LFE
Sampling rate : 48.0 kHz
Frame rate : 93.750 FPS (512 SPF)
Bit depth : 24 bits
Compression mode : Lossy
Stream size : 615 MiB (1%)
Title : Pitch.Perfect.2012.2160p.BluRay.REMUX.HEVC.DTS-X.7.1
Language : French
Default : No
Forced : No

Audio #3
ID : 4
Format : DTS
Format/Info : Digital Theater Systems
Codec ID : A_DTS
Duration : 1 h 52 min
Bit rate mode : Constant
Bit rate : 768 kb/s
Channel(s) : 6 channels
Channel positions : Front: L C R, Side: L R, LFE
Sampling rate : 48.0 kHz
Frame rate : 93.750 FPS (512 SPF)
Bit depth : 24 bits
Compression mode : Lossy
Stream size : 615 MiB (1%)
Title : Pitch.Perfect.2012.2160p.BluRay.REMUX.HEVC.DTS-X.7.1
Language : Spanish
Default : No
Forced : No

Audio #4
ID : 5
Format : DTS
Format/Info : Digital Theater Systems
Codec ID : A_DTS
Duration : 1 h 52 min
Bit rate mode : Constant
Bit rate : 768 kb/s
Channel(s) : 6 channels
Channel positions : Front: L C R, Side: L R, LFE
Sampling rate : 48.0 kHz
Frame rate : 93.750 FPS (512 SPF)
Bit depth : 24 bits
Compression mode : Lossy
Stream size : 615 MiB (1%)
Title : Pitch.Perfect.2012.2160p.BluRay.REMUX.HEVC.DTS-X.7.1
Language : Japanese
Default : No
Forced : No

Audio #5
ID : 6
Format : DTS
Format/Info : Digital Theater Systems
Codec ID : A_DTS
Duration : 1 h 52 min
Bit rate mode : Constant
Bit rate : 768 kb/s
Channel(s) : 6 channels
Channel positions : Front: L C R, Side: L R, LFE
Sampling rate : 48.0 kHz
Frame rate : 93.750 FPS (512 SPF)
Bit depth : 24 bits
Compression mode : Lossy
Stream size : 615 MiB (1%)
Title : Pitch.Perfect.2012.2160p.BluRay.REMUX.HEVC.DTS-X.7.1
Language : Portuguese
Default : No
Forced : No

Audio #6
ID : 7
Format : AC-3
Format/Info : Audio Coding 3
Codec ID : A_AC3
Duration : 1 h 52 min
Bit rate mode : Constant
Bit rate : 192 kb/s
Channel(s) : 2 channels
Channel positions : Front: L R
Sampling rate : 48.0 kHz
Frame rate : 31.250 FPS (1536 SPF)
Bit depth : 16 bits
Compression mode : Lossy
Stream size : 154 MiB (0%)
Title : Pitch.Perfect.2012.2160p.BluRay.REMUX.HEVC.DTS-X.7.1
Language : English
Service kind : Complete Main
Default : No
Forced : No

Audio #7
ID : 8
Format : AC-3
Format/Info : Audio Coding 3
Codec ID : A_AC3
Duration : 1 h 52 min
Bit rate mode : Constant
Bit rate : 192 kb/s
Channel(s) : 2 channels
Channel positions : Front: L R
Sampling rate : 48.0 kHz
Frame rate : 31.250 FPS (1536 SPF)
Bit depth : 16 bits
Compression mode : Lossy
Stream size : 154 MiB (0%)
Title : Pitch.Perfect.2012.2160p.BluRay.REMUX.HEVC.DTS-X.7.1
Language : English
Service kind : Complete Main
Default : No
Forced : No

Text #1
ID : 9
Format : PGS
Muxing mode : zlib
Codec ID : S_HDMV/PGS
Codec ID/Info : Picture based subtitle format used on BDs/HD-DVDs
Duration : 1 h 46 min
Bit rate : 45.0 kb/s
Count of elements : 3110
Stream size : 34.1 MiB (0%)
Title : English-PGS
Language : English
Default : Yes
Forced : No

Text #2
ID : 10
Format : PGS
Muxing mode : zlib
Codec ID : S_HDMV/PGS
Codec ID/Info : Picture based subtitle format used on BDs/HD-DVDs
Duration : 1 h 45 min
Bit rate : 38.7 kb/s
Count of elements : 2694
Stream size : 29.3 MiB (0%)
Title : French-PGS
Language : French
Default : No
Forced : No

Text #3
ID : 11
Format : PGS
Muxing mode : zlib
Codec ID : S_HDMV/PGS
Codec ID/Info : Picture based subtitle format used on BDs/HD-DVDs
Duration : 1 h 45 min
Bit rate : 37.5 kb/s
Count of elements : 2698
Stream size : 28.4 MiB (0%)
Title : Spanish_PGS
Language : Spanish
Default : No
Forced : No

Text #4
ID : 12
Format : PGS
Muxing mode : zlib
Codec ID : S_HDMV/PGS
Codec ID/Info : Picture based subtitle format used on BDs/HD-DVDs
Duration : 1 h 45 min
Bit rate : 23.5 kb/s
Count of elements : 2582
Stream size : 17.8 MiB (0%)
Title : Japanese-PGS
Language : Japanese
Default : No
Forced : No

Text #5
ID : 13
Format : PGS
Muxing mode : zlib
Codec ID : S_HDMV/PGS
Codec ID/Info : Picture based subtitle format used on BDs/HD-DVDs
Duration : 1 h 51 min
Bit rate : 33.5 kb/s
Count of elements : 2566
Stream size : 26.7 MiB (0%)
Title : Portuguese-PGS
Language : Portuguese
Default : No
Forced : No

Text #6
ID : 14
Format : PGS
Muxing mode : zlib
Codec ID : S_HDMV/PGS
Codec ID/Info : Picture based subtitle format used on BDs/HD-DVDs
Duration : 1 h 46 min
Bit rate : 82.8 kb/s
Count of elements : 4164
Stream size : 63.0 MiB (0%)
Title : English-COMMENTARY-PGS
Language : English
Default : No
Forced : No

Text #7
ID : 15
Format : PGS
Muxing mode : zlib
Codec ID : S_HDMV/PGS
Codec ID/Info : Picture based subtitle format used on BDs/HD-DVDs
Duration : 1 h 44 min
Bit rate : 44.0 kb/s
Count of elements : 3268
Stream size : 33.0 MiB (0%)
Title : Japanese-COMMENTARY-PGS
Language : Japanese
Default : No
Forced : No

Text #8
ID : 16
Format : PGS
Muxing mode : zlib
Codec ID : S_HDMV/PGS
Codec ID/Info : Picture based subtitle format used on BDs/HD-DVDs
Duration : 1 h 46 min
Bit rate : 55.3 kb/s
Count of elements : 2872
Stream size : 42.0 MiB (0%)
Title : English-COMMENTARY-PGS
Language : English
Default : No
Forced : No

Text #9
ID : 17
Format : PGS
Muxing mode : zlib
Codec ID : S_HDMV/PGS
Codec ID/Info : Picture based subtitle format used on BDs/HD-DVDs
Duration : 1 h 44 min
Bit rate : 29.2 kb/s
Count of elements : 2004
Stream size : 21.9 MiB (0%)
Title : Japanese-COMMENTARY-PGS
Language : Japanese
Default : No
Forced : No

Text #10
ID : 18
Format : PGS
Muxing mode : zlib
Codec ID : S_HDMV/PGS
Codec ID/Info : Picture based subtitle format used on BDs/HD-DVDs
Duration : 1 h 43 min
Bit rate : 731 b/s
Count of elements : 50
Stream size : 555 KiB (0%)
Title : French-FORCED-PGS
Language : French
Default : No
Forced : No

Text #11
ID : 19
Format : PGS
Muxing mode : zlib
Codec ID : S_HDMV/PGS
Codec ID/Info : Picture based subtitle format used on BDs/HD-DVDs
Duration : 1 h 2 min
Bit rate : 532 b/s
Count of elements : 28
Stream size : 244 KiB (0%)
Title : Spanish-FORCED-PGS
Language : Spanish
Default : No
Forced : No

Text #12
ID : 20
Format : PGS
Muxing mode : zlib
Codec ID : S_HDMV/PGS
Codec ID/Info : Picture based subtitle format used on BDs/HD-DVDs
Duration : 1 h 43 min
Bit rate : 1 690 b/s
Count of elements : 144
Stream size : 1.25 MiB (0%)
Title : Japanese-FORCED-PGS
Language : Japanese
Default : No
Forced : No

Text #13
ID : 21
Format : PGS
Muxing mode : zlib
Codec ID : S_HDMV/PGS
Codec ID/Info : Picture based subtitle format used on BDs/HD-DVDs
Duration : 1 h 46 min
Bit rate : 483 b/s
Count of elements : 32
Stream size : 379 KiB (0%)
Title : Portuguese-FORCED-PGS
Language : Portuguese
Default : No
Forced : No

Menu
00:00:00.000 : en:Chapter 1
00:04:33.564 : en:Chapter 2
00:09:18.933 : en:Chapter 3
00:15:51.909 : en:Chapter 4
00:19:46.643 : en:Chapter 5
00:23:09.471 : en:Chapter 6
00:27:48.333 : en:Chapter 7
00:32:46.756 : en:Chapter 8
00:39:00.212 : en:Chapter 9
00:43:54.882 : en:Chapter 10
00:49:58.412 : en:Chapter 11
00:54:21.466 : en:Chapter 12
01:01:49.580 : en:Chapter 13
01:06:27.441 : en:Chapter 14
01:11:57.271 : en:Chapter 15
01:18:57.899 : en:Chapter 16
01:23:24.165 : en:Chapter 17
01:33:43.117 : en:Chapter 18
01:38:50.591 : en:Chapter 19
01:44:47.239 : en:Chapter 20
movie BDRip Video
ID : 1
Format : HEVC
Format/Info : High Efficiency Video Coding
Format profile : Main 10@L5.1@High
Codec ID : V_MPEGH/ISO/HEVC
Duration : 1 h 52 min
Bit rate : 15.2 Mb/s
Width : 3 840 pixels
Height : 2 076 pixels
Display aspect ratio : 1.85:1
Frame rate mode : Constant
Frame rate : 23.976 (24000/1001) FPS
Color space : YUV
Chroma subsampling : 4:2:0 (Type 2)
Bit depth : 10 bits
Bits/(Pixel*Frame) : 0.080
Stream size : 11.9 GiB (70%)
Writing library : x265 2.6+31-3712d13c09bf:[Windows][GCC 6.3.0][64 bit] 10bit
Encoding settings : cpuid=1173503 / frame-threads=4 / numa-pools=20 / wpp / no-pmode / no-pme / no-psnr / no-ssim / log-level=2 / input-csp=1 / input-res=3840x2076 / interlace=0 / total-frames=161172 / level-idc=51 / high-tier=1 / uhd-bd=0 / ref=4 / no-allow-non-conformance / repeat-headers / annexb / aud / hrd / info / hash=0 / no-temporal-layers / no-open-gop / min-keyint=1 / keyint=24 / gop-lookahead=0 / bframes=4 / b-adapt=2 / b-pyramid / bframe-bias=0 / rc-lookahead=25 / lookahead-slices=4 / scenecut=40 / radl=0 / no-intra-refresh / ctu=64 / min-cu-size=8 / rect / no-amp / max-tu-size=32 / tu-inter-depth=1 / tu-intra-depth=1 / limit-tu=0 / rdoq-level=2 / dynamic-rd=0.00 / no-ssim-rd / signhide / no-tskip / nr-intra=0 / nr-inter=0 / no-constrained-intra / no-strong-intra-smoothing / max-merge=3 / limit-refs=3 / limit-modes / me=3 / subme=3 / merange=57 / temporal-mvp / weightp / no-weightb / no-analyze-src-pics / deblock=-3:-3 / no-sao / no-sao-non-deblock / rd=4 / no-early-skip / rskip / no-fast-intra / no-tskip-fast / no-cu-lossless / no-b-intra / no-splitrd-skip / rdpenalty=0 / psy-rd=2.00 / psy-rdoq=1.00 / no-rd-refine / no-lossless / cbqpoffs=0 / crqpoffs=0 / rc=crf / crf=17.0 / qcomp=0.60 / qpstep=4 / stats-write=0 / stats-read=0 / vbv-maxrate=160000 / vbv-bufsize=160000 / vbv-init=0.9 / crf-max=0.0 / crf-min=0.0 / ipratio=1.40 / pbratio=1.30 / aq-mode=1 / aq-strength=1.00 / cutree / zone-count=0 / no-strict-cbr / qg-size=32 / no-rc-grain / qpmax=69 / qpmin=0 / no-const-vbv / sar=1 / overscan=0 / videoformat=5 / range=0 / colorprim=9 / transfer=16 / colormatrix=9 / chromaloc=1 / chromaloc-top=2 / chromaloc-bottom=2 / display-window=0 / master-display=G(13250,34500)B(7500,3000)R(34000,16000)WP(15635,16450)L(10000000,50) / max-cll=958,253 / min-luma=0 / max-luma=1023 / log2-max-poc-lsb=8 / vui-timing-info / vui-hrd-info / slices=1 / no-opt-qp-pps / no-opt-ref-list-length-pps / no-multi-pass-opt-rps / scenecut-bias=0.05 / no-opt-cu-delta-qp / no-aq-motion / hdr / hdr-opt / no-dhdr10-opt / analysis-reuse-level=5 / scale-factor=0 / refine-intra=0 / refine-inter=0 / refine-mv=0 / no-limit-sao / ctu-info=0 / no-lowpass-dct / refine-mv-type=0 / copy-pic=1
Default : Yes
Forced : No
Color range : Limited
Color primaries : BT.2020
Transfer characteristics : PQ
Matrix coefficients : BT.2020 non-constant
Mastering display color primaries : Display P3
Mastering display luminance : min: 0.0050 cd/m2, max: 1000 cd/m2
Maximum Content Light Level : 958 cd/m2
Maximum Frame-Average Light Level : 253 cd/m2

Audio #1
ID : 2
Format : DTS
Format/Info : Digital Theater Systems
Format profile : X / MA / Core
Codec ID : A_DTS
Duration : 1 h 52 min
Bit rate mode : Variable / Variable / Constant
Bit rate : 6 090 kb/s / 6 090 kb/s / 1 509 kb/s
Channel(s) : Object Based / 8 channels / 6 channels
Channel positions : Object Based / Front: L C R, Side: L R, Back: L R, LFE / Front: L C R, Side: L R, LFE
Sampling rate : / 48.0 kHz / 48.0 kHz
Frame rate : 93.750 FPS (512 SPF)
Bit depth : / 24 bits / 24 bits
Compression mode : / Lossless / Lossy
Stream size : 4.77 GiB (28%)
Language : English
Default : Yes
Forced : No

Audio #2
ID : 3
Format : AC-3
Format/Info : Audio Coding 3
Codec ID : A_AC3
Duration : 1 h 52 min
Bit rate mode : Constant
Bit rate : 192 kb/s
Channel(s) : 2 channels
Channel positions : Front: L R
Sampling rate : 48.0 kHz
Frame rate : 31.250 FPS (1536 SPF)
Bit depth : 16 bits
Compression mode : Lossy
Stream size : 154 MiB (1%)
Title : Commentary
Language : English
Service kind : Complete Main
Default : No
Forced : No

Audio #3
ID : 4
Format : AC-3
Format/Info : Audio Coding 3
Codec ID : A_AC3
Duration : 1 h 52 min
Bit rate mode : Constant
Bit rate : 192 kb/s
Channel(s) : 2 channels
Channel positions : Front: L R
Sampling rate : 48.0 kHz
Frame rate : 31.250 FPS (1536 SPF)
Bit depth : 16 bits
Compression mode : Lossy
Stream size : 154 MiB (1%)
Title : Commentary
Language : English
Service kind : Complete Main
Default : No
Forced : No

Text #1
ID : 5
Format : PGS
Muxing mode : zlib
Codec ID : S_HDMV/PGS
Codec ID/Info : Picture based subtitle format used on BDs/HD-DVDs
Duration : 1 h 46 min
Bit rate : 45.0 kb/s
Count of elements : 3110
Stream size : 34.1 MiB (0%)
Language : English
Default : No
Forced : No

Text #2
ID : 6
Format : PGS
Muxing mode : zlib
Codec ID : S_HDMV/PGS
Codec ID/Info : Picture based subtitle format used on BDs/HD-DVDs
Duration : 1 h 45 min
Bit rate : 38.7 kb/s
Count of elements : 2694
Stream size : 29.3 MiB (0%)
Language : French
Default : No
Forced : No

Text #3
ID : 7
Format : PGS
Muxing mode : zlib
Codec ID : S_HDMV/PGS
Codec ID/Info : Picture based subtitle format used on BDs/HD-DVDs
Duration : 1 h 45 min
Bit rate : 37.5 kb/s
Count of elements : 2698
Stream size : 28.4 MiB (0%)
Language : Spanish
Default : No
Forced : No

Text #4
ID : 8
Format : PGS
Muxing mode : zlib
Codec ID : S_HDMV/PGS
Codec ID/Info : Picture based subtitle format used on BDs/HD-DVDs
Duration : 1 h 45 min
Bit rate : 23.5 kb/s
Count of elements : 2582
Stream size : 17.8 MiB (0%)
Language : Japanese
Default : No
Forced : No

Text #5
ID : 9
Format : PGS
Muxing mode : zlib
Codec ID : S_HDMV/PGS
Codec ID/Info : Picture based subtitle format used on BDs/HD-DVDs
Duration : 1 h 51 min
Bit rate : 33.5 kb/s
Count of elements : 2566
Stream size : 26.7 MiB (0%)
Language : Portuguese
Default : No
Forced : No

Text #6
ID : 10
Format : PGS
Muxing mode : zlib
Codec ID : S_HDMV/PGS
Codec ID/Info : Picture based subtitle format used on BDs/HD-DVDs
Duration : 1 h 46 min
Bit rate : 82.8 kb/s
Count of elements : 4164
Stream size : 63.0 MiB (0%)
Title : Commentary
Language : English
Default : No
Forced : No

Text #7
ID : 11
Format : PGS
Muxing mode : zlib
Codec ID : S_HDMV/PGS
Codec ID/Info : Picture based subtitle format used on BDs/HD-DVDs
Duration : 1 h 44 min
Bit rate : 44.0 kb/s
Count of elements : 3268
Stream size : 33.0 MiB (0%)
Language : Japanese
Default : No
Forced : No

Text #8
ID : 12
Format : PGS
Muxing mode : zlib
Codec ID : S_HDMV/PGS
Codec ID/Info : Picture based subtitle format used on BDs/HD-DVDs
Duration : 1 h 46 min
Bit rate : 55.3 kb/s
Count of elements : 2872
Stream size : 42.0 MiB (0%)
Title : Commentary
Language : English
Default : No
Forced : No

Text #9
ID : 13
Format : PGS
Muxing mode : zlib
Codec ID : S_HDMV/PGS
Codec ID/Info : Picture based subtitle format used on BDs/HD-DVDs
Duration : 1 h 44 min
Bit rate : 29.2 kb/s
Count of elements : 2004
Stream size : 21.9 MiB (0%)
Language : Japanese
Default : No
Forced : No

Text #10
ID : 14
Format : PGS
Muxing mode : zlib
Codec ID : S_HDMV/PGS
Codec ID/Info : Picture based subtitle format used on BDs/HD-DVDs
Duration : 1 h 43 min
Bit rate : 731 b/s
Count of elements : 50
Stream size : 555 KiB (0%)
Language : French
Default : No
Forced : No

Text #11
ID : 15
Format : PGS
Muxing mode : zlib
Codec ID : S_HDMV/PGS
Codec ID/Info : Picture based subtitle format used on BDs/HD-DVDs
Duration : 1 h 2 min
Bit rate : 532 b/s
Count of elements : 28
Stream size : 244 KiB (0%)
Language : Spanish
Default : No
Forced : No

Text #12
ID : 16
Format : PGS
Muxing mode : zlib
Codec ID : S_HDMV/PGS
Codec ID/Info : Picture based subtitle format used on BDs/HD-DVDs
Duration : 1 h 43 min
Bit rate : 1 690 b/s
Count of elements : 144
Stream size : 1.25 MiB (0%)
Language : Japanese
Default : No
Forced : No

Text #13
ID : 17
Format : PGS
Muxing mode : zlib
Codec ID : S_HDMV/PGS
Codec ID/Info : Picture based subtitle format used on BDs/HD-DVDs
Duration : 1 h 46 min
Bit rate : 483 b/s
Count of elements : 32
Stream size : 379 KiB (0%)
Language : Portuguese
Default : No
Forced : No

Download

download 4k hdr movies download 4k hdr movies

Watch a movie trailer - Pitch Perfect 4K 2012 Ultra HD 2160p
Comments and Feedback
Add your comment:
Your name:
Your E-Mail:
Code:
reload, if the code cannot be seen
Enter code: