Select movie Search movie Close search My Account

Pitch Perfect 2 4K 2015 Ultra HD 2160p

Pitch Perfect 2 4K 2015 Ultra HD 2160p
BDRemux / BDRip
Country: USA
Time: 1h 55min
IMDB: 6.4
Director: Elizabeth Banks
Actors: Anna Kendrick, Rebel Wilson, Hailee Steinfeld, Brittany Snow, Skylar Astin, Adam Devine, Katey Sagal, Anna Camp, Ben Platt, Alexis Knapp, Hana Mae Lee, Ester Dean, Chrissie Fit, Birgitte Hjort Srensen, Flula Borg

Story Movie

Pitch Perfect 2 4K 2015 Ultra HD 2160p
The film Pitch Perfect 2 Ultra HD is the continuation of the story of the girl who discovered. that she has the perfect voice. But now she and her friends are going to conquer new heights of the show business. they want to perform mega hits and win the maximum popularity among the audience. Fashionable clothes, costumes and their temperament. should help become winners in Pitch Perfect Part 3 4K uhd movies.

Review 4K Movie

There were no major changes in the sequel to the original, but it's also necessary to admit that Pitch Perfect Part 3 4K uhd movies has become much simpler and in fact does not contain any hidden and obvious conflicts. Even in Jason Moore's far from sinless tape, it was possible to find the rudiments of confrontation between the girls within the collective, which caused at least a semblance of intrigue and emotion, but now all these squabbles and misunderstandings are completely thrown out of the plot, since Elizabeth Banks appeared on the directing post and she wanted sincere fun in its pure form. Undoubtedly, such a free approach to the formulation of "Ideal Voice 2" can be alarming, but do not forget that this franchise was originally conceived as an absolutely easy youth story, which entertained a good sense of humor and pleased with the brilliant performing skill of the main characters. So Elizabeth Banks banally threw out what she deemed necessary and presented to us a spectacular entertainment, in which one does not need to look for deep meaning, experience and passing by to understand yourself. But instead of all this we have in reality a huge number of all sorts of jokes, some of which may be offensive to some European nations, but it is unlikely that anyone will seriously harbor anger at the team of "Ideal Voice 2" who decided to conquer the Old World without a trace.

It is gratifying that Elizabeth Banks and her wards have approached the choice of musical compositions with particular seriousness, but in many respects the narrative is built up. "Pitch Perfect 2" UHD is able to boast a mass of memorable tunes, which most viewers of the film have heard more than once, but in the processing of the a-cappella they acquire a completely new sound, from which it is simply impossible to tear yourself away. Undoubtedly, the "Bardeen Bells" take the lead in the list of audience sympathies, which can not be shifted to the side, but do not forget that "Pitch Perfect 2" Ultra HD once again hosted the children from "Trablemakers", in which is none other than Jesse Swanson performed by Skylar Estin. The guys continue to please us with their skills, and although the director deliberately takes them to the shadow of the "Bardeen Bells", one must admit. That the strong sex is almost in no way inferior to the beautiful and becomes an undoubted asset of the production, in which there is never enough music. And what is gratifying, the creators perfectly understand how to prioritize. Yes, there is romance here, but it does not interrupt the musical component, but only gently complements it.

As a result, I want to say that "Pitch Perfect 2" 4k is a pleasant, a little bit simple and naive, but still an exciting and hilarious story about a musical team that despite everything will win its own and prove that all of its past failures were only coincidence . Elizabeth Banks gave us another youth fairy tale and her main charm is that she does not get bored. So I wish you only a pleasant viewing.

Mediainfo

movie BDRemux Video
ID : 1
Format : HEVC
Format/Info : High Efficiency Video Coding
Format profile : Main 10@L5.1@High
Codec ID : V_MPEGH/ISO/HEVC
Duration : 1 h 54 min
Bit rate : 55.8 Mb/s
Width : 3 840 pixels
Height : 2 160 pixels
Display aspect ratio : 16:9
Frame rate mode : Constant
Frame rate : 23.976 (24000/1001) FPS
Color space : YUV
Chroma subsampling : 4:2:0 (Type 2)
Bit depth : 10 bits
Bits/(Pixel*Frame) : 0.281
Stream size : 44.7 GiB (85%)
Title : Pitch.Perfect.2.2015.2160p.BluRay.REMUX.HEVC.DTS-X.7.1
Writing library : ATEME Titan File 3.8.12 (4.8.12.0)
Default : Yes
Forced : No
Color range : Limited
Color primaries : BT.2020
Transfer characteristics : PQ
Matrix coefficients : BT.2020 non-constant
Mastering display color primaries : Display P3
Mastering display luminance : min: 0.0050 cd/m2, max: 1000 cd/m2
Maximum Content Light Level : 972 cd/m2
Maximum Frame-Average Light Level : 302 cd/m2

Audio #1
ID : 2
Format : DTS
Format/Info : Digital Theater Systems
Format profile : X / MA / Core
Codec ID : A_DTS
Duration : 1 h 54 min
Bit rate mode : Variable / Variable / Constant
Bit rate : 6 586 kb/s / 6 586 kb/s / 1 509 kb/s
Channel(s) : Object Based / 8 channels / 6 channels
Channel positions : Object Based / Front: L C R, Side: L R, Back: L R, LFE / Front: L C R, Side: L R, LFE
Sampling rate : / 48.0 kHz / 48.0 kHz
Frame rate : 93.750 FPS (512 SPF)
Bit depth : / 24 bits / 24 bits
Compression mode : / Lossless / Lossy
Stream size : 5.28 GiB (10%)
Title : Pitch.Perfect.2.2015.2160p.BluRay.REMUX.HEVC.DTS-X.7.1
Language : English
Default : Yes
Forced : No

Audio #2
ID : 3
Format : DTS
Format/Info : Digital Theater Systems
Codec ID : A_DTS
Duration : 1 h 54 min
Bit rate mode : Constant
Bit rate : 768 kb/s
Channel(s) : 6 channels
Channel positions : Front: L C R, Side: L R, LFE
Sampling rate : 48.0 kHz
Frame rate : 93.750 FPS (512 SPF)
Bit depth : 24 bits
Compression mode : Lossy
Stream size : 630 MiB (1%
Title : Pitch.Perfect.2.2015.2160p.BluRay.REMUX.HEVC.DTS-X.7.1
Language : French
Default : No
Forced : No

Audio #3
ID : 4
Format : DTS
Format/Info : Digital Theater Systems
Codec ID : A_DTS
Duration : 1 h 54 min
Bit rate mode : Constant
Bit rate : 768 kb/s
Channel(s) : 6 channels
Channel positions : Front: L C R, Side: L R, LFE
Sampling rate : 48.0 kHz
Frame rate : 93.750 FPS (512 SPF)
Bit depth : 24 bits
Compression mode : Lossy
Stream size : 630 MiB (1%)
Title : Pitch.Perfect.2.2015.2160p.BluRay.REMUX.HEVC.DTS-X.7.1
Language : Spanish
Default : No
Forced : No

Audio #4
ID : 5
Format : DTS
Format/Info : Digital Theater Systems
Codec ID : A_DTS
Duration : 1 h 54 min
Bit rate mode : Constant
Bit rate : 768 kb/s
Channel(s) : 6 channels
Channel positions : Front: L C R, Side: L R, LFE
Sampling rate : 48.0 kHz
Frame rate : 93.750 FPS (512 SPF)
Bit depth : 24 bits
Compression mode : Lossy
Stream size : 630 MiB (1%)
Title : Pitch.Perfect.2.2015.2160p.BluRay.REMUX.HEVC.DTS-X.7.1
Language : Japanese
Default : No
Forced : No

Audio #5
ID : 6
Format : DTS
Format/Info : Digital Theater Systems
Codec ID : A_DTS
Duration : 1 h 54 min
Bit rate mode : Constant
Bit rate : 768 kb/s
Channel(s) : 6 channels
Channel positions : Front: L C R, Side: L R, LFE
Sampling rate : 48.0 kHz
Frame rate : 93.750 FPS (512 SPF)
Bit depth : 24 bits
Compression mode : Lossy
Stream size : 630 MiB (1%)
Title : Pitch.Perfect.2.2015.2160p.BluRay.REMUX.HEVC.DTS-X.7.1
Language : Portuguese
Default : No
Forced : No

Audio #6
ID : 7
Format : AC-3
Format/Info : Audio Coding 3
Codec ID : A_AC3
Duration : 1 h 54 min
Bit rate mode : Constant
Bit rate : 192 kb/s
Channel(s) : 2 channels
Channel positions : Front: L R
Sampling rate : 48.0 kHz
Frame rate : 31.250 FPS (1536 SPF)
Bit depth : 16 bits
Compression mode : Lossy
Stream size : 157 MiB (0%)
Title : Pitch.Perfect.2.2015.2160p.BluRay.REMUX.HEVC.DTS-X.7.1
Language : English
Service kind : Complete Main
Default : No
Forced : No

Text #1
ID : 8
Format : PGS
Muxing mode : zlib
Codec ID : S_HDMV/PGS
Codec ID/Info : Picture based subtitle format used on BDs/HD-DVDs
Duration : 1 h 50 min
Bit rate : 52.7 kb/s
Count of elements : 4138
Stream size : 41.6 MiB (0%)
Title : English-PGS
Language : English
Default : Yes
Forced : No

Text #2
ID : 9
Format : PGS
Muxing mode : zlib
Codec ID : S_HDMV/PGS
Codec ID/Info : Picture based subtitle format used on BDs/HD-DVDs
Duration : 1 h 49 min
Bit rate : 43.4 kb/s
Count of elements : 3588
Stream size : 34.1 MiB (0%)
Title : French-PGS
Language : French
Default : No
Forced : No

Text #3
ID : 10
Format : PGS
Muxing mode : zlib
Codec ID : S_HDMV/PGS
Codec ID/Info : Picture based subtitle format used on BDs/HD-DVDs
Duration : 1 h 49 min
Bit rate : 41.0 kb/s
Count of elements : 3600
Stream size : 32.2 MiB (0%)
Title : Spanish-PGS
Language : Spanish
Default : No
Forced : No

Text #4
ID : 11
Format : PGS
Muxing mode : zlib
Codec ID : S_HDMV/PGS
Codec ID/Info : Picture based subtitle format used on BDs/HD-DVDs
Duration : 1 h 54 min
Bit rate : 28.1 kb/s
Count of elements : 3108
Stream size : 23.0 MiB (0%)
Title : Japanese-PGS
Language : Japanese
Default : No
Forced : No

Text #5
ID : 12
Format : PGS
Muxing mode : zlib
Codec ID : S_HDMV/PGS
Codec ID/Info : Picture based subtitle format used on BDs/HD-DVDs
Duration : 1 h 54 min
Bit rate : 34.4 kb/s
Count of elements : 3646
Stream size : 28.1 MiB (0%)
Title : Portuguese-PGS
Language : Portuguese
Default : No
Forced : No

Text #6
ID : 13
Format : PGS
Muxing mode : zlib
Codec ID : S_HDMV/PGS
Codec ID/Info : Picture based subtitle format used on BDs/HD-DVDs
Duration : 1 h 50 min
Bit rate : 71.4 kb/s
Count of elements : 4400
Stream size : 56.5 MiB (0%)
Title : English-COMMENTARY-PGS
Language : English
Default : No
Forced : No

Text #7
ID : 14
Format : PGS
Muxing mode : zlib
Codec ID : S_HDMV/PGS
Codec ID/Info : Picture based subtitle format used on BDs/HD-DVDs
Duration : 1 h 54 min
Bit rate : 35.9 kb/s
Count of elements : 3178
Stream size : 29.4 MiB (0%)
Title : Japanese-COMMENTARY-PGS
Language : Japanese
Default : No
Forced : No

Text #8
ID : 15
Format : PGS
Muxing mode : zlib
Codec ID : S_HDMV/PGS
Codec ID/Info : Picture based subtitle format used on BDs/HD-DVDs
Duration : 1 h 40 min
Bit rate : 2 462 b/s
Count of elements : 172
Stream size : 1.77 MiB (0%)
Title : French-FORCED-PGS
Language : French
Default : No
Forced : No

Text #9
ID : 16
Format : PGS
Muxing mode : zlib
Codec ID : S_HDMV/PGS
Codec ID/Info : Picture based subtitle format used on BDs/HD-DVDs
Duration : 1 h 39 min
Bit rate : 2 758 b/s
Count of elements : 184
Stream size : 1.96 MiB (0%)
Title : Spanish-FORCED-PGS
Language : Spanish
Default : No
Forced : No

Text #10
ID : 17
Format : PGS
Muxing mode : zlib
Codec ID : S_HDMV/PGS
Codec ID/Info : Picture based subtitle format used on BDs/HD-DVDs
Duration : 1 h 49 min
Bit rate : 4 009 b/s
Count of elements : 366
Stream size : 3.13 MiB (0%)
Title : Japanese-FORCED-PGS
Language : Japanese
Default : No
Forced : No

Text #11
ID : 18
Format : PGS
Muxing mode : zlib
Codec ID : S_HDMV/PGS
Codec ID/Info : Picture based subtitle format used on BDs/HD-DVDs
Duration : 1 h 50 min
Bit rate : 2 442 b/s
Count of elements : 170
Stream size : 1.93 MiB (0%)
Title : Portuguese-FORCED-PGS
Language : Portuguese
Default : No
Forced : No

Menu
00:00:00.000 : en:Chapter 1
00:05:50.308 : en:Chapter 2
00:10:15.615 : en:Chapter 3
00:15:29.845 : en:Chapter 4
00:19:18.991 : en:Chapter 5
00:26:58.450 : en:Chapter 6
00:31:54.829 : en:Chapter 7
00:39:00.713 : en:Chapter 8
00:46:12.478 : en:Chapter 9
00:53:21.698 : en:Chapter 10
00:58:36.471 : en:Chapter 11
01:02:52.393 : en:Chapter 12
01:08:35.194 : en:Chapter 13
01:12:26.091 : en:Chapter 14
01:17:21.511 : en:Chapter 15
01:22:43.291 : en:Chapter 16
01:28:16.416 : en:Chapter 17
01:34:28.454 : en:Chapter 18
01:38:43.918 : en:Chapter 19
01:45:50.385 : en:Chapter 20
movie BDRip Video
ID : 1
Format : HEVC
Format/Info : High Efficiency Video Coding
Format profile : Main 10@L5.1@High
Codec ID : V_MPEGH/ISO/HEVC
Duration : 1 h 54 min
Width : 3 840 pixels
Height : 2 076 pixels
Display aspect ratio : 1.85:1
Frame rate mode : Constant
Frame rate : 23.976 (24000/1001) FPS
Color space : YUV
Chroma subsampling : 4:2:0 (Type 2)
Bit depth : 10 bits
Writing library : x265 2.7+15-b9f5b5d7bf95:[Windows][GCC 6.3.0][64 bit] 10bit
Encoding settings : cpuid=1173503 / frame-threads=6 / numa-pools=16,16 / wpp / no-pmode / no-pme / no-psnr / no-ssim / log-level=2 / input-csp=1 / input-res=3840x2076 / interlace=0 / total-frames=164977 / level-idc=51 / high-tier=1 / uhd-bd=0 / ref=4 / no-allow-non-conformance / repeat-headers / annexb / aud / hrd / info / hash=0 / no-temporal-layers / no-open-gop / min-keyint=24 / keyint=240 / gop-lookahead=0 / bframes=4 / b-adapt=2 / b-pyramid / bframe-bias=0 / rc-lookahead=25 / lookahead-slices=4 / scenecut=40 / radl=0 / no-intra-refresh / ctu=64 / min-cu-size=8 / rect / no-amp / max-tu-size=32 / tu-inter-depth=1 / tu-intra-depth=1 / limit-tu=0 / rdoq-level=2 / dynamic-rd=0.00 / no-ssim-rd / signhide / no-tskip / nr-intra=0 / nr-inter=0 / no-constrained-intra / no-strong-intra-smoothing / max-merge=3 / limit-refs=3 / limit-modes / me=3 / subme=3 / merange=57 / temporal-mvp / weightp / no-weightb / no-analyze-src-pics / deblock=-3:-3 / no-sao / no-sao-non-deblock / rd=4 / no-early-skip / rskip / no-fast-intra / no-tskip-fast / no-cu-lossless / no-b-intra / no-splitrd-skip / rdpenalty=0 / psy-rd=2.00 / psy-rdoq=1.00 / no-rd-refine / no-lossless / cbqpoffs=0 / crqpoffs=0 / rc=crf / crf=17.0 / qcomp=0.60 / qpstep=4 / stats-write=0 / stats-read=0 / vbv-maxrate=160000 / vbv-bufsize=160000 / vbv-init=0.9 / crf-max=0.0 / crf-min=0.0 / ipratio=1.40 / pbratio=1.30 / aq-mode=1 / aq-strength=1.00 / cutree / zone-count=0 / no-strict-cbr / qg-size=32 / no-rc-grain / qpmax=69 / qpmin=0 / no-const-vbv / sar=1 / overscan=0 / videoformat=5 / range=0 / colorprim=9 / transfer=16 / colormatrix=9 / chromaloc=1 / chromaloc-top=2 / chromaloc-bottom=2 / display-window=0 / master-display=G(13250,34500)B(7500,3000)R(34000,16000)WP(15635,16450)L(10000000,50) / max-cll=972,302 / min-luma=0 / max-luma=1023 / log2-max-poc-lsb=8 / vui-timing-info / vui-hrd-info / slices=1 / opt-qp-pps / opt-ref-list-length-pps / no-multi-pass-opt-rps / scenecut-bias=0.05 / no-opt-cu-delta-qp / no-aq-motion / hdr / hdr-opt / no-dhdr10-opt / no-idr-recovery-sei / analysis-reuse-level=5 / scale-factor=0 / refine-intra=0 / refine-inter=0 / refine-mv=0 / no-limit-sao / ctu-info=0 / no-lowpass-dct / refine-mv-type=0 / copy-pic=1 / max-ausize-factor=1.0 / no-dynamic-refine
Default : Yes
Forced : No
Color range : Limited
Color primaries : BT.2020
Transfer characteristics : PQ
Matrix coefficients : BT.2020 non-constant
Statistics Tags Issue : no_variable_data 1970-01-01 00:00:00 / no_variable_data 2010-02-22 21:41:29
FromStats_BitRate : 14950406
FromStats_Duration : 01:54:40.916000000
FromStats_FrameCount : 164977
FromStats_StreamSize : 12859061224
Mastering display color primaries : Display P3
Mastering display luminance : min: 0.0050 cd/m2, max: 1000 cd/m2
Maximum Content Light Level : 972 cd/m2
Maximum Frame-Average Light Level : 302 cd/m2

Audio #1
ID : 2
Format : DTS
Format/Info : Digital Theater Systems
Format profile : X / MA / Core
Codec ID : A_DTS
Bit rate mode : Variable / Variable / Constant
Bit rate : Unknown / Unknown / 1 509 kb/s
Channel(s) : Object Based / 8 channels / 6 channels
Channel positions : Object Based / Front: L C R, Side: L R, Back: L R, LFE / Front: L C R, Side: L R, LFE
Sampling rate : / 48.0 kHz / 48.0 kHz
Frame rate : 93.750 FPS (512 SPF)
Bit depth : / 24 bits / 24 bits
Compression mode : / Lossless / Lossy
Language : English
Default : Yes
Forced : No
Statistics Tags Issue : no_variable_data 1970-01-01 00:00:00 / no_variable_data 2010-02-22 21:41:29
FromStats_BitRate : 6586045
FromStats_Duration : 01:54:40.918000000
FromStats_FrameCount : 645086
FromStats_StreamSize : 5664755028

Audio #2
ID : 3
Format : AC-3
Format/Info : Audio Coding 3
Codec ID : A_AC3
Duration : 1 h 54 min
Bit rate mode : Constant
Bit rate : 192 kb/s
Channel(s) : 2 channels
Channel positions : Front: L R
Sampling rate : 48.0 kHz
Frame rate : 31.250 FPS (1536 SPF)
Bit depth : 16 bits
Compression mode : Lossy
Stream size : 157 MiB (1%)
Title : Commentary with Director/Producer Elizabeth Banks and Producers Paul Brooks and Max Handelman
Language : English
Service kind : Complete Main
Default : No
Forced : No
Statistics Tags Issue : no_variable_data 1970-01-01 00:00:00 / no_variable_data 2010-02-22 21:41:29
FromStats_BitRate : 192000
FromStats_Duration : 01:54:40.928000000
FromStats_FrameCount : 215029
FromStats_StreamSize : 165142272

Text #1
ID : 4
Format : UTF-8
Codec ID : S_TEXT/UTF8
Codec ID/Info : UTF-8 Plain Text
Title : Stripped SRT (not positioned)
Language : English
Default : No
Forced : No
Statistics Tags Issue : no_variable_data 1970-01-01 00:00:00 / no_variable_data 2010-02-22 21:41:29
FromStats_BitRate : 73
FromStats_Duration : 01:49:49.041000000
FromStats_FrameCount : 1885
FromStats_StreamSize : 60778

Text #2
ID : 5
Format : UTF-8
Codec ID : S_TEXT/UTF8
Codec ID/Info : UTF-8 Plain Text
Title : SDH SRT (not positioned)
Language : English
Default : No
Forced : No
Statistics Tags Issue : no_variable_data 1970-01-01 00:00:00 / no_variable_data 2010-02-22 21:41:29
FromStats_BitRate : 80
FromStats_Duration : 01:50:20.364000000
FromStats_FrameCount : 2067
FromStats_StreamSize : 66540

Text #3
ID : 6
Format : PGS
Muxing mode : zlib
Codec ID : S_HDMV/PGS
Codec ID/Info : Picture based subtitle format used on BDs/HD-DVDs
Title : SDH
Language : English
Default : No
Forced : No
Statistics Tags Issue : no_variable_data 1970-01-01 00:00:00 / no_variable_data 2010-02-22 21:41:29
FromStats_BitRate : 52734
FromStats_Duration : 01:50:20.364000000
FromStats_FrameCount : 4138
FromStats_StreamSize : 43639983

Text #4
ID : 7
Format : PGS
Muxing mode : zlib
Codec ID : S_HDMV/PGS
Codec ID/Info : Picture based subtitle format used on BDs/HD-DVDs
Title : Commentary with Director/Producer Elizabeth Banks and Producers Paul Brooks and Max Handelman
Language : English
Default : No
Forced : No
Statistics Tags Issue : no_variable_data 1970-01-01 00:00:00 / no_variable_data 2010-02-22 21:41:29
FromStats_BitRate : 71403
FromStats_Duration : 01:50:41.510000000
FromStats_FrameCount : 4400
FromStats_StreamSize : 59278745

Text #5
ID : 8
Format : PGS
Muxing mode : zlib
Codec ID : S_HDMV/PGS
Codec ID/Info : Picture based subtitle format used on BDs/HD-DVDs
Language : French
Default : No
Forced : No
Statistics Tags Issue : no_variable_data 1970-01-01 00:00:00 / no_variable_data 2010-02-22 21:41:29
FromStats_BitRate : 43388
FromStats_Duration : 01:49:49.041000000
FromStats_FrameCount : 3588
FromStats_StreamSize : 35736344

Text #6
ID : 9
Format : PGS
Muxing mode : zlib
Codec ID : S_HDMV/PGS
Codec ID/Info : Picture based subtitle format used on BDs/HD-DVDs
Language : Spanish
Default : No
Forced : No
Statistics Tags Issue : no_variable_data 1970-01-01 00:00:00 / no_variable_data 2010-02-22 21:41:29
FromStats_BitRate : 41047
FromStats_Duration : 01:49:48.915000000
FromStats_FrameCount : 3600
FromStats_StreamSize : 33807390

Text #7
ID : 10
Format : PGS
Muxing mode : zlib
Codec ID : S_HDMV/PGS
Codec ID/Info : Picture based subtitle format used on BDs/HD-DVDs
Language : Portuguese
Default : No
Forced : No
Statistics Tags Issue : no_variable_data 1970-01-01 00:00:00 / no_variable_data 2010-02-22 21:41:29
FromStats_BitRate : 34420
FromStats_Duration : 01:54:05.421000000
FromStats_FrameCount : 3646
FromStats_StreamSize : 29452704

Text #8
ID : 11
Format : PGS
Muxing mode : zlib
Codec ID : S_HDMV/PGS
Codec ID/Info : Picture based subtitle format used on BDs/HD-DVDs
Language : Japanese
Default : No
Forced : No
Statistics Tags Issue : no_variable_data 1970-01-01 00:00:00 / no_variable_data 2010-02-22 21:41:29
FromStats_BitRate : 28125
FromStats_Duration : 01:54:06.673000000
FromStats_FrameCount : 3108
FromStats_StreamSize : 24071064

Text #9
ID : 12
Format : PGS
Muxing mode : zlib
Codec ID : S_HDMV/PGS
Codec ID/Info : Picture based subtitle format used on BDs/HD-DVDs
Title : Commentary with Director/Producer Elizabeth Banks and Producers Paul Brooks and Max Handelman
Language : Japanese
Default : No
Forced : No
Statistics Tags Issue : no_variable_data 1970-01-01 00:00:00 / no_variable_data 2010-02-22 21:41:29
FromStats_BitRate : 35881
FromStats_Duration : 01:54:31.656000000
FromStats_FrameCount : 3178
FromStats_StreamSize : 30820606

Download

download 4k hdr movies download 4k hdr movies

Watch a movie trailer - Pitch Perfect 2 4K 2015 Ultra HD 2160p
Comments and Feedback
Add your comment:
Your name:
Your E-Mail:
Code:
reload, if the code cannot be seen
Enter code: