Select movie Search movie Close search My Account

The Big Lebowski 4K 1998 Ultra HD 2160p

The Big Lebowski 4K 1998 Ultra HD 2160p
BDRemux / BDRip
Country: USA | UK
Time: 1h 57min
IMDB: 8.1
Director: Joel Coen, Ethan Coen
Actors: eff Bridges, John Goodman, Julianne Moore, Steve Buscemi, David Huddleston, Philip Seymour Hoffman, Tara Reid, Philip Moon, Mark Pellegrino, Peter Stormare, Flea Flea, Torsten Voges, Jimmie Dale Gilmore, Jack Kehler, John Turturro

Story Movie

The Big Lebowski 4K 1998 Ultra HD 2160p
The Big Lebowski 4K is the main character of this comedy film, an ordinary guy who, like many other young people, loves rest and entertainment. But everything changes at one moment, when he is accidentally mistaken for a very rich person and trying to be diluted with big money, which he naturally does not have. in parallel, gangsters steal the wife of a real millionaire and demand to pay a ransom for her. But you will learn about steel events from the film The Big Lebowski 4k content download.

Review 4K Movie

The Big Lebowski 4K is definitely not a cinema for everyone. For some, just one viewing is enough to call the film a genius, others will need much more time and viewing, and some will not even watch this movie. “Big Lebowski” does not cause a single opinion of the majority, someone will admire this film, someone to hate, but this majority will hardly have one single opinion on this film. So, which camp you personally join, it’s too early to judge.

I don’t even know with which mood you need to sit for watching, it’s most likely easier to turn on and watch stupidly, you’ll understand everything in the course of the movie. Yes, “Big Lebovka” is not an ordinary film, it lives its own life and does not follow standard rules and regulations. Such films immediately stand out from the general background and it is difficult not to notice them. In the end, what to talk about, if the plot of the film begins with a trimmed carpet. A little is not usual, is it? So, if you are counting on a regular movie, then it is you for nothing.

Besides the fact that the film is unusual and attracts with its game to its own rules, the Big Lebowski 4k content download has very bright and colorful characters. Take the main character - Dude. To the bone marrow is a muddle and a slacker, such a certain Mr. P # @ woo, a man useless for society. Dude does not care, the ordinary world with its framework, rules and system is not for him. He has his own world, Dude world. It is interesting in that it is different from us. No, well, seriously? Have you personally seen or know people like Dude? Personally, I do not know. I saw some attempts by some people to be like this image UHD, but everything is even. Such people are attracted to the fact that they can do what you personally can not. You can not because of their complexes, fears, insecurity, incorrectness, morality, public opinion, etc. And such as the Dude do not care, they do what they want it. That’s why the Dude in the brilliant performance of Jeff Bridges is so interesting. John Goodman also showed the most interesting character of Walter, a paranoiac living in the Vietnam War. Steve Buscemi's character is no less amusing in its comic nature.

In general, the impression from the film of the Coen brot

Mediainfo

movie BDRemux Video
ID : 1
Format : HEVC
Format/Info : High Efficiency Video Coding
Commercial name : HDR10
Format profile : Main 10@L5.1@High
Codec ID : V_MPEGH/ISO/HEVC
Duration : 1 h 57 min
Bit rate : 58.6 Mb/s
Width : 3 840 pixels
Height : 2 160 pixels
Display aspect ratio : 16:9
Frame rate mode : Constant
Frame rate : 23.976 (24000/1001) FPS
Color space : YUV
Chroma subsampling : 4:2:0 (Type 2)
Bit depth : 10 bits
Bits/(Pixel*Frame) : 0.295
Stream size : 48.0 GiB (88%)
Title : The.Big.Lebowski.1998.2160p.BluRay.REMUX.HEVC.DTS-X.7.1
Default : Yes
Forced : No
Color range : Limited
Color primaries : BT.2020
Transfer characteristics : PQ
Matrix coefficients : BT.2020 non-constant
Mastering display color primaries : Display P3
Mastering display luminance : min: 0.0050 cd/m2, max: 1000 cd/m2
Maximum Content Light Level : 1000 cd/m2
Maximum Frame-Average Light Level : 131 cd/m2

Audio #1
ID : 2
Format : DTS XLL X
Format/Info : Digital Theater Systems
Commercial name : DTS-HD Master Audio
Codec ID : A_DTS
Duration : 1 h 57 min
Bit rate mode : Variable
Bit rate : 4 938 kb/s
Channel(s) : 8 channels
Channel(s)_Original : Object Based
Channel layout : Object Based
Sampling rate : 48.0 kHz
Frame rate : 93.750 FPS (512 SPF)
Bit depth : 24 bits
Stream size : 4.04 GiB (7%)
Title : The.Big.Lebowski.1998.2160p.BluRay.REMUX.HEVC.DTS-X.7.1
Language : English
Default : Yes
Forced : No

Audio #2
ID : 3
Format : DTS
Format/Info : Digital Theater Systems
Codec ID : A_DTS
Duration : 1 h 57 min
Bit rate mode : Constant
Bit rate : 768 kb/s
Channel(s) : 6 channels
Channel layout : C L R Ls Rs LFE
Sampling rate : 48.0 kHz
Frame rate : 93.750 FPS (512 SPF)
Bit depth : 24 bits
Compression mode : Lossy
Stream size : 644 MiB (1%)
Title : The.Big.Lebowski.1998.2160p.BluRay.REMUX.HEVC.DTS-X.7.1
Language : French
Default : No
Forced : No

Audio #3
ID : 4
Format : DTS
Format/Info : Digital Theater Systems
Codec ID : A_DTS
Duration : 1 h 57 min
Bit rate mode : Constant
Bit rate : 768 kb/s
Channel(s) : 6 channels
Channel layout : C L R Ls Rs LFE
Sampling rate : 48.0 kHz
Frame rate : 93.750 FPS (512 SPF)
Bit depth : 24 bits
Compression mode : Lossy
Stream size : 644 MiB (1%)
Title : The.Big.Lebowski.1998.2160p.BluRay.REMUX.HEVC.DTS-X.7.1
Language : Spanish
Default : No
Forced : No

Audio #4
ID : 5
Format : DTS
Format/Info : Digital Theater Systems
Codec ID : A_DTS
Duration : 1 h 57 min
Bit rate mode : Constant
Bit rate : 768 kb/s
Channel(s) : 6 channels
Channel layout : C L R Ls Rs LFE
Sampling rate : 48.0 kHz
Frame rate : 93.750 FPS (512 SPF)
Bit depth : 24 bits
Compression mode : Lossy
Stream size : 644 MiB (1%)
Title : The.Big.Lebowski.1998.2160p.BluRay.REMUX.HEVC.DTS-X.7.1
Language : Japanese
Default : No
Forced : No

Audio #5
ID : 6
Format : DTS
Format/Info : Digital Theater Systems
Codec ID : A_DTS
Duration : 1 h 57 min
Bit rate mode : Constant
Bit rate : 768 kb/s
Channel(s) : 6 channels
Channel layout : C L R Ls Rs LFE
Sampling rate : 48.0 kHz
Frame rate : 93.750 FPS (512 SPF)
Bit depth : 24 bits
Compression mode : Lossy
Stream size : 644 MiB (1%)
Title : The.Big.Lebowski.1998.2160p.BluRay.REMUX.HEVC.DTS-X.7.1
Language : Portuguese
Default : No
Forced : No

Text #1
ID : 7
Format : PGS
Muxing mode : zlib
Codec ID : S_HDMV/PGS
Codec ID/Info : Picture based subtitle format used on BDs/HD-DVDs
Duration : 1 h 56 min
Bit rate : 56.1 kb/s
Count of elements : 4063
Stream size : 46.6 MiB (0%)
Title : English-PGS
Language : English
Default : Yes
Forced : No

Text #2
ID : 8
Format : PGS
Muxing mode : zlib
Codec ID : S_HDMV/PGS
Codec ID/Info : Picture based subtitle format used on BDs/HD-DVDs
Duration : 1 h 51 min
Bit rate : 47.4 kb/s
Count of elements : 3303
Stream size : 37.9 MiB (0%)
Title : French-PGS
Language : French
Default : No
Forced : No

Text #3
ID : 9
Format : PGS
Muxing mode : zlib
Codec ID : S_HDMV/PGS
Codec ID/Info : Picture based subtitle format used on BDs/HD-DVDs
Duration : 1 h 51 min
Bit rate : 45.9 kb/s
Count of elements : 3325
Stream size : 36.6 MiB (0%)
Title : Spanish-PGS
Language : Spanish
Default : No
Forced : No

Text #4
ID : 10
Format : PGS
Muxing mode : zlib
Codec ID : S_HDMV/PGS
Codec ID/Info : Picture based subtitle format used on BDs/HD-DVDs
Duration : 1 h 51 min
Bit rate : 29.5 kb/s
Count of elements : 2943
Stream size : 23.6 MiB (0%)
Title : Japanese-PGS
Language : Japanese
Default : No
Forced : No

Text #5
ID : 11
Format : PGS
Muxing mode : zlib
Codec ID : S_HDMV/PGS
Codec ID/Info : Picture based subtitle format used on BDs/HD-DVDs
Duration : 1 h 51 min
Bit rate : 45.1 kb/s
Count of elements : 3327
Stream size : 36.1 MiB (0%)
Title : Portuguese-PGS
Language : Portuguese
Default : No
Forced : No

Text #6
ID : 12
Format : PGS
Muxing mode : zlib
Codec ID : S_HDMV/PGS
Codec ID/Info : Picture based subtitle format used on BDs/HD-DVDs
Duration : 1 h 40 min
Bit rate : 419 b/s
Count of elements : 31
Stream size : 310 KiB (0%)
Title : French-FORCED-PGS
Language : French
Default : No
Forced : No

Text #7
ID : 13
Format : PGS
Muxing mode : zlib
Codec ID : S_HDMV/PGS
Codec ID/Info : Picture based subtitle format used on BDs/HD-DVDs
Duration : 55 min 1 s
Bit rate : 302 b/s
Count of elements : 8
Stream size : 122 KiB (0%)
Title : Spanish-FORCED_PGS
Language : Spanish
Default : No
Forced : No

Text #8
ID : 14
Format : PGS
Muxing mode : zlib
Codec ID : S_HDMV/PGS
Codec ID/Info : Picture based subtitle format used on BDs/HD-DVDs
Duration : 1 h 9 min
Bit rate : 384 b/s
Count of elements : 34
Stream size : 196 KiB (0%)
Title : Japanese-FORCED-PGS
Language : Japanese
Default : No
Forced : No

Text #9
ID : 15
Format : PGS
Muxing mode : zlib
Codec ID : S_HDMV/PGS
Codec ID/Info : Picture based subtitle format used on BDs/HD-DVDs
Duration : 54 min 56 s
Bit rate : 270 b/s
Count of elements : 10
Stream size : 109 KiB (0%)
Title : Portuguese-FORCED-PGS
Language : Portuguese
Default : No
Forced : No

Menu
00:00:00.000 : :Chapter 1
00:03:45.391 : :Chapter 2
00:05:37.211 : :Chapter 3
00:07:39.208 : :Chapter 4
00:10:02.268 : :Chapter 5
00:16:27.736 : :Chapter 6
00:20:01.742 : :Chapter 7
00:25:03.627 : :Chapter 8
00:29:27.932 : :Chapter 9
00:37:18.945 : :Chapter 10
00:42:38.597 : :Chapter 11
00:48:12.306 : :Chapter 12
00:54:34.521 : :Chapter 13
01:01:40.321 : :Chapter 14
01:06:59.181 : :Chapter 15
01:13:44.670 : :Chapter 16
01:20:29.366 : :Chapter 17
01:26:05.034 : :Chapter 18
01:39:32.299 : :Chapter 19
01:44:28.262 : :Chapter 20
01:49:19.928 : :Chapter 21
01:52:37.751 : :Chapter 22
movie BDRip Video
ID : 1
Format : HEVC
Format/Info : High Efficiency Video Coding
Commercial name : HDR10
Format profile : Main 10@L5.1@High
Codec ID : V_MPEGH/ISO/HEVC
Duration : 1 h 57 min
Bit rate : 23.3 Mb/s
Width : 3 840 pixels
Height : 2 076 pixels
Display aspect ratio : 1.85:1
Frame rate mode : Constant
Frame rate : 23.976 (24000/1001) FPS
Color space : YUV
Chroma subsampling : 4:2:0 (Type 2)
Bit depth : 10 bits
Bits/(Pixel*Frame) : 0.122
Stream size : 19.1 GiB (82%)
Writing library : x265 2.8+58-d17bc7714ed2:[Windows][GCC 8.2.0][64 bit] 10bit
Encoding settings : cpuid=1176575 / frame-threads=6 / numa-pools=32 / wpp / no-pmode / no-pme / no-psnr / no-ssim / log-level=2 / input-csp=1 / input-res=3840x2076 / interlace=0 / total-frames=168603 / level-idc=51 / high-tier=1 / uhd-bd=0 / ref=4 / no-allow-non-conformance / repeat-headers / annexb / aud / hrd / info / hash=0 / no-temporal-layers / no-open-gop / min-keyint=24 / keyint=240 / gop-lookahead=0 / bframes=4 / b-adapt=2 / b-pyramid / bframe-bias=0 / rc-lookahead=25 / lookahead-slices=4 / scenecut=40 / radl=0 / no-intra-refresh / ctu=64 / min-cu-size=8 / rect / no-amp / max-tu-size=32 / tu-inter-depth=1 / tu-intra-depth=1 / limit-tu=0 / rdoq-level=2 / dynamic-rd=0.00 / no-ssim-rd / signhide / no-tskip / nr-intra=0 / nr-inter=0 / no-constrained-intra / no-strong-intra-smoothing / max-merge=3 / limit-refs=3 / limit-modes / me=3 / subme=3 / merange=57 / temporal-mvp / weightp / no-weightb / no-analyze-src-pics / deblock=-3:-3 / no-sao / no-sao-non-deblock / rd=4 / no-early-skip / rskip / no-fast-intra / no-tskip-fast / no-cu-lossless / no-b-intra / no-splitrd-skip / rdpenalty=0 / psy-rd=2.00 / psy-rdoq=1.00 / no-rd-refine / no-lossless / cbqpoffs=0 / crqpoffs=0 / rc=crf / crf=17.0 / qcomp=0.60 / qpstep=4 / stats-write=0 / stats-read=0 / vbv-maxrate=160000 / vbv-bufsize=160000 / vbv-init=0.9 / crf-max=0.0 / crf-min=0.0 / ipratio=1.40 / pbratio=1.30 / aq-mode=1 / aq-strength=1.00 / cutree / zone-count=0 / no-strict-cbr / qg-size=32 / no-rc-grain / qpmax=69 / qpmin=0 / no-const-vbv / sar=1 / overscan=0 / videoformat=5 / range=0 / colorprim=9 / transfer=16 / colormatrix=9 / chromaloc=1 / chromaloc-top=2 / chromaloc-bottom=2 / display-window=0 / master-display=G(13250,34500)B(7500,3000)R(34000,16000)WP(15635,16450)L(10000000,50) / max-cll=1000,131 / min-luma=0 / max-luma=1023 / log2-max-poc-lsb=8 / vui-timing-info / vui-hrd-info / slices=1 / no-opt-qp-pps / no-opt-ref-list-length-pps / no-multi-pass-opt-rps / scenecut-bias=0.05 / no-opt-cu-delta-qp / no-aq-motion / hdr / hdr-opt / no-dhdr10-opt / no-idr-recovery-sei / analysis-reuse-level=5 / scale-factor=0 / refine-intra=0 / refine-inter=0 / refine-mv=0 / no-limit-sao / ctu-info=0 / no-lowpass-dct / refine-mv-type=0 / copy-pic=1 / max-ausize-factor=1.0 / no-dynamic-refine / no-single-sei
Default : Yes
Forced : No
Color range : Limited
Color primaries : BT.2020
Transfer characteristics : PQ
Matrix coefficients : BT.2020 non-constant
Mastering display color primaries : Display P3
Mastering display luminance : min: 0.0050 cd/m2, max: 1000 cd/m2
Maximum Content Light Level : 1000 cd/m2
Maximum Frame-Average Light Level : 131 cd/m2

Audio
ID : 2
Format : DTS XLL X
Format/Info : Digital Theater Systems
Commercial name : DTS-HD Master Audio
Codec ID : A_DTS
Duration : 1 h 57 min
Bit rate mode : Variable
Bit rate : 4 938 kb/s
Channel(s) : 8 channels
Channel(s)_Original : Object Based
Channel layout : Object Based
Sampling rate : 48.0 kHz
Frame rate : 93.750 FPS (512 SPF)
Bit depth : 24 bits
Stream size : 4.04 GiB (17%)
Title : DTS-HD MA 7.1
Language : English
Default : Yes
Forced : No

Text #1
ID : 3
Format : UTF-8
Codec ID : S_TEXT/UTF8
Codec ID/Info : UTF-8 Plain Text
Duration : 1 h 56 min
Bit rate : 82 b/s
Count of elements : 1905
Stream size : 70.3 KiB (0%)
Title : Stripped SRT (not positioned)
Language : English
Default : No
Forced : No

Text #2
ID : 4
Format : UTF-8
Codec ID : S_TEXT/UTF8
Codec ID/Info : UTF-8 Plain Text
Duration : 1 h 56 min
Bit rate : 85 b/s
Count of elements : 2031
Stream size : 73.1 KiB (0%)
Title : SDH SRT (not positioned)
Language : English
Default : No
Forced : No

Text #3
ID : 5
Format : PGS
Muxing mode : zlib
Codec ID : S_HDMV/PGS
Codec ID/Info : Picture based subtitle format used on BDs/HD-DVDs
Duration : 1 h 56 min
Bit rate : 56.1 kb/s
Count of elements : 4063
Stream size : 46.6 MiB (0%)
Title : SDH
Language : English
Default : No
Forced : No

Text #4
ID : 6
Format : PGS
Muxing mode : zlib
Codec ID : S_HDMV/PGS
Codec ID/Info : Picture based subtitle format used on BDs/HD-DVDs
Duration : 1 h 51 min
Bit rate : 47.4 kb/s
Count of elements : 3303
Stream size : 37.9 MiB (0%)
Language : French
Default : No
Forced : No

Text #5
ID : 7
Format : PGS
Muxing mode : zlib
Codec ID : S_HDMV/PGS
Codec ID/Info : Picture based subtitle format used on BDs/HD-DVDs
Duration : 1 h 51 min
Bit rate : 45.9 kb/s
Count of elements : 3325
Stream size : 36.6 MiB (0%)
Language : Spanish
Default : No
Forced : No

Text #6
ID : 8
Format : PGS
Muxing mode : zlib
Codec ID : S_HDMV/PGS
Codec ID/Info : Picture based subtitle format used on BDs/HD-DVDs
Duration : 1 h 51 min
Bit rate : 45.1 kb/s
Count of elements : 3327
Stream size : 36.1 MiB (0%)
Language : Portuguese
Default : No
Forced : No

Text #7
ID : 9
Format : PGS
Muxing mode : zlib
Codec ID : S_HDMV/PGS
Codec ID/Info : Picture based subtitle format used on BDs/HD-DVDs
Duration : 1 h 51 min
Bit rate : 29.5 kb/s
Count of elements : 2943
Stream size : 23.6 MiB (0%)
Language : Japanese
Default : No
Forced : No

Menu
00:00:00.000 : :00:00:00.000
00:03:45.392 : :00:03:45.392
00:05:37.212 : :00:05:37.212
00:07:39.209 : :00:07:39.209
00:10:02.268 : :00:10:02.268
00:16:27.737 : :00:16:27.737
00:20:01.742 : :00:20:01.742
00:25:03.627 : :00:25:03.627
00:29:27.933 : :00:29:27.933
00:37:18.945 : :00:37:18.945
00:42:38.598 : :00:42:38.598
00:48:12.306 : :00:48:12.306
00:54:34.521 : :00:54:34.521
01:01:40.322 : :01:01:40.322
01:06:59.182 : :01:06:59.182
01:13:44.670 : :01:13:44.670
01:20:29.366 : :01:20:29.366
01:26:05.035 : :01:26:05.035
01:39:32.300 : :01:39:32.300
01:44:28.262 : :01:44:28.262
01:49:19.928 : :01:49:19.928
01:52:37.751 : :01:52:37.751

Download

download 4k hdr movies download 4k hdr movies

Watch a movie trailer - The Big Lebowski 4K 1998 Ultra HD 2160p
Comments and Feedback
Add your comment:
Your name:
Your E-Mail:
Code:
reload, if the code cannot be seen
Enter code: