Select movie Search movie Close search My Account

National Parks Adventure 4K 2016 Ultra HD 2160p

National Parks Adventure 4K 2016 Ultra HD 2160p
BDRemux / BDRip
Country: USA
Time: 43min
IMDB: 6.9
Director: Greg MacGillivray
Actors: Robert Redford, Conrad Anker, Max Lowe, Rachel Pohl

Story Movie

National Parks Adventure 4K 2016 Ultra HD 2160p
Immediately three well-known people all over the world create a team and go to national parks to tell as much as possible about nature. Two guys, a climber and photographer, as well as an artist, a young pretty girl. In the beginning, their journey will lie on the bottom of the great canyon and when they get to the cliff, they try to climb onto it. To spend together with them this fascinating journey can be in this film and enjoy beautiful picturesque landscapes in National Parks Adventure 4k documentary movie.
.

Review 4K Movie

What kind of documentary films, specially shot for the aimaks rooms, the audience was not shown. About space, about the unknown corners of our planet and the endangered species of animals, in general, what only was not. It would seem that some trips to national parks can surprise or amaze imagination. But no, they do it with ease, and with all that, the picture is only about forty minutes. National Parks Adventure 4k documentary movie.

Together with the main characters, the audience goes on a trip to the national parks of North America.

A well-known documentary Greg McGillivray spent several years trying to collect the material of the picture. It uses all the possible techniques: the beauty of nature, historical references and old photographs that are so overturned that it captures the spirit, and without the effects of flying all-hazards into viewers and animals that stretch straight to the cinema from a huge screen National Parks Adventure UHD.

The soundtrack of the painting is sincere, "Hallelujah" sounding at the beginning and end of the film parallels the paintings of Zach Snyder, anticipating all the beauty and effects so beloved by the creator of the "Keepers".

The narrators in the original are Robert Redford, in Russia he was re-voiced by Konstantin Khabensky, I'm sorry that we do not have the opportunity to see the original with the subtitles, but then the public would be too distracted by the words on the screen and could not keep track of what is happening .

"Journey through national parks" is not only an important story about the birth of national parks in the US with beautiful landscapes and correct words behind the scenes, but also a project that makes you think. Without excessive moralizing and climbing in the soul to the audience, the authors calmly talk about what has already been done and what is to be fought.

P.S. The whole film pursued me only one question, but what in our country does not think of it? Because the territory is huge, nature, animals are full, take off, do not want. Even if there is a lot of garbage there or it is difficult to get, you can spend part of the production budget on it, immediately and help, and share with the audience the pressing problems.

Mediainfo

movie BDRemux Video
ID : 1
Format : HEVC
Format/Info : High Efficiency Video Coding
Commercial name : HDR10
Format profile : Main 10@L5.1@High
Codec ID : V_MPEGH/ISO/HEVC
Duration : 43 min 25 s
Bit rate : 47.9 Mb/s
Width : 3 840 pixels
Height : 2 160 pixels
Display aspect ratio : 16:9
Frame rate mode : Constant
Frame rate : 23.976 (24000/1001) FPS
Color space : YUV
Chroma subsampling : 4:2:0 (Type 2)
Bit depth : 10 bits
Bits/(Pixel*Frame) : 0.241
Stream size : 14.5 GiB (73%)
Title : America.Wild.National.Parks.Adventure.2016.DOCU.2160p.BluRay.REMUX.HEVC.HDR.DTS-HD.MA.TrueHD.7.1.Atmos-FGT
Default : Yes
Forced : No
Color range : Limited
Color primaries : BT.2020
Transfer characteristics : PQ
Matrix coefficients : BT.2020 non-constant
Mastering display color primaries : R: x=0.680000 y=0.320000, G: x=0.265000 y=0.690000, B: x=0.150000 y=0.060000, White point: x=0.312680 y=0.329000
Mastering display luminance : min: 0.0000 cd/m2, max: 1000 cd/m2
Maximum Content Light Level : 304 cd/m2
Maximum Frame-Average Light Level : 99 cd/m2

Audio #1
ID : 2
Format : TrueHD
Format profile : TrueHD+Atmos / TrueHD
Codec ID : A_TRUEHD
Duration : 43 min 25 s
Bit rate mode : Variable
Bit rate : 4 365 kb/s
Maximum bit rate : 6 987 kb/s
Channel(s) : Object Based / 8 channels
Channel positions : Object Based / Front: L C R, Side: L R, Back: L R, LFE
Sampling rate : / 48.0 kHz
Frame rate : 1 200.000 FPS (40 SPF)
Compression mode : Lossless
Stream size : 1.32 GiB (7%)
Title : America.Wild.National.Parks.Adventure.2016.DOCU.2160p.BluRay.REMUX.HEVC.HDR.DTS-HD.MA.TrueHD.7.1.Atmos
Language : English
Default : Yes
Forced : No

Audio #2
ID : 3
Format : DTS
Format/Info : Digital Theater Systems
Format profile : MA / Core
Codec ID : A_DTS
Duration : 43 min 25 s
Bit rate mode : Variable / Constant
Bit rate : 4 498 kb/s / 1 509 kb/s
Channel(s) : 8 channels / 6 channels
Channel positions : Front: L C R, Side: L R, Back: L R, LFE / Front: L C R, Side: L R, LFE
Sampling rate : 48.0 kHz
Frame rate : 93.750 FPS (512 SPF)
Bit depth : 24 bits
Compression mode : Lossless / Lossy
Stream size : 1.36 GiB (7%)
Title : America.Wild.National.Parks.Adventure.2016.DOCU.2160p.BluRay.REMUX.HEVC.HDR.DTS-HD.MA.TrueHD.7.1.Atmos
Language : English
Default : No
Forced : No

Audio #3
ID : 4
Format : AC-3
Format/Info : Audio Coding 3
Codec ID : A_AC3
Duration : 43 min 25 s
Bit rate mode : Constant
Bit rate : 640 kb/s
Channel(s) : 6 channels
Channel positions : Front: L C R, Side: L R, LFE
Sampling rate : 48.0 kHz
Frame rate : 31.250 FPS (1536 SPF)
Bit depth : 16 bits
Compression mode : Lossy
Stream size : 199 MiB (1%)
Title : America.Wild.National.Parks.Adventure.2016.DOCU.2160p.BluRay.REMUX.HEVC.HDR.DTS-HD.MA.TrueHD.7.1.Atmos
Language : English
Service kind : Complete Main
Default : No
Forced : No

Audio #4
ID : 5
Format : DTS
Format/Info : Digital Theater Systems
Format profile : MA / Core
Codec ID : A_DTS
Duration : 43 min 25 s
Bit rate mode : Variable / Constant
Bit rate : 3 840 kb/s / 768 kb/s
Channel(s) : 6 channels
Channel positions : Front: L C R, Side: L R, LFE
Sampling rate : 48.0 kHz
Frame rate : 93.750 FPS (512 SPF)
Bit depth : 24 bits
Compression mode : Lossless / Lossy
Stream size : 1.18 GiB (6%)
Title : America.Wild.National.Parks.Adventure.2016.DOCU.2160p.BluRay.REMUX.HEVC.HDR.DTS-HD.MA.TrueHD.7.1.Atmos-FGT
Language : French
Default : No
Forced : No

Audio #5
ID : 6
Format : DTS
Format/Info : Digital Theater Systems
Format profile : MA / Core
Codec ID : A_DTS
Duration : 43 min 25 s
Bit rate mode : Variable / Constant
Bit rate : 3 840 kb/s / 768 kb/s
Channel(s) : 6 channels
Channel positions : Front: L C R, Side: L R, LFE
Sampling rate : 48.0 kHz
Frame rate : 93.750 FPS (512 SPF)
Bit depth : 24 bits
Compression mode : Lossless / Lossy
Stream size : 1.18 GiB (6%)
Title : America.Wild.National.Parks.Adventure.2016.DOCU.2160p.BluRay.REMUX.HEVC.HDR.DTS-HD.MA.TrueHD.7.1.Atmos
Language : Spanish
Default : No
Forced : No

Text
ID : 7
Format : PGS
Muxing mode : zlib
Codec ID : S_HDMV/PGS
Codec ID/Info : Picture based subtitle format used on BDs/HD-DVDs
Duration : 42 min 55 s
Bit rate : 20.8 kb/s
Count of elements : 1154
Stream size : 6.40 MiB (0%)
Title : English-PGS
Language : English
Default : Yes
Forced : No

Menu
00:00:00.000 : en:Chapter 1
00:03:46.351 : en:Chapter 2
00:06:26.010 : en:Chapter 3
00:08:34.555 : en:Chapter 4
00:10:32.214 : en:Chapter 5
00:15:50.240 : en:Chapter 6
00:18:46.124 : en:Chapter 7
00:23:19.523 : en:Chapter 8
00:24:24.254 : en:Chapter 9
00:29:59.297 : en:Chapter 10
00:33:36.597 : en:Chapter 11
00:36:01.617 : en:Chapter 12
00:39:09.221 : en:Chapter 13
00:42:38.180 : en:Chapter 14
movie BDRip Video
ID : 1
Format : HEVC
Format/Info : High Efficiency Video Coding
Commercial name : HDR10
Format profile : Main 10@L5.1@High
Codec ID : V_MPEGH/ISO/HEVC
Duration : 43 min 25 s
Bit rate : 21.9 Mb/s
Width : 3 840 pixels
Height : 2 160 pixels
Display aspect ratio : 16:9
Frame rate mode : Constant
Frame rate : 23.976 (24000/1001) FPS
Color space : YUV
Chroma subsampling : 4:2:0 (Type 2)
Bit depth : 10 bits
Bits/(Pixel*Frame) : 0.110
Stream size : 6.64 GiB (71%)
Writing library : x265 2.8+10-703eade86b53:[Windows][MSVC 1914][64 bit] 10bit
Encoding settings : cpuid=1111039 / frame-threads=6 / numa-pools=36 / wpp / no-pmode / no-pme / no-psnr / no-ssim / log-level=2 / input-csp=1 / input-res=3840x2160 / interlace=0 / total-frames=62472 / level-idc=51 / high-tier=1 / uhd-bd=1 / ref=4 / no-allow-non-conformance / repeat-headers / annexb / aud / hrd / info / hash=0 / no-temporal-layers / no-open-gop / min-keyint=1 / keyint=24 / gop-lookahead=0 / bframes=4 / b-adapt=2 / b-pyramid / bframe-bias=0 / rc-lookahead=25 / lookahead-slices=4 / scenecut=40 / radl=0 / no-intra-refresh / ctu=64 / min-cu-size=8 / rect / no-amp / max-tu-size=32 / tu-inter-depth=1 / tu-intra-depth=1 / limit-tu=0 / rdoq-level=2 / dynamic-rd=0.00 / no-ssim-rd / signhide / no-tskip / nr-intra=0 / nr-inter=0 / no-constrained-intra / no-strong-intra-smoothing / max-merge=3 / limit-refs=3 / limit-modes / me=3 / subme=3 / merange=57 / temporal-mvp / weightp / no-weightb / no-analyze-src-pics / deblock=-3:-3 / no-sao / no-sao-non-deblock / rd=4 / no-early-skip / rskip / no-fast-intra / no-tskip-fast / no-cu-lossless / no-b-intra / no-splitrd-skip / rdpenalty=0 / psy-rd=2.00 / psy-rdoq=1.00 / no-rd-refine / no-lossless / cbqpoffs=0 / crqpoffs=0 / rc=crf / crf=17.0 / qcomp=0.60 / qpstep=4 / stats-write=0 / stats-read=0 / vbv-maxrate=160000 / vbv-bufsize=160000 / vbv-init=0.9 / crf-max=0.0 / crf-min=0.0 / ipratio=1.40 / pbratio=1.30 / aq-mode=1 / aq-strength=1.00 / cutree / zone-count=0 / no-strict-cbr / qg-size=32 / no-rc-grain / qpmax=69 / qpmin=0 / no-const-vbv / sar=1 / overscan=0 / videoformat=5 / range=0 / colorprim=9 / transfer=16 / colormatrix=9 / chromaloc=1 / chromaloc-top=2 / chromaloc-bottom=2 / display-window=0 / master-display=G(13250,34500)B(7500,3000)R(34000,16000)WP(15634,16450)L(10000000,0) / max-cll=304,99 / min-luma=0 / max-luma=1023 / log2-max-poc-lsb=8 / vui-timing-info / vui-hrd-info / slices=1 / no-opt-qp-pps / no-opt-ref-list-length-pps / no-multi-pass-opt-rps / scenecut-bias=0.05 / no-opt-cu-delta-qp / no-aq-motion / hdr / hdr-opt / no-dhdr10-opt / no-idr-recovery-sei / analysis-reuse-level=5 / scale-factor=0 / refine-intra=0 / refine-inter=0 / refine-mv=0 / no-limit-sao / ctu-info=0 / no-lowpass-dct / refine-mv-type=0 / copy-pic=1 / max-ausize-factor=1.0 / no-dynamic-refine / no-single-sei
Default : Yes
Forced : No
Color range : Limited
Color primaries : BT.2020
Transfer characteristics : PQ
Matrix coefficients : BT.2020 non-constant
Mastering display color primaries : R: x=0.680000 y=0.320000, G: x=0.265000 y=0.690000, B: x=0.150000 y=0.060000, White point: x=0.312680 y=0.329000
Mastering display luminance : min: 0.0000 cd/m2, max: 1000 cd/m2
Maximum Content Light Level : 304 cd/m2
Maximum Frame-Average Light Level : 99 cd/m2

Audio #1
ID : 2
Format : TrueHD
Format profile : TrueHD+Atmos / TrueHD
Codec ID : A_TRUEHD
Duration : 43 min 25 s
Bit rate mode : Variable
Bit rate : 4 365 kb/s
Maximum bit rate : 6 987 kb/s
Channel(s) : Object Based / 8 channels
Channel positions : Object Based / Front: L C R, Side: L R, Back: L R, LFE
Sampling rate : / 48.0 kHz
Frame rate : 1 200.000 FPS (40 SPF)
Compression mode : Lossless
Stream size : 1.32 GiB (14%)
Language : English
Default : Yes
Forced : No

Audio #2
ID : 3
Format : AC-3
Format/Info : Audio Coding 3
Codec ID : A_AC3
Duration : 43 min 25 s
Bit rate mode : Constant
Bit rate : 640 kb/s
Channel(s) : 6 channels
Channel positions : Front: L C R, Side: L R, LFE
Sampling rate : 48.0 kHz
Frame rate : 31.250 FPS (1536 SPF)
Bit depth : 16 bits
Compression mode : Lossy
Stream size : 199 MiB (2%)
Language : English
Service kind : Complete Main
Default : No
Forced : No

Audio #3
ID : 4
Format : DTS
Format/Info : Digital Theater Systems
Format profile : MA / Core
Codec ID : A_DTS
Duration : 43 min 25 s
Bit rate mode : Variable / Constant
Bit rate : 4 060 kb/s / 1 509 kb/s
Channel(s) : 6 channels
Channel positions : Front: L C R, Side: L R, LFE
Sampling rate : 48.0 kHz
Frame rate : 93.750 FPS (512 SPF)
Bit depth : 24 bits
Compression mode : Lossless / Lossy
Stream size : 1.23 GiB (13%)
Language : English
Default : No
Forced : No

Text
ID : 5
Format : PGS
Muxing mode : zlib
Codec ID : S_HDMV/PGS
Codec ID/Info : Picture based subtitle format used on BDs/HD-DVDs
Duration : 42 min 56 s
Bit rate : 20.8 kb/s
Count of elements : 1154
Stream size : 6.40 MiB (0%)
Language : English
Default : No
Forced : No

Menu
00:00:00.000 : en:00:00:00.000
00:03:46.351 : en:00:03:46.351
00:06:26.011 : en:00:06:26.011
00:08:34.556 : en:00:08:34.556
00:10:32.215 : en:00:10:32.215
00:15:50.241 : en:00:15:50.241
00:18:46.125 : en:00:18:46.125
00:23:19.523 : en:00:23:19.523
00:24:24.254 : en:00:24:24.254
00:29:59.297 : en:00:29:59.297
00:33:36.598 : en:00:33:36.598
00:36:01.618 : en:00:36:01.618
00:39:09.222 : en:00:39:09.222
00:42:38.181 : en:00:42:38.181

Download

download 4k hdr movies

You bought a premium on Takefile. Contact the TakeFile support team, they will increase your traffic up to 512 gb every 48 hours.

download 4k hdr movies

Watch a movie trailer - National Parks Adventure 4K 2016 Ultra HD 2160p
Comments and Feedback
Add your comment:
Your name:
Your E-Mail:
Enter the two words shown in the image: *