Select movie Search movie Close search My Account

Forrest Gump 4K 1994 Ultra HD 2160p

Forrest Gump 4K 1994 Ultra HD 2160p
BDRemux / BDRip
Country: USA
Time: 2h 22min
IMDB: 8.8
Director: Robert Zemeckis
Actors: Tom Hanks, Rebecca Williams, Sally Field, Michael Conner Humphreys, Harold G. Herthum, George Kelly, Bob Penny, John Рандалл, Sam Anderson, Margo Moorer, Ione M. Telech Ione, Christine Seabrook, John Worsham, Peter Dobson, Siobhan Fallon Hogan

Story Movie

Forrest Gump 4K 1994 Ultra HD 2160p
Forest Gump itunes 4k movie download is a very unusual person. From his face, he tells several unusual stories in a row, where he is necessarily given the main role. He is a football player, a war hero, a successful businessman, and he turns in billions. But in fact, he is very much in love with the girl since his youth, and all this happens only to be with her together.

Review 4K Movie

Literally everyone keeps repeating at every step: "Forrest Gump itunes 4k movie download is the best film I've ever seen!" Or "This is a masterpiece of cinema!", But, to be honest, I will not agree. I can not imagine, guys, what this movie caught on you. You, probably, now will think of me, that I am stupid, I do not understand its meaning and so on. Blah blah blah! Let it be so. This is your opinion. And I will express my opinion.

On pages in social networks I constantly come across a phrase from the movie: "Life is like a box of chocolates. You never know what's inside. " I find this quote in the statuses of many people I know and are unknown to me. And for any reason. And most often it is used out of place. This has become a habit or a fashion - call it how you like it. And there is a feeling that "Forrest Gump" UHD is another impulse of public opinion. Say, a herd feeling.

Here a few years ago there was an agiotage on "Twilight", now everyone together began to praise this film, although in 10 of the best, in my opinion, he has no place. There are deeper pictures, leaving indelible impressions. The same is good, but not enough to over-praise.

Really worth the time - when Forrest was able to escape from juvenile idiots, mocking his inferiority. Through force I did the impossible.

In general, the film deserves to be viewed, but I make a review only red (and no other), because "Forrest" is overrated. And you know, when every corner is repeated about the uniqueness of the masterpiece, it loses its significance!

Mediainfo

movie BDRemux Video #1
ID : 1
Format : HEVC
Format/Info : High Efficiency Video Coding
Commercial name : HDR10
Format profile : Main 10@L5.1@High
Codec ID : V_MPEGH/ISO/HEVC
Duration : 2 h 22 min
Bit rate : 66.3 Mb/s
Width : 3 840 pixels
Height : 2 160 pixels
Display aspect ratio : 16:9
Frame rate mode : Constant
Frame rate : 23.976 (24000/1001) FPS
Color space : YUV
Chroma subsampling : 4:2:0 (Type 2)
Bit depth : 10 bits
Bits/(Pixel*Frame) : 0.334
Stream size : 65.9 GiB (75%)
Title : Forrest.Gump.1994.2160p.BluRay.REMUX.HEVC.DTS-HD.MA.TrueHD.7.1.Atmos-FGT
Default : Yes
Forced : No
Color range : Limited
Color primaries : BT.2020
Transfer characteristics : PQ
Matrix coefficients : BT.2020 non-constant
Mastering display color primaries : Display P3
Mastering display luminance : min: 0.0001 cd/m2, max: 1000 cd/m2

Video #2
ID : 2
Format : HEVC
Format/Info : High Efficiency Video Coding
Commercial name : HDR10
Format profile : Main 10@L5.1@High
Codec ID : V_MPEGH/ISO/HEVC
Duration : 2 h 22 min
Bit rate : 7 439 kb/s
Width : 1 920 pixels
Height : 1 080 pixels
Display aspect ratio : 16:9
Frame rate mode : Constant
Frame rate : 23.976 (24000/1001) FPS
Color space : YUV
Chroma subsampling : 4:2:0 (Type 2)
Bit depth : 10 bits
Bits/(Pixel*Frame) : 0.150
Stream size : 7.39 GiB (8%)
Title : Forrest.Gump.1994.2160p.BluRay.REMUX.HEVC.DTS-HD.MA.TrueHD.7.1.Atmos-FGT
Default : No
Forced : No
Color range : Limited
Color primaries : BT.2020
Transfer characteristics : PQ
Matrix coefficients : BT.2020 non-constant
Mastering display color primaries : Display P3
Mastering display luminance : min: 0.0001 cd/m2, max: 1000 cd/m2

Audio #1
ID : 3
Format : TrueHD
Format profile : TrueHD+Atmos / TrueHD
Codec ID : A_TRUEHD
Duration : 2 h 22 min
Bit rate mode : Variable
Bit rate : 4 271 kb/s
Maximum bit rate : 7 926 kb/s
Channel(s) : Object Based / 8 channels
Channel positions : Object Based / Front: L C R, Side: L R, Back: L R, LFE
Sampling rate : / 48.0 kHz
Frame rate : 1 200.000 FPS (40 SPF)
Compression mode : Lossless
Delay relative to video : 501 ms
Stream size : 4.24 GiB (5%)
Title : Forrest.Gump.1994.2160p.BluRay.REMUX.HEVC.DTS-HD.MA.TrueHD.7.1.Atmos-FGT
Language : English
Default : Yes
Forced : No

Audio #2
ID : 4
Format : DTS
Format/Info : Digital Theater Systems
Format profile : MA / Core
Codec ID : A_DTS
Duration : 2 h 22 min
Bit rate mode : Variable / Constant
Bit rate : 3 524 kb/s / 1 509 kb/s
Channel(s) : 8 channels / 6 channels
Channel positions : Front: L C R, Side: L R, Back: L R, LFE / Front: L C R, Side: L R, LFE
Sampling rate : 48.0 kHz
Frame rate : 93.750 FPS (512 SPF)
Bit depth : 24 bits
Compression mode : Lossless / Lossy
Stream size : 3.50 GiB (4%)
Title : Forrest.Gump.1994.2160p.BluRay.REMUX.HEVC.DTS-HD.MA.TrueHD.7.1.Atmos-FGT
Language : English
Default : No
Forced : No

Audio #3
ID : 5
Format : AC-3
Format/Info : Audio Coding 3
Codec ID : A_AC3
Duration : 2 h 22 min
Bit rate mode : Constant
Bit rate : 640 kb/s
Channel(s) : 6 channels
Channel positions : Front: L C R, Side: L R, LFE
Sampling rate : 48.0 kHz
Frame rate : 31.250 FPS (1536 SPF)
Bit depth : 16 bits
Compression mode : Lossy
Delay relative to video : 501 ms
Stream size : 651 MiB (1%)
Title : Forrest.Gump.1994.2160p.BluRay.REMUX.HEVC.DTS-HD.MA.TrueHD.7.1.Atmos-FGT
Language : English
Service kind : Complete Main
Default : No
Forced : No

Audio #4
ID : 6
Format : AC-3
Format/Info : Audio Coding 3
Codec ID : A_AC3
Duration : 2 h 22 min
Bit rate mode : Constant
Bit rate : 640 kb/s
Channel(s) : 6 channels
Channel positions : Front: L C R, Side: L R, LFE
Sampling rate : 48.0 kHz
Frame rate : 31.250 FPS (1536 SPF)
Bit depth : 16 bits
Compression mode : Lossy
Delay relative to video : 501 ms
Stream size : 651 MiB (1%)
Title : Forrest.Gump.1994.2160p.BluRay.REMUX.HEVC.DTS-HD.MA.TrueHD.7.1.Atmos-FGT
Language : English
Service kind : Complete Main
Default : No
Forced : No

Audio #5
ID : 7
Format : AC-3
Format/Info : Audio Coding 3
Codec ID : A_AC3
Duration : 2 h 22 min
Bit rate mode : Constant
Bit rate : 640 kb/s
Channel(s) : 6 channels
Channel positions : Front: L C R, Side: L R, LFE
Sampling rate : 48.0 kHz
Frame rate : 31.250 FPS (1536 SPF)
Bit depth : 16 bits
Compression mode : Lossy
Delay relative to video : 501 ms
Stream size : 651 MiB (1%)
Title : Forrest.Gump.1994.2160p.BluRay.REMUX.HEVC.DTS-HD.MA.TrueHD.7.1.Atmos-FGT
Language : English
Service kind : Complete Main
Default : No
Forced : No

Audio #6
ID : 8
Format : AC-3
Format/Info : Audio Coding 3
Codec ID : A_AC3
Duration : 2 h 22 min
Bit rate mode : Constant
Bit rate : 640 kb/s
Channel(s) : 6 channels
Channel positions : Front: L C R, Side: L R, LFE
Sampling rate : 48.0 kHz
Frame rate : 31.250 FPS (1536 SPF)
Bit depth : 16 bits
Compression mode : Lossy
Stream size : 651 MiB (1%)
Title : Forrest.Gump.1994.2160p.BluRay.REMUX.HEVC.DTS-HD.MA.TrueHD.7.1.Atmos-FGT
Language : German
Service kind : Complete Main
Default : No
Forced : No

Audio #7
ID : 9
Format : AC-3
Format/Info : Audio Coding 3
Codec ID : A_AC3
Duration : 2 h 22 min
Bit rate mode : Constant
Bit rate : 640 kb/s
Channel(s) : 6 channels
Channel positions : Front: L C R, Side: L R, LFE
Sampling rate : 48.0 kHz
Frame rate : 31.250 FPS (1536 SPF)
Bit depth : 16 bits
Compression mode : Lossy
Stream size : 651 MiB (1%)
Title : Forrest.Gump.1994.2160p.BluRay.REMUX.HEVC.DTS-HD.MA.TrueHD.7.1.Atmos-FGT
Language : Spanish
Service kind : Complete Main
Default : No
Forced : No

Audio #8
ID : 10
Format : AC-3
Format/Info : Audio Coding 3
Codec ID : A_AC3
Duration : 2 h 22 min
Bit rate mode : Constant
Bit rate : 640 kb/s
Channel(s) : 6 channels
Channel positions : Front: L C R, Side: L R, LFE
Sampling rate : 48.0 kHz
Frame rate : 31.250 FPS (1536 SPF)
Bit depth : 16 bits
Compression mode : Lossy
Stream size : 651 MiB (1%)
Title : Forrest.Gump.1994.2160p.BluRay.REMUX.HEVC.DTS-HD.MA.TrueHD.7.1.Atmos-FGT
Language : Spanish
Service kind : Complete Main
Default : No
Forced : No

Audio #9
ID : 11
Format : AC-3
Format/Info : Audio Coding 3
Codec ID : A_AC3
Duration : 2 h 22 min
Bit rate mode : Constant
Bit rate : 640 kb/s
Channel(s) : 6 channels
Channel positions : Front: L C R, Side: L R, LFE
Sampling rate : 48.0 kHz
Frame rate : 31.250 FPS (1536 SPF)
Bit depth : 16 bits
Compression mode : Lossy
Stream size : 651 MiB (1%)
Title : Forrest.Gump.1994.2160p.BluRay.REMUX.HEVC.DTS-HD.MA.TrueHD.7.1.Atmos-FGT
Language : French
Service kind : Complete Main
Default : No
Forced : No

Audio #10
ID : 12
Format : AC-3
Format/Info : Audio Coding 3
Codec ID : A_AC3
Duration : 2 h 22 min
Bit rate mode : Constant
Bit rate : 640 kb/s
Channel(s) : 6 channels
Channel positions : Front: L C R, Side: L R, LFE
Sampling rate : 48.0 kHz
Frame rate : 31.250 FPS (1536 SPF)
Bit depth : 16 bits
Compression mode : Lossy
Stream size : 651 MiB (1%)
Title : Forrest.Gump.1994.2160p.BluRay.REMUX.HEVC.DTS-HD.MA.TrueHD.7.1.Atmos-FGT
Language : Italian
Service kind : Complete Main
Default : No
Forced : No

Audio #11
ID : 13
Format : AC-3
Format/Info : Audio Coding 3
Codec ID : A_AC3
Duration : 2 h 22 min
Bit rate mode : Constant
Bit rate : 224 kb/s
Channel(s) : 2 channels
Channel positions : Front: L R
Sampling rate : 48.0 kHz
Frame rate : 31.250 FPS (1536 SPF)
Bit depth : 16 bits
Compression mode : Lossy
Stream size : 228 MiB (0%)
Title : Forrest.Gump.1994.2160p.BluRay.REMUX.HEVC.DTS-HD.MA.TrueHD.7.1.Atmos-FGT
Language : Japanese
Service kind : Complete Main
Default : No
Forced : No

Audio #12
ID : 14
Format : AC-3
Format/Info : Audio Coding 3
Codec ID : A_AC3
Duration : 2 h 22 min
Bit rate mode : Constant
Bit rate : 224 kb/s
Channel(s) : 2 channels
Channel positions : Front: L R
Sampling rate : 48.0 kHz
Frame rate : 31.250 FPS (1536 SPF)
Bit depth : 16 bits
Compression mode : Lossy
Delay relative to video : 501 ms
Stream size : 228 MiB (0%)
Title : Forrest.Gump.1994.2160p.BluRay.REMUX.HEVC.DTS-HD.MA.TrueHD.7.1.Atmos-FGT
Language : Portuguese
Service kind : Complete Main
Default : No
Forced : No

Audio #13
ID : 15
Format : AC-3
Format/Info : Audio Coding 3
Codec ID : A_AC3
Duration : 2 h 22 min
Bit rate mode : Constant
Bit rate : 224 kb/s
Channel(s) : 2 channels
Channel positions : Front: L R
Sampling rate : 48.0 kHz
Frame rate : 31.250 FPS (1536 SPF)
Bit depth : 16 bits
Compression mode : Lossy
Stream size : 228 MiB (0%)
Title : Forrest.Gump.1994.2160p.BluRay.REMUX.HEVC.DTS-HD.MA.TrueHD.7.1.Atmos-FGT
Language : English
Service kind : Complete Main
Default : No
Forced : No

Audio #14
ID : 16
Format : AC-3
Format/Info : Audio Coding 3
Codec ID : A_AC3
Duration : 2 h 22 min
Bit rate mode : Constant
Bit rate : 224 kb/s
Channel(s) : 2 channels
Channel positions : Front: L R
Sampling rate : 48.0 kHz
Frame rate : 31.250 FPS (1536 SPF)
Bit depth : 16 bits
Compression mode : Lossy
Stream size : 228 MiB (0%)
Title : Forrest.Gump.1994.2160p.BluRay.REMUX.HEVC.DTS-HD.MA.TrueHD.7.1.Atmos-FGT
Language : English
Service kind : Complete Main
Default : No
Forced : No

Text #1
ID : 17
Format : PGS
Muxing mode : zlib
Codec ID : S_HDMV/PGS
Codec ID/Info : Picture based subtitle format used on BDs/HD-DVDs
Duration : 2 h 10 min
Bit rate : 37.4 kb/s
Count of elements : 3084
Stream size : 35.0 MiB (0%)
Title : English-PGS
Language : English
Default : Yes
Forced : No

Text #2
ID : 18
Format : PGS
Muxing mode : zlib
Codec ID : S_HDMV/PGS
Codec ID/Info : Picture based subtitle format used on BDs/HD-DVDs
Duration : 2 h 11 min
Bit rate : 38.9 kb/s
Count of elements : 3190
Stream size : 36.5 MiB (0%)
Title : English-SDH-PGS
Language : English
Default : No
Forced : No

Text #3
ID : 19
Format : PGS
Muxing mode : zlib
Codec ID : S_HDMV/PGS
Codec ID/Info : Picture based subtitle format used on BDs/HD-DVDs
Duration : 2 h 18 min
Bit rate : 30.8 kb/s
Count of elements : 2508
Stream size : 30.5 MiB (0%)
Title : Danish-PGS
Language : Danish
Default : No
Forced : No

Text #4
ID : 20
Format : PGS
Muxing mode : zlib
Codec ID : S_HDMV/PGS
Codec ID/Info : Picture based subtitle format used on BDs/HD-DVDs
Duration : 2 h 18 min
Bit rate : 33.7 kb/s
Count of elements : 2514
Stream size : 33.4 MiB (0%)
Title : German-PGS
Language : German
Default : No
Forced : No

Text #5
ID : 21
Format : PGS
Muxing mode : zlib
Codec ID : S_HDMV/PGS
Codec ID/Info : Picture based subtitle format used on BDs/HD-DVDs
Duration : 2 h 18 min
Bit rate : 26.3 kb/s
Count of elements : 2524
Stream size : 26.1 MiB (0%)
Title : Spanish-PGS
Language : Spanish
Default : No
Forced : No

Text #6
ID : 22
Format : PGS
Muxing mode : zlib
Codec ID : S_HDMV/PGS
Codec ID/Info : Picture based subtitle format used on BDs/HD-DVDs
Duration : 2 h 18 min
Bit rate : 28.3 kb/s
Count of elements : 2532
Stream size : 28.1 MiB (0%)
Title : Spanish-PGS
Language : Spanish
Default : No
Forced : No

Text #7
ID : 23
Format : PGS
Muxing mode : zlib
Codec ID : S_HDMV/PGS
Codec ID/Info : Picture based subtitle format used on BDs/HD-DVDs
Duration : 2 h 18 min
Bit rate : 30.7 kb/s
Count of elements : 2528
Stream size : 30.4 MiB (0%)
Title : French-PGS
Language : French
Default : No
Forced : No

Text #8
ID : 24
Format : PGS
Muxing mode : zlib
Codec ID : S_HDMV/PGS
Codec ID/Info : Picture based subtitle format used on BDs/HD-DVDs
Duration : 2 h 18 min
Bit rate : 32.2 kb/s
Count of elements : 2534
Stream size : 31.9 MiB (0%)
Title : Italian-PGS
Language : Italian
Default : No
Forced : No

Text #9
ID : 25
Format : PGS
Muxing mode : zlib
Codec ID : S_HDMV/PGS
Codec ID/Info : Picture based subtitle format used on BDs/HD-DVDs
Duration : 2 h 10 min
Bit rate : 23.9 kb/s
Count of elements : 2600
Stream size : 22.4 MiB (0%)
Title : Japanese-PGS
Language : Japanese
Default : No
Forced : No

Text #10
ID : 26
Format : PGS
Muxing mode : zlib
Codec ID : S_HDMV/PGS
Codec ID/Info : Picture based subtitle format used on BDs/HD-DVDs
Duration : 2 h 18 min
Bit rate : 30.6 kb/s
Count of elements : 2510
Stream size : 30.4 MiB (0%)
Title : Dutch-PGS
Language : Dutch
Default : No
Forced : No

Text #11
ID : 27
Format : PGS
Muxing mode : zlib
Codec ID : S_HDMV/PGS
Codec ID/Info : Picture based subtitle format used on BDs/HD-DVDs
Duration : 2 h 18 min
Bit rate : 28.9 kb/s
Count of elements : 2522
Stream size : 28.7 MiB (0%)
Title : Norwegian-PGS
Language : Norwegian
Default : No
Forced : No

Text #12
ID : 28
Format : PGS
Muxing mode : zlib
Codec ID : S_HDMV/PGS
Codec ID/Info : Picture based subtitle format used on BDs/HD-DVDs
Duration : 2 h 21 min
Bit rate : 28.8 kb/s
Count of elements : 2414
Stream size : 29.1 MiB (0%)
Title : Portuguese-PGS
Language : Portuguese
Default : No
Forced : No

Text #13
ID : 29
Format : PGS
Muxing mode : zlib
Codec ID : S_HDMV/PGS
Codec ID/Info : Picture based subtitle format used on BDs/HD-DVDs
Duration : 2 h 18 min
Bit rate : 27.6 kb/s
Count of elements : 2508
Stream size : 27.4 MiB (0%)
Title : Finnish-PGS
Language : Finnish
Default : No
Forced : No

Text #14
ID : 30
Format : PGS
Muxing mode : zlib
Codec ID : S_HDMV/PGS
Codec ID/Info : Picture based subtitle format used on BDs/HD-DVDs
Duration : 2 h 18 min
Bit rate : 31.1 kb/s
Count of elements : 2524
Stream size : 30.9 MiB (0%)
Title : Swedish-PGS
Language : Swedish
Default : No
Forced : No

Text #15
ID : 31
Format : PGS
Muxing mode : zlib
Codec ID : S_HDMV/PGS
Codec ID/Info : Picture based subtitle format used on BDs/HD-DVDs
Duration : 2 h 21 min
Bit rate : 47.3 kb/s
Count of elements : 3358
Stream size : 47.9 MiB (0%)
Title : English-COMMENTARY-PGS
Language : English
Default : No
Forced : No

Text #16
ID : 32
Format : PGS
Muxing mode : zlib
Codec ID : S_HDMV/PGS
Codec ID/Info : Picture based subtitle format used on BDs/HD-DVDs
Duration : 2 h 21 min
Bit rate : 44.4 kb/s
Count of elements : 3310
Stream size : 45.0 MiB (0%)
Title : German-COMMENTARY-PGS
Language : German
Default : No
Forced : No

Text #17
ID : 33
Format : PGS
Muxing mode : zlib
Codec ID : S_HDMV/PGS
Codec ID/Info : Picture based subtitle format used on BDs/HD-DVDs
Duration : 2 h 21 min
Bit rate : 43.6 kb/s
Count of elements : 3308
Stream size : 44.1 MiB (0%)
Title : Spanish-COMMENTARY-PGS
Language : Spanish
Default : No
Forced : No

Text #18
ID : 34
Format : PGS
Muxing mode : zlib
Codec ID : S_HDMV/PGS
Codec ID/Info : Picture based subtitle format used on BDs/HD-DVDs
Duration : 2 h 21 min
Bit rate : 45.1 kb/s
Count of elements : 3346
Stream size : 45.7 MiB (0%)
Title : Spanish-COMMENTARY-PGS
Language : Spanish
Default : No
Forced : No

Text #19
ID : 35
Format : PGS
Muxing mode : zlib
Codec ID : S_HDMV/PGS
Codec ID/Info : Picture based subtitle format used on BDs/HD-DVDs
Duration : 2 h 21 min
Bit rate : 42.5 kb/s
Count of elements : 3312
Stream size : 43.0 MiB (0%)
Title : French-COMMENTARY-PGS
Language : French
Default : No
Forced : No

Text #20
ID : 36
Format : PGS
Muxing mode : zlib
Codec ID : S_HDMV/PGS
Codec ID/Info : Picture based subtitle format used on BDs/HD-DVDs
Duration : 2 h 21 min
Bit rate : 40.7 kb/s
Count of elements : 3312
Stream size : 41.2 MiB (0%)
Title : Italian-COMMENTARY-PGS
Language : Italian
Default : No
Forced : No

Text #21
ID : 37
Format : PGS
Muxing mode : zlib
Codec ID : S_HDMV/PGS
Codec ID/Info : Picture based subtitle format used on BDs/HD-DVDs
Duration : 2 h 17 min
Bit rate : 32.4 kb/s
Count of elements : 2620
Stream size : 31.8 MiB (0%)
Title : Japanese-COMMENTARY-PGS
Language : Japanese
Default : No
Forced : No

Text #22
ID : 38
Format : PGS
Muxing mode : zlib
Codec ID : S_HDMV/PGS
Codec ID/Info : Picture based subtitle format used on BDs/HD-DVDs
Duration : 2 h 21 min
Bit rate : 45.5 kb/s
Count of elements : 3346
Stream size : 46.1 MiB (0%)
Title : Portuguese-COMMENTARY-PGS
Language : Portuguese
Default : No
Forced : No

Text #23
ID : 39
Format : PGS
Muxing mode : zlib
Codec ID : S_HDMV/PGS
Codec ID/Info : Picture based subtitle format used on BDs/HD-DVDs
Duration : 2 h 15 min
Bit rate : 25.1 kb/s
Count of elements : 1664
Stream size : 24.4 MiB (0%)
Title : English-PGS
Language : English
Default : No
Forced : No

Text #24
ID : 40
Format : PGS
Muxing mode : zlib
Codec ID : S_HDMV/PGS
Codec ID/Info : Picture based subtitle format used on BDs/HD-DVDs
Duration : 2 h 21 min
Bit rate : 22.1 kb/s
Count of elements : 1590
Stream size : 22.4 MiB (0%)
Title : German-PGS
Language : German
Default : No
Forced : No

Text #25
ID : 41
Format : PGS
Muxing mode : zlib
Codec ID : S_HDMV/PGS
Codec ID/Info : Picture based subtitle format used on BDs/HD-DVDs
Duration : 2 h 21 min
Bit rate : 20.5 kb/s
Count of elements : 1590
Stream size : 20.7 MiB (0%)
Title : Spanish-PGS
Language : Spanish
Default : No
Forced : No

Text #26
ID : 42
Format : PGS
Muxing mode : zlib
Codec ID : S_HDMV/PGS
Codec ID/Info : Picture based subtitle format used on BDs/HD-DVDs
Duration : 2 h 21 min
Bit rate : 22.0 kb/s
Count of elements : 1666
Stream size : 22.2 MiB (0%)
Title : Spanish-PGS
Language : Spanish
Default : No
Forced : No

Text #27
ID : 43
Format : PGS
Muxing mode : zlib
Codec ID : S_HDMV/PGS
Codec ID/Info : Picture based subtitle format used on BDs/HD-DVDs
Duration : 2 h 21 min
Bit rate : 20.1 kb/s
Count of elements : 1590
Stream size : 20.3 MiB (0%)
Title : French-PGS
Language : French
Default : No
Forced : No

Text #28
ID : 44
Format : PGS
Muxing mode : zlib
Codec ID : S_HDMV/PGS
Codec ID/Info : Picture based subtitle format used on BDs/HD-DVDs
Duration : 2 h 21 min
Bit rate : 20.0 kb/s
Count of elements : 1590
Stream size : 20.2 MiB (0%)
Title : Italian-PGS
Language : Italian
Default : No
Forced : No

Text #29
ID : 45
Format : PGS
Muxing mode : zlib
Codec ID : S_HDMV/PGS
Codec ID/Info : Picture based subtitle format used on BDs/HD-DVDs
Duration : 2 h 15 min
Bit rate : 15.5 kb/s
Count of elements : 1246
Stream size : 15.1 MiB (0%)
Title : Japanese-PGS
Language : Japanese
Default : No
Forced : No

Text #30
ID : 46
Format : PGS
Muxing mode : zlib
Codec ID : S_HDMV/PGS
Codec ID/Info : Picture based subtitle format used on BDs/HD-DVDs
Duration : 2 h 21 min
Bit rate : 22.2 kb/s
Count of elements : 1666
Stream size : 22.5 MiB (0%)
Title : Portuguese-PGS
Language : Portuguese
Default : No
Forced : No

Text #31
ID : 47
Format : PGS
Muxing mode : zlib
Codec ID : S_HDMV/PGS
Codec ID/Info : Picture based subtitle format used on BDs/HD-DVDs
Duration : 1 h 27 min
Bit rate : 221 b/s
Count of elements : 18
Stream size : 142 KiB (0%)
Title : Japanese-FORCED-PGS
Language : Japanese
Default : No
Forced : No

Menu
00:00:00.000 : en:Chapter 1
00:06:43.569 : en:Chapter 2
00:12:24.577 : en:Chapter 3
00:19:56.945 : en:Chapter 4
00:31:13.705 : en:Chapter 5
00:40:40.187 : en:Chapter 6
00:44:18.113 : en:Chapter 7
00:56:34.474 : en:Chapter 8
01:03:32.266 : en:Chapter 9
01:13:34.076 : en:Chapter 10
01:17:02.826 : en:Chapter 11
01:23:52.277 : en:Chapter 12
01:34:59.944 : en:Chapter 13
01:38:55.596 : en:Chapter 14
01:43:52.893 : en:Chapter 15
01:51:28.306 : en:Chapter 16
01:58:54.710 : en:Chapter 17
02:04:48.564 : en:Chapter 18
02:15:25.200 : en:Chapter 19
movie BDRip Video
ID : 1
Format : HEVC
Format/Info : High Efficiency Video Coding
Commercial name : HDR10
Format profile : Main 10@L5.1@High
Codec ID : V_MPEGH/ISO/HEVC
Duration : 2 h 22 min
Width : 3 840 pixels
Height : 1 606 pixels
Display aspect ratio : 2.40:1
Frame rate mode : Constant
Frame rate : 23.976 (24000/1001) FPS
Color space : YUV
Chroma subsampling : 4:2:0 (Type 2)
Bit depth : 10 bits
Writing library : x265 2.8+10-703eade86b53:[Windows][GCC 8.1.0][64 bit] 10bit
Encoding settings : cpuid=1111039 / frame-threads=5 / numa-pools=36 / wpp / no-pmode / no-pme / no-psnr / no-ssim / log-level=2 / input-csp=1 / input-res=3840x1606 / interlace=0 / total-frames=204478 / level-idc=51 / high-tier=1 / uhd-bd=0 / ref=4 / no-allow-non-conformance / repeat-headers / annexb / aud / hrd / info / hash=0 / no-temporal-layers / no-open-gop / min-keyint=24 / keyint=240 / gop-lookahead=0 / bframes=4 / b-adapt=2 / b-pyramid / bframe-bias=0 / rc-lookahead=25 / lookahead-slices=4 / scenecut=40 / radl=0 / no-intra-refresh / ctu=64 / min-cu-size=8 / rect / no-amp / max-tu-size=32 / tu-inter-depth=1 / tu-intra-depth=1 / limit-tu=0 / rdoq-level=2 / dynamic-rd=0.00 / no-ssim-rd / signhide / no-tskip / nr-intra=0 / nr-inter=0 / no-constrained-intra / no-strong-intra-smoothing / max-merge=3 / limit-refs=3 / limit-modes / me=3 / subme=3 / merange=57 / temporal-mvp / weightp / no-weightb / no-analyze-src-pics / deblock=-3:-3 / no-sao / no-sao-non-deblock / rd=4 / no-early-skip / rskip / no-fast-intra / no-tskip-fast / no-cu-lossless / no-b-intra / no-splitrd-skip / rdpenalty=0 / psy-rd=2.00 / psy-rdoq=1.00 / no-rd-refine / no-lossless / cbqpoffs=0 / crqpoffs=0 / rc=crf / crf=17.0 / qcomp=0.60 / qpstep=4 / stats-write=0 / stats-read=0 / vbv-maxrate=160000 / vbv-bufsize=160000 / vbv-init=0.9 / crf-max=0.0 / crf-min=0.0 / ipratio=1.40 / pbratio=1.30 / aq-mode=1 / aq-strength=1.00 / cutree / zone-count=0 / no-strict-cbr / qg-size=32 / no-rc-grain / qpmax=69 / qpmin=0 / no-const-vbv / sar=1 / overscan=0 / videoformat=5 / range=0 / colorprim=9 / transfer=16 / colormatrix=9 / chromaloc=1 / chromaloc-top=2 / chromaloc-bottom=2 / display-window=0 / master-display=G(13250,34500)B(7500,3000)R(34000,16000)WP(15635,16450)L(10000000,1) / max-cll=0,0 / min-luma=0 / max-luma=1023 / log2-max-poc-lsb=8 / vui-timing-info / vui-hrd-info / slices=1 / no-opt-qp-pps / no-opt-ref-list-length-pps / no-multi-pass-opt-rps / scenecut-bias=0.05 / no-opt-cu-delta-qp / no-aq-motion / hdr / hdr-opt / no-dhdr10-opt / no-idr-recovery-sei / analysis-reuse-level=5 / scale-factor=0 / refine-intra=0 / refine-inter=0 / refine-mv=0 / no-limit-sao / ctu-info=0 / no-lowpass-dct / refine-mv-type=0 / copy-pic=1 / max-ausize-factor=1.0 / no-dynamic-refine / no-single-sei
Default : Yes
Forced : No
Color range : Limited
Color primaries : BT.2020
Transfer characteristics : PQ
Matrix coefficients : BT.2020 non-constant
Statistics Tags Issue : no_variable_data 1970-01-01 00:00:00 / no_variable_data 2010-02-22 21:41:29
FromStats_BitRate : 26462263
FromStats_Duration : 02:22:08.437000000
FromStats_FrameCount : 204478
FromStats_StreamSize : 28210218265
Mastering display color primaries : Display P3
Mastering display luminance : min: 0.0001 cd/m2, max: 1000 cd/m2

Audio #1
ID : 2
Format : TrueHD
Format profile : TrueHD+Atmos / TrueHD
Codec ID : A_TRUEHD
Bit rate mode : Variable
Maximum bit rate : 7 926 kb/s
Channel(s) : Object Based / 8 channels
Channel positions : Object Based / Front: L C R, Side: L R, Back: L R, LFE
Sampling rate : / 48.0 kHz
Frame rate : 1 200.000 FPS (40 SPF)
Compression mode : Lossless
Delay relative to video : 500 ms
Title : Atmos 7.1
Language : English
Default : Yes
Forced : No
Statistics Tags Issue : no_variable_data 1970-01-01 00:00:00 / no_variable_data 2010-02-22 21:41:29
FromStats_BitRate : 4271100
FromStats_Duration : 02:22:06.978000000
FromStats_FrameCount : 10232373
FromStats_StreamSize : 4552447320

Audio #2
ID : 3
Format : AC-3
Format/Info : Audio Coding 3
Codec ID : A_AC3
Duration : 2 h 22 min
Bit rate mode : Constant
Bit rate : 640 kb/s
Channel(s) : 6 channels
Channel positions : Front: L C R, Side: L R, LFE
Sampling rate : 48.0 kHz
Frame rate : 31.250 FPS (1536 SPF)
Bit depth : 16 bits
Compression mode : Lossy
Delay relative to video : 500 ms
Stream size : 651 MiB (2%)
Title : AC-3 5.1
Language : English
Service kind : Complete Main
Default : No
Forced : No
Statistics Tags Issue : no_variable_data 1970-01-01 00:00:00 / no_variable_data 2010-02-22 21:41:29
FromStats_BitRate : 640000
FromStats_Duration : 02:22:07.872000000
FromStats_FrameCount : 266496
FromStats_StreamSize : 682229760

Audio #3
ID : 4
Format : AC-3
Format/Info : Audio Coding 3
Codec ID : A_AC3
Duration : 2 h 22 min
Bit rate mode : Constant
Bit rate : 224 kb/s
Channel(s) : 2 channels
Channel positions : Front: L R
Sampling rate : 48.0 kHz
Frame rate : 31.250 FPS (1536 SPF)
Bit depth : 16 bits
Compression mode : Lossy
Stream size : 228 MiB (1%)
Title : Commentary with Robert Zemeckis, Steve Starkey and Rick Carter
Language : English
Service kind : Complete Main
Default : No
Forced : No
Statistics Tags Issue : no_variable_data 1970-01-01 00:00:00 / no_variable_data 2010-02-22 21:41:29
FromStats_BitRate : 224000
FromStats_Duration : 02:22:08.448000000
FromStats_FrameCount : 266514
FromStats_StreamSize : 238796544

Audio #4
ID : 5
Format : AC-3
Format/Info : Audio Coding 3
Codec ID : A_AC3
Duration : 2 h 22 min
Bit rate mode : Constant
Bit rate : 224 kb/s
Channel(s) : 2 channels
Channel positions : Front: L R
Sampling rate : 48.0 kHz
Frame rate : 31.250 FPS (1536 SPF)
Bit depth : 16 bits
Compression mode : Lossy
Stream size : 228 MiB (1%)
Title : Commentary by producer Wendy Finerman
Language : English
Service kind : Complete Main
Default : No
Forced : No
Statistics Tags Issue : no_variable_data 1970-01-01 00:00:00 / no_variable_data 2010-02-22 21:41:29
FromStats_BitRate : 224000
FromStats_Duration : 02:22:08.448000000
FromStats_FrameCount : 266514
FromStats_StreamSize : 238796544

Text #1
ID : 6
Format : UTF-8
Codec ID : S_TEXT/UTF8
Codec ID/Info : UTF-8 Plain Text
Title : Stripped SRT
Language : English
Default : No
Forced : No
Statistics Tags Issue : no_variable_data 1970-01-01 00:00:00 / no_variable_data 2010-02-22 21:41:29
FromStats_BitRate : 63
FromStats_Duration : 02:10:40.749000000
FromStats_FrameCount : 1550
FromStats_StreamSize : 62654

Text #2
ID : 7
Format : UTF-8
Codec ID : S_TEXT/UTF8
Codec ID/Info : UTF-8 Plain Text
Title : Full SRT
Language : English
Default : No
Forced : No
Statistics Tags Issue : no_variable_data 1970-01-01 00:00:00 / no_variable_data 2010-02-22 21:41:29
FromStats_BitRate : 63
FromStats_Duration : 02:10:40.749000000
FromStats_FrameCount : 1542
FromStats_StreamSize : 62588

Text #3
ID : 8
Format : PGS
Muxing mode : zlib
Codec ID : S_HDMV/PGS
Codec ID/Info : Picture based subtitle format used on BDs/HD-DVDs
Title : Full
Language : English
Default : No
Forced : No
Statistics Tags Issue : no_variable_data 1970-01-01 00:00:00 / no_variable_data 2010-02-22 21:41:29
FromStats_BitRate : 37433
FromStats_Duration : 02:10:40.750000000
FromStats_FrameCount : 3084
FromStats_StreamSize : 36688589

Text #4
ID : 9
Format : UTF-8
Codec ID : S_TEXT/UTF8
Codec ID/Info : UTF-8 Plain Text
Title : SDH SRT
Language : English
Default : No
Forced : No
Statistics Tags Issue : no_variable_data 1970-01-01 00:00:00 / no_variable_data 2010-02-22 21:41:29
FromStats_BitRate : 65
FromStats_Duration : 02:11:04.648000000
FromStats_FrameCount : 1595
FromStats_StreamSize : 64670

Text #5
ID : 10
Format : PGS
Muxing mode : zlib
Codec ID : S_HDMV/PGS
Codec ID/Info : Picture based subtitle format used on BDs/HD-DVDs
Title : SDH
Language : English
Default : No
Forced : No
Statistics Tags Issue : no_variable_data 1970-01-01 00:00:00 / no_variable_data 2010-02-22 21:41:29
FromStats_BitRate : 38908
FromStats_Duration : 02:11:04.649000000
FromStats_FrameCount : 3190
FromStats_StreamSize : 38250415

Text #6
ID : 11
Format : PGS
Muxing mode : zlib
Codec ID : S_HDMV/PGS
Codec ID/Info : Picture based subtitle format used on BDs/HD-DVDs
Title : Commentary with Robert Zemeckis, Steve Starkey and Rick Carter
Language : English
Default : No
Forced : No
Statistics Tags Issue : no_variable_data 1970-01-01 00:00:00 / no_variable_data 2010-02-22 21:41:29
FromStats_BitRate : 47348
FromStats_Duration : 02:21:32.943000000
FromStats_FrameCount : 3358
FromStats_StreamSize : 50266292

Text #7
ID : 12
Format : PGS
Muxing mode : zlib
Codec ID : S_HDMV/PGS
Codec ID/Info : Picture based subtitle format used on BDs/HD-DVDs
Title : Commentary by producer Wendy Finerman
Language : English
Default : No
Forced : No
Statistics Tags Issue : no_variable_data 1970-01-01 00:00:00 / no_variable_data 2010-02-22 21:41:29
FromStats_BitRate : 25134
FromStats_Duration : 02:15:47.848000000
FromStats_FrameCount : 1664
FromStats_StreamSize : 25598611

Text #8
ID : 13
Format : PGS
Muxing mode : zlib
Codec ID : S_HDMV/PGS
Codec ID/Info : Picture based subtitle format used on BDs/HD-DVDs
Language : French
Default : No
Forced : No
Statistics Tags Issue : no_variable_data 1970-01-01 00:00:00 / no_variable_data 2010-02-22 21:41:29
FromStats_BitRate : 30682
FromStats_Duration : 02:18:40.354000000
FromStats_FrameCount : 2528
FromStats_StreamSize : 31910955

Text #9
ID : 14
Format : PGS
Muxing mode : zlib
Codec ID : S_HDMV/PGS
Codec ID/Info : Picture based subtitle format used on BDs/HD-DVDs
Title : Commentary with Robert Zemeckis, Steve Starkey and Rick Carter
Language : French
Default : No
Forced : No
Statistics Tags Issue : no_variable_data 1970-01-01 00:00:00 / no_variable_data 2010-02-22 21:41:29
FromStats_BitRate : 42463
FromStats_Duration : 02:21:33.318000000
FromStats_FrameCount : 3312
FromStats_StreamSize : 45081978

Text #10
ID : 15
Format : PGS
Muxing mode : zlib
Codec ID : S_HDMV/PGS
Codec ID/Info : Picture based subtitle format used on BDs/HD-DVDs
Title : Commentary by producer Wendy Finerman
Language : French
Default : No
Forced : No
Statistics Tags Issue : no_variable_data 1970-01-01 00:00:00 / no_variable_data 2010-02-22 21:41:29
FromStats_BitRate : 20081
FromStats_Duration : 02:21:19.846000000
FromStats_FrameCount : 1590
FromStats_StreamSize : 21286142

Text #11
ID : 16
Format : PGS
Muxing mode : zlib
Codec ID : S_HDMV/PGS
Codec ID/Info : Picture based subtitle format used on BDs/HD-DVDs
Title : EU
Language : Spanish
Default : No
Forced : No
Statistics Tags Issue : no_variable_data 1970-01-01 00:00:00 / no_variable_data 2010-02-22 21:41:29
FromStats_BitRate : 26293
FromStats_Duration : 02:18:40.271000000
FromStats_FrameCount : 2524
FromStats_StreamSize : 27346043

Text #12
ID : 17
Format : PGS
Muxing mode : zlib
Codec ID : S_HDMV/PGS
Codec ID/Info : Picture based subtitle format used on BDs/HD-DVDs
Title : Commentary with Robert Zemeckis, Steve Starkey and Rick Carter (EU)
Language : Spanish
Default : No
Forced : No
Statistics Tags Issue : no_variable_data 1970-01-01 00:00:00 / no_variable_data 2010-02-22 21:41:29
FromStats_BitRate : 43556
FromStats_Duration : 02:21:33.318000000
FromStats_FrameCount : 3308
FromStats_StreamSize : 46242197

Text #13
ID : 18
Format : PGS
Muxing mode : zlib
Codec ID : S_HDMV/PGS
Codec ID/Info : Picture based subtitle format used on BDs/HD-DVDs
Title : Commentary by producer Wendy Finerman (EU)
Language : Spanish
Default : No
Forced : No
Statistics Tags Issue : no_variable_data 1970-01-01 00:00:00 / no_variable_data 2010-02-22 21:41:29
FromStats_BitRate : 45102
FromStats_Duration : 02:21:32.943000000
FromStats_FrameCount : 3346
FromStats_StreamSize : 47882015

Text #14
ID : 19
Format : PGS
Muxing mode : zlib
Codec ID : S_HDMV/PGS
Codec ID/Info : Picture based subtitle format used on BDs/HD-DVDs
Title : Latin
Language : Spanish
Default : No
Forced : No
Statistics Tags Issue : no_variable_data 1970-01-01 00:00:00 / no_variable_data 2010-02-22 21:41:29
FromStats_BitRate : 28317
FromStats_Duration : 02:18:40.062000000
FromStats_FrameCount : 2532
FromStats_StreamSize : 29450241

Text #15
ID : 20
Format : PGS
Muxing mode : zlib
Codec ID : S_HDMV/PGS
Codec ID/Info : Picture based subtitle format used on BDs/HD-DVDs
Title : Commentary with Robert Zemeckis, Steve Starkey and Rick Carter (Latin)
Language : Spanish
Default : No
Forced : No
Statistics Tags Issue : no_variable_data 1970-01-01 00:00:00 / no_variable_data 2010-02-22 21:41:29
FromStats_BitRate : 20451
FromStats_Duration : 02:21:19.846000000
FromStats_FrameCount : 1590
FromStats_StreamSize : 21678263

Text #16
ID : 21
Format : PGS
Muxing mode : zlib
Codec ID : S_HDMV/PGS
Codec ID/Info : Picture based subtitle format used on BDs/HD-DVDs
Title : Commentary by producer Wendy Finerman (Latin)
Language : Spanish
Default : No
Forced : No
Statistics Tags Issue : no_variable_data 1970-01-01 00:00:00 / no_variable_data 2010-02-22 21:41:29
FromStats_BitRate : 21968
FromStats_Duration : 02:21:18.387000000
FromStats_FrameCount : 1666
FromStats_StreamSize : 23282700

Text #17
ID : 22
Format : PGS
Muxing mode : zlib
Codec ID : S_HDMV/PGS
Codec ID/Info : Picture based subtitle format used on BDs/HD-DVDs
Language : Portuguese
Default : No
Forced : No
Statistics Tags Issue : no_variable_data 1970-01-01 00:00:00 / no_variable_data 2010-02-22 21:41:29
FromStats_BitRate : 28833
FromStats_Duration : 02:21:16.343000000
FromStats_FrameCount : 2414
FromStats_StreamSize : 30550779

Text #18
ID : 23
Format : PGS
Muxing mode : zlib
Codec ID : S_HDMV/PGS
Codec ID/Info : Picture based subtitle format used on BDs/HD-DVDs
Title : Commentary with Robert Zemeckis, Steve Starkey and Rick Carter
Language : Portuguese
Default : No
Forced : No
Statistics Tags Issue : no_variable_data 1970-01-01 00:00:00 / no_variable_data 2010-02-22 21:41:29
FromStats_BitRate : 45528
FromStats_Duration : 02:21:32.943000000
FromStats_FrameCount : 3346
FromStats_StreamSize : 48334065

Text #19
ID : 24
Format : PGS
Muxing mode : zlib
Codec ID : S_HDMV/PGS
Codec ID/Info : Picture based subtitle format used on BDs/HD-DVDs
Title : Commentary by producer Wendy Finerman
Language : Portuguese
Default : No
Forced : No
Statistics Tags Issue : no_variable_data 1970-01-01 00:00:00 / no_variable_data 2010-02-22 21:41:29
FromStats_BitRate : 22215
FromStats_Duration : 02:21:18.387000000
FromStats_FrameCount : 1666
FromStats_StreamSize : 23544065

Text #20
ID : 25
Format : PGS
Muxing mode : zlib
Codec ID : S_HDMV/PGS
Codec ID/Info : Picture based subtitle format used on BDs/HD-DVDs
Language : Italian
Default : No
Forced : No
Statistics Tags Issue : no_variable_data 1970-01-01 00:00:00 / no_variable_data 2010-02-22 21:41:29
FromStats_BitRate : 32169
FromStats_Duration : 02:18:40.062000000
FromStats_FrameCount : 2534
FromStats_StreamSize : 33457020

Text #21
ID : 26
Format : PGS
Muxing mode : zlib
Codec ID : S_HDMV/PGS
Codec ID/Info : Picture based subtitle format used on BDs/HD-DVDs
Title : Commentary with Robert Zemeckis, Steve Starkey and Rick Carter
Language : Italian
Default : No
Forced : No
Statistics Tags Issue : no_variable_data 1970-01-01 00:00:00 / no_variable_data 2010-02-22 21:41:29
FromStats_BitRate : 40710
FromStats_Duration : 02:21:33.318000000
FromStats_FrameCount : 3312
FromStats_StreamSize : 43221028

Text #22
ID : 27
Format : PGS
Muxing mode : zlib
Codec ID : S_HDMV/PGS
Codec ID/Info : Picture based subtitle format used on BDs/HD-DVDs
Title : Commentary by producer Wendy Finerman
Language : Italian
Default : No
Forced : No
Statistics Tags Issue : no_variable_data 1970-01-01 00:00:00 / no_variable_data 2010-02-22 21:41:29
FromStats_BitRate : 20018
FromStats_Duration : 02:21:19.846000000
FromStats_FrameCount : 1590
FromStats_StreamSize : 21219426

Text #23
ID : 28
Format : PGS
Muxing mode : zlib
Codec ID : S_HDMV/PGS
Codec ID/Info : Picture based subtitle format used on BDs/HD-DVDs
Language : German
Default : No
Forced : No
Statistics Tags Issue : no_variable_data 1970-01-01 00:00:00 / no_variable_data 2010-02-22 21:41:29
FromStats_BitRate : 33709
FromStats_Duration : 02:18:40.104000000
FromStats_FrameCount : 2514
FromStats_StreamSize : 35058617

Text #24
ID : 29
Format : PGS
Muxing mode : zlib
Codec ID : S_HDMV/PGS
Codec ID/Info : Picture based subtitle format used on BDs/HD-DVDs
Title : Commentary with Robert Zemeckis, Steve Starkey and Rick Carter
Language : German
Default : No
Forced : No
Statistics Tags Issue : no_variable_data 1970-01-01 00:00:00 / no_variable_data 2010-02-22 21:41:29
FromStats_BitRate : 44446
FromStats_Duration : 02:21:33.318000000
FromStats_FrameCount : 3310
FromStats_StreamSize : 47186825

Text #25
ID : 30
Format : PGS
Muxing mode : zlib
Codec ID : S_HDMV/PGS
Codec ID/Info : Picture based subtitle format used on BDs/HD-DVDs
Title : Commentary by producer Wendy Finerman
Language : German
Default : No
Forced : No
Statistics Tags Issue : no_variable_data 1970-01-01 00:00:00 / no_variable_data 2010-02-22 21:41:29
FromStats_BitRate : 22121
FromStats_Duration : 02:21:19.846000000
FromStats_FrameCount : 1590
FromStats_StreamSize : 23448042

Text #26
ID : 31
Format : PGS
Muxing mode : zlib
Codec ID : S_HDMV/PGS
Codec ID/Info : Picture based subtitle format used on BDs/HD-DVDs
Language : Dutch
Default : No
Forced : No
Statistics Tags Issue : no_variable_data 1970-01-01 00:00:00 / no_variable_data 2010-02-22 21:41:29
FromStats_BitRate : 30650
FromStats_Duration : 02:18:48.946000000
FromStats_FrameCount : 2510
FromStats_StreamSize : 31910726

Text #27
ID : 32
Format : PGS
Muxing mode : zlib
Codec ID : S_HDMV/PGS
Codec ID/Info : Picture based subtitle format used on BDs/HD-DVDs
Language : Swedish
Default : No
Forced : No
Statistics Tags Issue : no_variable_data 1970-01-01 00:00:00 / no_variable_data 2010-02-22 21:41:29
FromStats_BitRate : 31119
FromStats_Duration : 02:18:48.946000000
FromStats_FrameCount : 2524
FromStats_StreamSize : 32399406

Text #28
ID : 33
Format : PGS
Muxing mode : zlib
Codec ID : S_HDMV/PGS
Codec ID/Info : Picture based subtitle format used on BDs/HD-DVDs
Language : Norwegian
Default : No
Forced : No
Statistics Tags Issue : no_variable_data 1970-01-01 00:00:00 / no_variable_data 2010-02-22 21:41:29
FromStats_BitRate : 28916
FromStats_Duration : 02:18:48.946000000
FromStats_FrameCount : 2522
FromStats_StreamSize : 30105780

Text #29
ID : 34
Format : PGS
Muxing mode : zlib
Codec ID : S_HDMV/PGS
Codec ID/Info : Picture based subtitle format used on BDs/HD-DVDs
Language : Danish
Default : No
Forced : No
Statistics Tags Issue : no_variable_data 1970-01-01 00:00:00 / no_variable_data 2010-02-22 21:41:29
FromStats_BitRate : 30751
FromStats_Duration : 02:18:48.946000000
FromStats_FrameCount : 2508
FromStats_StreamSize : 32015926

Text #30
ID : 35
Format : PGS
Muxing mode : zlib
Codec ID : S_HDMV/PGS
Codec ID/Info : Picture based subtitle format used on BDs/HD-DVDs
Language : Finnish
Default : No
Forced : No
Statistics Tags Issue : no_variable_data 1970-01-01 00:00:00 / no_variable_data 2010-02-22 21:41:29
FromStats_BitRate : 27601
FromStats_Duration : 02:18:48.946000000
FromStats_FrameCount : 2508
FromStats_StreamSize : 28736359

Text #31
ID : 36
Format : PGS
Muxing mode : zlib
Codec ID : S_HDMV/PGS
Codec ID/Info : Picture based subtitle format used on BDs/HD-DVDs
Language : Japanese
Default : No
Forced : No
Statistics Tags Issue : no_variable_data 1970-01-01 00:00:00 / no_variable_data 2010-02-22 21:41:29
FromStats_BitRate : 23925
FromStats_Duration : 02:10:40.666000000
FromStats_FrameCount : 2600
FromStats_StreamSize : 23448728

Text #32
ID : 37
Format : PGS
Muxing mode : zlib
Codec ID : S_HDMV/PGS
Codec ID/Info : Picture based subtitle format used on BDs/HD-DVDs
Title : Commentary with Robert Zemeckis, Steve Starkey and Rick Carter
Language : Japanese
Default : No
Forced : No
Statistics Tags Issue : no_variable_data 1970-01-01 00:00:00 / no_variable_data 2010-02-22 21:41:29
FromStats_BitRate : 32430
FromStats_Duration : 02:17:14.768000000
FromStats_FrameCount : 2620
FromStats_StreamSize : 33382347

Text #33
ID : 38
Format : PGS
Muxing mode : zlib
Codec ID : S_HDMV/PGS
Codec ID/Info : Picture based subtitle format used on BDs/HD-DVDs
Title : Commentary by producer Wendy Finerman
Language : Japanese
Default : No
Forced : No
Statistics Tags Issue : no_variable_data 1970-01-01 00:00:00 / no_variable_data 2010-02-22 21:41:29
FromStats_BitRate : 15522
FromStats_Duration : 02:15:47.889000000
FromStats_FrameCount : 1246
FromStats_StreamSize : 15809477

Menu
00:00:00.000 : en:00:00:00.000
00:06:43.570 : en:00:06:43.570
00:12:24.577 : en:00:12:24.577
00:19:56.946 : en:00:19:56.946
00:31:13.705 : en:00:31:13.705
00:40:40.188 : en:00:40:40.188
00:44:18.114 : en:00:44:18.114
00:56:34.474 : en:00:56:34.474
01:03:32.267 : en:01:03:32.267
01:13:34.076 : en:01:13:34.076
01:17:02.827 : en:01:17:02.827
01:23:52.277 : en:01:23:52.277
01:34:59.944 : en:01:34:59.944
01:38:55.596 : en:01:38:55.596
01:43:52.893 : en:01:43:52.893
01:51:28.307 : en:01:51:28.307
01:58:54.711 : en:01:58:54.711
02:04:48.564 : en:02:04:48.564
02:15:25.200 : en:02:15:25.200

Download

download 4k hdr movies download 4k hdr movies

Watch a movie trailer - Forrest Gump 4K 1994 Ultra HD 2160p
Comments and Feedback
Add your comment:
Your name:
Your E-Mail:
Code:
reload, if the code cannot be seen
Enter code: