Select movie Search movie Close search My Account

The Accountant 4K 2016 Ultra HD 2160p

The Accountant 4K 2016 Ultra HD 2160p
BDRemux / BDRip
Country: USA
Time: 2h 8min
IMDB: 7.3
Director: Gavin O'Connor
Actors: Ben Affleck, Anna Kendrick, J.K. Simmons, Jon Bernthal, Jeffrey Tambor, Cynthia Addai-Robinson, John Lithgow, Jean Smart, Andy Umberger, Alison Wright, Jason Davis, Robert C. Treveiler, Mary Kraft, Seth Lee, Jake Presley...

Story Movie

The tape will tell the story of the mathematical genius of Christian Wulff, who earns a job as an auditor for the most dangerous criminal organizations. When the Treasury Department of the Ministry of Finance, headed by Ray King, sits on its tail, Christian decides to find himself a law-abiding customer and conducts an audit in the company for the production of newest robotics, where a financial department employee discovered a "nasty piece" of millions of dollars. But it's up to Christian to take up the bills and get on track, as in the case the victims begin to appear.

The protagonist uses a large-caliber sniper rifle Barrett.
Anna Kendrick took many of the features of her character from her own mother. At one time, she actually worked as an accountant and, to help her daughter get better in the role, specifically taught her the basics of accounting.
The script of the film was included in the "black list" of 2011 - a list of the most promising but not realized scenarios.

Review 4K Movie

Hollywood is always very subtle in capturing the cultural mood of the crowd. For example, during the conservative American 60's, in an era of exclusively black and white public tones, and the movie was shot, the corresponding - simple, maximalist, with characters that were more like patterns of certain types than living people. Contemporary Hollywood, on the contrary, more tends to the diversity of situations and the depth of character characters. After all, it's very fashionable to be a complex, multifaceted person now, a simple dualism is not respected, so give the corresponding movie. Rare current kinodrama does without multiplane heroes and unambiguous moral situations, in which there is such a number of sometimes mutually exclusive concepts that it is practically impossible to collect everything together. "Payback" Gavin O'Connor - just such a picture, working under the vicious slogan "the more complicated and confusing - the better." And what is doubly surprising, this stupid attempt to seem deeper than you really is, only plays the tape on hand.

The main intrigue of the film is focused on the life of a simple financial analyst Christian Wulff, engaged in corporate consultation on the topic of proper accounting. Building the correct system of paying taxes, searching for shortages and theft - the main directions of its work. But this is only the appearance of his activity. In fact, our hero is a dangerous financial criminal, giving advice to all major world drug dealers and arms, an autist, a fighter for justice and a real hired killer. Naturally, even an attempt to turn a legal business for once in a lifetime and find a thief in a company for the production of neuroprosthetics turns out to be real adventures in the spirit of secret special agents. After all, such a multifaceted guy could find himself problems even during a shopping trip to the supermarket.

"Payback" is really a picture with one of the most heaped characters of the protagonist, which I generally saw in the movie. Creators, it seems, do not at all know the sense of proportion in telling the story of a character's life. Here we see Christian in early childhood, in a beautiful scene where parents want to give it to a shelter for autistics, not knowing what to do with such a child in the family. Then we are transferred to the present time, where the grown up and matured character continues to struggle daily with his illness. And everything is shown realistically, we understand that this person is extremely difficult to socialize, that behind his quiet smile and courteous manners with customers is the titanic work of internal control. Therefore, when we find out that Woolf is also a genius mathematician-financier, we are doubly imbued with respect and sympathy for him. In general, the first half of the picture, dedicated specifically to the life of the hero and his economic work, is made just perfect. This is an amazingly masterfully filmed movie in which a simple accountant with a bunch of reports on the table looks like a real superhero when he displays the ratio of debit and credit on the board. About this in general it was possible to make a movie. "Payback" from this would not be affected.

But no, we do need a complicated movie. And do not care that we managed to give the dynamics of history about accounting rework. It is necessary to shove all the forces into the film action, explosions and chases. And now our quiet autistic mathematician, with the help of just to the horror of stupidly shown scenes from the past, turns into a fighter for justice, Batman with a pencil in his breast pocket, who owns all kinds of martial arts and shoots an eye with a sparrow from a distance of 5 km. Shootings, fights and murders, as it turned out, are given to our hero no worse than mathematical puzzles.

Well, added the speakers. Stop on this, the excellent, though not so realistic, the movie turned out - the viewer will think. But this is not enough for the writers. Until the heap they introduce absolutely unnecessary love line into the film, the agents of the Justice Ministry pursuing our hero, who in the end still do not change anything in the main plot, the theme of fathers and children, family reunions. As a result, by the end of the film the whole narrative turns into such a hanging vinaigrette that it is impossible to make out where the main ingredients of the action, which interested us in the beginning, are in fact. So strongly sagging to the end of the film I, honestly, have not seen for a long time.

But with all this the film can be praised. First, despite the final delirium, Ben Affleck was able to show an excellent character that really looks like an autist, overcoming all the social difficulties associated with it. Yes, he was able to prove that an accountant can be on the screen a cool guy! Secondly, for all its busyness and unnecessary plot lines, the movie looks alive and dynamic. Producer Gavin O'Connor, who shot an excellent "Warrior" with Tom Hardy, still can make a simple, but fascinating movie. And "Payback" is just this. And most importantly - the film does not look stupid. Yes, the picture sometimes does not know what she wants from her own story, but even those searches look fascinating. AT

Mediainfo

movie BDRemux Video
ID : 1
Format : HEVC
Format/Info : High Efficiency Video Coding
Format profile : Main 10@L5.1@High
Codec ID : V_MPEGH/ISO/HEVC
Duration : 2 h 7 min
Bit rate : 48.0 Mb/s
Width : 3 840 pixels
Height : 2 160 pixels
Display aspect ratio : 16:9
Frame rate mode : Constant
Frame rate : 23.976 (24000/1001) FPS
Color space : YUV
Chroma subsampling : 4:2:0 (Type 2)
Bit depth : 10 bits
Bits/(Pixel*Frame) : 0.241
Stream size : 42.9 GiB (79%)
Title : The.Accountant.2016.2160p.BluRay.REMUX.HEVC.DTS-HD.MA.7.1-FGT
Writing library : ATEME Titan File 3.7.8 (4.7.8.0)
Default : Yes
Forced : No
Color range : Limited
Color primaries : BT.2020
Transfer characteristics : PQ
Matrix coefficients : BT.2020 non-constant
Mastering display color primaries : R: x=0.680000 y=0.320000, G: x=0.265000 y=0.690000, B: x=0.150000 y=0.060000, White point: x=0.312700 y=0.329000
Mastering display luminance : min: 0.0050 cd/m2, max: 4000.0000 cd/m2
Maximum Content Light Level : 605 cd/m2
Maximum Frame-Average Light Level : 89 cd/m2

Audio #1
ID : 2
Format : DTS
Format/Info : Digital Theater Systems
Format profile : MA / Core
Codec ID : A_DTS
Duration : 2 h 7 min
Bit rate mode : Variable / Constant
Bit rate : 2 538 kb/s / 1 509 kb/s
Channel(s) : 8 channels / 6 channels
Channel positions : Front: L C R, Side: L R, Back: L R, LFE / Front: L C R, Side: L R, LFE
Sampling rate : 48.0 kHz
Frame rate : 93.750 FPS (512 SPF)
Bit depth : 16 bits
Compression mode : Lossless / Lossy
Stream size : 2.27 GiB (4%)
Title : The.Accountant.2016.2160p.BluRay.REMUX.HEVC.DTS-HD.MA.7.1-FGT
Language : English
Default : Yes
Forced : No

Audio #2
ID : 3
Format : DTS
Format/Info : Digital Theater Systems
Format profile : MA / Core
Codec ID : A_DTS
Duration : 2 h 7 min
Bit rate mode : Variable / Constant
Bit rate : 2 149 kb/s / 1 509 kb/s
Channel(s) : 6 channels
Channel positions : Front: L C R, Side: L R, LFE
Sampling rate : 48.0 kHz
Frame rate : 93.750 FPS (512 SPF)
Bit depth : 16 bits
Compression mode : Lossless / Lossy
Stream size : 1.92 GiB (4%)
Title : The.Accountant.2016.2160p.BluRay.REMUX.HEVC.DTS-HD.MA.7.1-FGT
Language : English
Default : No
Forced : No

Audio #3
ID : 4
Format : AC-3
Format/Info : Audio Coding 3
Codec ID : A_AC3
Duration : 2 h 7 min
Bit rate mode : Constant
Bit rate : 640 kb/s
Channel(s) : 6 channels
Channel positions : Front: L C R, Side: L R, LFE
Sampling rate : 48.0 kHz
Frame rate : 31.250 FPS (1536 SPF)
Bit depth : 16 bits
Compression mode : Lossy
Stream size : 585 MiB (1%)
Title : The.Accountant.2016.2160p.BluRay.REMUX.HEVC.DTS-HD.MA.7.1-FGT
Language : English
Service kind : Complete Main
Default : No
Forced : No

Audio #4
ID : 5
Format : AC-3
Format/Info : Audio Coding 3
Codec ID : A_AC3
Duration : 2 h 7 min
Bit rate mode : Constant
Bit rate : 640 kb/s
Channel(s) : 6 channels
Channel positions : Front: L C R, Side: L R, LFE
Sampling rate : 48.0 kHz
Frame rate : 31.250 FPS (1536 SPF)
Bit depth : 16 bits
Compression mode : Lossy
Stream size : 585 MiB (1%)
Title : The.Accountant.2016.2160p.BluRay.REMUX.HEVC.DTS-HD.MA.7.1-FGT
Language : English
Service kind : Complete Main
Default : No
Forced : No

Audio #5
ID : 6
Format : AC-3
Format/Info : Audio Coding 3
Codec ID : A_AC3
Duration : 2 h 7 min
Bit rate mode : Constant
Bit rate : 640 kb/s
Channel(s) : 6 channels
Channel positions : Front: L C R, Side: L R, LFE
Sampling rate : 48.0 kHz
Frame rate : 31.250 FPS (1536 SPF)
Bit depth : 16 bits
Compression mode : Lossy
Stream size : 585 MiB (1%)
Title : The.Accountant.2016.2160p.BluRay.REMUX.HEVC.DTS-HD.MA.7.1-FGT
Language : French
Service kind : Complete Main
Default : No
Forced : No

Audio #6
ID : 7
Format : AC-3
Format/Info : Audio Coding 3
Codec ID : A_AC3
Duration : 2 h 7 min
Bit rate mode : Constant
Bit rate : 640 kb/s
Channel(s) : 6 channels
Channel positions : Front: L C R, Side: L R, LFE
Sampling rate : 48.0 kHz
Frame rate : 31.250 FPS (1536 SPF)
Bit depth : 16 bits
Compression mode : Lossy
Stream size : 585 MiB (1%)
Title : The.Accountant.2016.2160p.BluRay.REMUX.HEVC.DTS-HD.MA.7.1-FGT
Language : French
Service kind : Complete Main
Default : No
Forced : No

Audio #7
ID : 8
Format : AC-3
Format/Info : Audio Coding 3
Codec ID : A_AC3
Duration : 2 h 7 min
Bit rate mode : Constant
Bit rate : 640 kb/s
Channel(s) : 6 channels
Channel positions : Front: L C R, Side: L R, LFE
Sampling rate : 48.0 kHz
Frame rate : 31.250 FPS (1536 SPF)
Bit depth : 16 bits
Compression mode : Lossy
Stream size : 585 MiB (1%)
Title : The.Accountant.2016.2160p.BluRay.REMUX.HEVC.DTS-HD.MA.7.1-FGT
Language : German
Service kind : Complete Main
Default : No
Forced : No

Audio #8
ID : 9
Format : AC-3
Format/Info : Audio Coding 3
Codec ID : A_AC3
Duration : 2 h 7 min
Bit rate mode : Constant
Bit rate : 640 kb/s
Channel(s) : 6 channels
Channel positions : Front: L C R, Side: L R, LFE
Sampling rate : 48.0 kHz
Frame rate : 31.250 FPS (1536 SPF)
Bit depth : 16 bits
Compression mode : Lossy
Stream size : 585 MiB (1%)
Title : The.Accountant.2016.2160p.BluRay.REMUX.HEVC.DTS-HD.MA.7.1-FGT
Language : Italian
Service kind : Complete Main
Default : No
Forced : No

Audio #9
ID : 10
Format : AC-3
Format/Info : Audio Coding 3
Codec ID : A_AC3
Duration : 2 h 7 min
Bit rate mode : Constant
Bit rate : 640 kb/s
Channel(s) : 6 channels
Channel positions : Front: L C R, Side: L R, LFE
Sampling rate : 48.0 kHz
Frame rate : 31.250 FPS (1536 SPF)
Bit depth : 16 bits
Compression mode : Lossy
Stream size : 585 MiB (1%)
Title : The.Accountant.2016.2160p.BluRay.REMUX.HEVC.DTS-HD.MA.7.1-FGT
Language : Spanish
Service kind : Complete Main
Default : No
Forced : No

Audio #10
ID : 11
Format : AC-3
Format/Info : Audio Coding 3
Codec ID : A_AC3
Duration : 2 h 7 min
Bit rate mode : Constant
Bit rate : 640 kb/s
Channel(s) : 6 channels
Channel positions : Front: L C R, Side: L R, LFE
Sampling rate : 48.0 kHz
Frame rate : 31.250 FPS (1536 SPF)
Bit depth : 16 bits
Compression mode : Lossy
Stream size : 585 MiB (1%)
Title : The.Accountant.2016.2160p.BluRay.REMUX.HEVC.DTS-HD.MA.7.1-FGT
Language : Spanish
Service kind : Complete Main
Default : No
Forced : No

Audio #11
ID : 12
Format : AC-3
Format/Info : Audio Coding 3
Codec ID : A_AC3
Duration : 2 h 7 min
Bit rate mode : Constant
Bit rate : 640 kb/s
Channel(s) : 6 channels
Channel positions : Front: L C R, Side: L R, LFE
Sampling rate : 48.0 kHz
Frame rate : 31.250 FPS (1536 SPF)
Bit depth : 16 bits
Compression mode : Lossy
Stream size : 585 MiB (1%)
Title : The.Accountant.2016.2160p.BluRay.REMUX.HEVC.DTS-HD.MA.7.1-FGT
Language : Portuguese
Service kind : Complete Main
Default : No
Forced : No

Audio #12
ID : 13
Format : AC-3
Format/Info : Audio Coding 3
Codec ID : A_AC3
Duration : 2 h 7 min
Bit rate mode : Constant
Bit rate : 640 kb/s
Channel(s) : 6 channels
Channel positions : Front: L C R, Side: L R, LFE
Sampling rate : 48.0 kHz
Frame rate : 31.250 FPS (1536 SPF)
Bit depth : 16 bits
Compression mode : Lossy
Stream size : 585 MiB (1%)
Title : The.Accountant.2016.2160p.BluRay.REMUX.HEVC.DTS-HD.MA.7.1-FGT
Language : Czech
Service kind : Complete Main
Default : No
Forced : No

Audio #13
ID : 14
Format : AC-3
Format/Info : Audio Coding 3
Codec ID : A_AC3
Duration : 2 h 7 min
Bit rate mode : Constant
Bit rate : 640 kb/s
Channel(s) : 6 channels
Channel positions : Front: L C R, Side: L R, LFE
Sampling rate : 48.0 kHz
Frame rate : 31.250 FPS (1536 SPF)
Bit depth : 16 bits
Compression mode : Lossy
Stream size : 585 MiB (1%)
Title : The.Accountant.2016.2160p.BluRay.REMUX.HEVC.DTS-HD.MA.7.1-FGT
Language : Polish
Service kind : Complete Main
Default : No
Forced : No

Audio #14
ID : 15
Format : AC-3
Format/Info : Audio Coding 3
Codec ID : A_AC3
Duration : 2 h 7 min
Bit rate mode : Constant
Bit rate : 640 kb/s
Channel(s) : 6 channels
Channel positions : Front: L C R, Side: L R, LFE
Sampling rate : 48.0 kHz
Frame rate : 31.250 FPS (1536 SPF)
Bit depth : 16 bits
Compression mode : Lossy
Stream size : 585 MiB (1%)
Title : The.Accountant.2016.2160p.BluRay.REMUX.HEVC.DTS-HD.MA.7.1-FGT
Language : Japanese
Service kind : Complete Main
Default : No
Forced : No

Text #1
ID : 16
Format : PGS
Muxing mode : zlib
Codec ID : S_HDMV/PGS
Codec ID/Info : Picture based subtitle format used on BDs/HD-DVDs
Duration : 2 h 7 min
Bit rate : 34.5 kb/s
Count of elements : 3404
Stream size : 31.4 MiB (0%)
Title : English-PGS
Language : English
Default : Yes
Forced : No

Text #2
ID : 17
Format : PGS
Muxing mode : zlib
Codec ID : S_HDMV/PGS
Codec ID/Info : Picture based subtitle format used on BDs/HD-DVDs
Duration : 1 h 58 min
Bit rate : 21.9 kb/s
Count of elements : 3492
Stream size : 18.6 MiB (0%)
Title : Japanese-PGS
Language : Japanese
Default : No
Forced : No

Text #3
ID : 18
Format : PGS
Muxing mode : zlib
Codec ID : S_HDMV/PGS
Codec ID/Info : Picture based subtitle format used on BDs/HD-DVDs
Duration : 1 h 53 min
Bit rate : 668 b/s
Count of elements : 288
Stream size : 556 KiB (0%)
Title : Japanese-PGS
Language : Japanese
Default : No
Forced : No

Text #4
ID : 19
Format : PGS
Muxing mode : zlib
Codec ID : S_HDMV/PGS
Codec ID/Info : Picture based subtitle format used on BDs/HD-DVDs
Duration : 2 h 7 min
Bit rate : 26.6 kb/s
Count of elements : 3020
Stream size : 24.2 MiB (0%)
Title : French-PGS
Language : French
Default : No
Forced : No

Text #5
ID : 20
Format : PGS
Muxing mode : zlib
Codec ID : S_HDMV/PGS
Codec ID/Info : Picture based subtitle format used on BDs/HD-DVDs
Duration : 2 h 7 min
Bit rate : 38.7 kb/s
Count of elements : 3476
Stream size : 35.2 MiB (0%)
Title : German-PGS
Language : German
Default : No
Forced : No

Text #6
ID : 21
Format : PGS
Muxing mode : zlib
Codec ID : S_HDMV/PGS
Codec ID/Info : Picture based subtitle format used on BDs/HD-DVDs
Duration : 2 h 7 min
Bit rate : 32.5 kb/s
Count of elements : 3472
Stream size : 29.6 MiB (0%)
Title : Italian-PGS
Language : Italian
Default : No
Forced : No

Text #7
ID : 22
Format : PGS
Muxing mode : zlib
Codec ID : S_HDMV/PGS
Codec ID/Info : Picture based subtitle format used on BDs/HD-DVDs
Duration : 2 h 7 min
Bit rate : 30.3 kb/s
Count of elements : 3048
Stream size : 27.5 MiB (0%)
Title : Spanish-PGS
Language : Spanish
Default : No
Forced : No

Text #8
ID : 23
Format : PGS
Muxing mode : zlib
Codec ID : S_HDMV/PGS
Codec ID/Info : Picture based subtitle format used on BDs/HD-DVDs
Duration : 2 h 7 min
Bit rate : 25.6 kb/s
Count of elements : 2548
Stream size : 23.3 MiB (0%)
Title : Dutch-PGS
Language : Dutch
Default : No
Forced : No

Text #9
ID : 24
Format : PGS
Muxing mode : zlib
Codec ID : S_HDMV/PGS
Codec ID/Info : Picture based subtitle format used on BDs/HD-DVDs
Duration : 2 h 7 min
Bit rate : 30.1 kb/s
Count of elements : 3082
Stream size : 27.4 MiB (0%)
Title : Chinese-PGS
Language : Chinese
Default : No
Forced : No

Text #10
ID : 25
Format : PGS
Muxing mode : zlib
Codec ID : S_HDMV/PGS
Codec ID/Info : Picture based subtitle format used on BDs/HD-DVDs
Duration : 2 h 7 min
Bit rate : 28.4 kb/s
Count of elements : 3078
Stream size : 25.8 MiB (0%)
Title : Chinese-PGS
Language : Chinese
Default : No
Forced : No

Text #11
ID : 26
Format : PGS
Muxing mode : zlib
Codec ID : S_HDMV/PGS
Codec ID/Info : Picture based subtitle format used on BDs/HD-DVDs
Duration : 2 h 7 min
Bit rate : 19.4 kb/s
Count of elements : 3038
Stream size : 17.6 MiB (0%)
Title : Korean-PGS
Language : Korean
Default : No
Forced : No

Text #12
ID : 27
Format : PGS
Muxing mode : zlib
Codec ID : S_HDMV/PGS
Codec ID/Info : Picture based subtitle format used on BDs/HD-DVDs
Duration : 2 h 7 min
Bit rate : 31.1 kb/s
Count of elements : 3086
Stream size : 28.3 MiB (0%)
Title : Spanish-PGS
Language : Spanish
Default : No
Forced : No

Text #13
ID : 28
Format : PGS
Muxing mode : zlib
Codec ID : S_HDMV/PGS
Codec ID/Info : Picture based subtitle format used on BDs/HD-DVDs
Duration : 2 h 7 min
Bit rate : 30.7 kb/s
Count of elements : 3062
Stream size : 27.9 MiB (0%)
Title : Portuguese-PGS
Language : Portuguese
Default : No
Forced : No

Text #14
ID : 29
Format : PGS
Muxing mode : zlib
Codec ID : S_HDMV/PGS
Codec ID/Info : Picture based subtitle format used on BDs/HD-DVDs
Duration : 2 h 7 min
Bit rate : 17.4 kb/s
Count of elements : 3096
Stream size : 15.9 MiB (0%)
Title : Arabic-PGS
Language : Arabic
Default : No
Forced : No

Text #15
ID : 30
Format : PGS
Muxing mode : zlib
Codec ID : S_HDMV/PGS
Codec ID/Info : Picture based subtitle format used on BDs/HD-DVDs
Duration : 2 h 7 min
Bit rate : 29.1 kb/s
Count of elements : 3102
Stream size : 26.5 MiB (0%)
Title : Czech-PGS
Language : Czech
Default : No
Forced : No

Text #16
ID : 31
Format : PGS
Muxing mode : zlib
Codec ID : S_HDMV/PGS
Codec ID/Info : Picture based subtitle format used on BDs/HD-DVDs
Duration : 2 h 7 min
Bit rate : 29.0 kb/s
Count of elements : 2380
Stream size : 26.4 MiB (0%)
Title : Danish-PGS
Language : Danish
Default : No
Forced : No

Text #17
ID : 32
Format : PGS
Muxing mode : zlib
Codec ID : S_HDMV/PGS
Codec ID/Info : Picture based subtitle format used on BDs/HD-DVDs
Duration : 2 h 7 min
Bit rate : 26.2 kb/s
Count of elements : 3052
Stream size : 23.8 MiB (0%)
Title : Finnish-PGS
Language : Finnish
Default : No
Forced : No

Text #18
ID : 33
Format : PGS
Muxing mode : zlib
Codec ID : S_HDMV/PGS
Codec ID/Info : Picture based subtitle format used on BDs/HD-DVDs
Duration : 2 h 7 min
Bit rate : 27.6 kb/s
Count of elements : 2668
Stream size : 25.1 MiB (0%)
Title : Norwegian-PGS
Language : Norwegian
Default : No
Forced : No

Text #19
ID : 34
Format : PGS
Muxing mode : zlib
Codec ID : S_HDMV/PGS
Codec ID/Info : Picture based subtitle format used on BDs/HD-DVDs
Duration : 2 h 7 min
Bit rate : 23.6 kb/s
Count of elements : 2864
Stream size : 21.5 MiB (0%)
Title : Polish-PGS
Language : Polish
Default : No
Forced : No

Text #20
ID : 35
Format : PGS
Muxing mode : zlib
Codec ID : S_HDMV/PGS
Codec ID/Info : Picture based subtitle format used on BDs/HD-DVDs
Duration : 2 h 7 min
Bit rate : 28.8 kb/s
Count of elements : 3042
Stream size : 26.2 MiB (0%)
Title : Swedish-PGS
Language : Swedish
Default : No
Forced : No

Text #21
ID : 36
Format : PGS
Muxing mode : zlib
Codec ID : S_HDMV/PGS
Codec ID/Info : Picture based subtitle format used on BDs/HD-DVDs
Duration : 2 h 2 min
Bit rate : 305 b/s
Count of elements : 22
Stream size : 274 KiB (0%)
Title : French-PGS
Language : French
Default : No
Forced : No

Text #22
ID : 37
Format : PGS
Muxing mode : zlib
Codec ID : S_HDMV/PGS
Codec ID/Info : Picture based subtitle format used on BDs/HD-DVDs
Duration : 2 h 5 min
Bit rate : 337 b/s
Count of elements : 30
Stream size : 311 KiB (0%)
Title : French-PGS
Language : French
Default : No
Forced : No

Text #23
ID : 38
Format : PGS
Muxing mode : zlib
Codec ID : S_HDMV/PGS
Codec ID/Info : Picture based subtitle format used on BDs/HD-DVDs
Duration : 2 h 5 min
Bit rate : 180 b/s
Count of elements : 16
Stream size : 166 KiB (0%)
Title : German-PGS
Language : German
Default : No
Forced : No

Text #24
ID : 39
Format : PGS
Muxing mode : zlib
Codec ID : S_HDMV/PGS
Codec ID/Info : Picture based subtitle format used on BDs/HD-DVDs
Duration : 2 h 5 min
Bit rate : 632 b/s
Count of elements : 56
Stream size : 581 KiB (0%)
Title : Italian-PGS
Language : Italian
Default : No
Forced : No

Text #25
ID : 40
Format : PGS
Muxing mode : zlib
Codec ID : S_HDMV/PGS
Codec ID/Info : Picture based subtitle format used on BDs/HD-DVDs
Duration : 2 h 5 min
Bit rate : 276 b/s
Count of elements : 26
Stream size : 254 KiB (0%)
Title : Spanish-PGS
Language : Spanish
Default : No
Forced : No

Text #26
ID : 41
Format : PGS
Muxing mode : zlib
Codec ID : S_HDMV/PGS
Codec ID/Info : Picture based subtitle format used on BDs/HD-DVDs
Duration : 2 h 2 min
Bit rate : 672 b/s
Count of elements : 54
Stream size : 603 KiB (0%)
Title : Spanish-PGS
Language : Spanish
Default : No
Forced : No

Text #27
ID : 42
Format : PGS
Muxing mode : zlib
Codec ID : S_HDMV/PGS
Codec ID/Info : Picture based subtitle format used on BDs/HD-DVDs
Duration : 1 h 49 min
Bit rate : 628 b/s
Count of elements : 48
Stream size : 506 KiB (0%)
Title : Portuguese-PGS
Language : Portuguese
Default : No
Forced : No

Text #28
ID : 43
Format : PGS
Muxing mode : zlib
Codec ID : S_HDMV/PGS
Codec ID/Info : Picture based subtitle format used on BDs/HD-DVDs
Duration : 2 h 2 min
Bit rate : 1 064 b/s
Count of elements : 90
Stream size : 955 KiB (0%)
Title : Czech-PGS
Language : Czech
Default : No
Forced : No

Text #29
ID : 44
Format : PGS
Muxing mode : zlib
Codec ID : S_HDMV/PGS
Codec ID/Info : Picture based subtitle format used on BDs/HD-DVDs
Duration : 1 h 35 min
Bit rate : 81 b/s
Count of elements : 10
Stream size : 57.0 KiB (0%)
Title : Polish-PGS
Language : Polish
Default : No
Forced : No

Menu
00:00:00.000 : en:Chapter 1
00:13:01.447 : en:Chapter 2
00:20:36.276 : en:Chapter 3
00:29:30.393 : en:Chapter 4
00:38:44.655 : en:Chapter 5
00:49:33.679 : en:Chapter 6
01:00:05.435 : en:Chapter 7
01:13:39.706 : en:Chapter 8
01:25:57.068 : en:Chapter 9
01:39:15.658 : en:Chapter 10
01:54:31.155 : en:Chapter 11
02:01:40.251 : en:Chapter 12
movie BDRip Video
ID : 1
Format : HEVC
Format/Info : High Efficiency Video Coding
Format profile : Main 10@L5.1@High
Codec ID : V_MPEGH/ISO/HEVC
Duration : 2 h 7 min
Bit rate : 17.1 Mb/s
Width : 3 840 pixels
Height : 1 600 pixels
Display aspect ratio : 2.40:1
Frame rate mode : Constant
Frame rate : 23.976 (24000/1001) FPS
Color space : YUV
Chroma subsampling : 4:2:0 (Type 2)
Bit depth : 10 bits
Bits/(Pixel*Frame) : 0.116
Stream size : 15.3 GiB (84%)
Title : The.Accountant.2016.2160p.BluRay.x265.10bit.HDR.DTS-HD.MA.7.1-SWTYBLZ
Writing library : x265 2.5+4-b4a5bcfe29c7:[Windows][GCC 4.9.3][64 bit] 10bit
Encoding settings : cpuid=1173503 / frame-threads=16 / numa-pools=24,24,24,24 / wpp / no-pmode / no-pme / no-psnr / no-ssim / log-level=2 / input-csp=1 / input-res=3840x1600 / interlace=0 / total-frames=0 / level-idc=51 / high-tier=1 / uhd-bd=0 / ref=3 / no-allow-non-conformance / repeat-headers / annexb / aud / hrd / info / hash=0 / no-temporal-layers / no-open-gop / min-keyint=1 / keyint=24 / bframes=4 / b-adapt=2 / b-pyramid / bframe-bias=0 / rc-lookahead=25 / lookahead-slices=4 / scenecut=40 / no-intra-refresh / ctu=64 / min-cu-size=8 / no-rect / no-amp / max-tu-size=32 / tu-inter-depth=1 / tu-intra-depth=1 / limit-tu=0 / rdoq-level=0 / dynamic-rd=0.00 / no-ssim-rd / signhide / no-tskip / nr-intra=0 / nr-inter=0 / no-constrained-intra / strong-intra-smoothing / max-merge=2 / limit-refs=3 / no-limit-modes / me=1 / subme=2 / merange=57 / temporal-mvp / weightp / no-weightb / no-analyze-src-pics / deblock=0:0 / no-sao / no-sao-non-deblock / rd=3 / no-early-skip / rskip / no-fast-intra / no-tskip-fast / no-cu-lossless / no-b-intra / rdpenalty=0 / psy-rd=2.00 / psy-rdoq=0.00 / no-rd-refine / analysis-reuse-mode=0 / no-lossless / cbqpoffs=0 / crqpoffs=0 / rc=crf / crf=16.0 / qcomp=0.60 / qpstep=4 / stats-write=0 / stats-read=0 / vbv-maxrate=160000 / vbv-bufsize=160000 / vbv-init=0.9 / crf-max=0.0 / crf-min=0.0 / ipratio=1.40 / pbratio=1.30 / aq-mode=1 / aq-strength=1.00 / cutree / zone-count=0 / no-strict-cbr / qg-size=32 / no-rc-grain / qpmax=69 / qpmin=0 / no-const-vbv / sar=1 / overscan=0 / videoformat=5 / range=0 / colorprim=9 / transfer=16 / colormatrix=9 / chromaloc=1 / chromaloc-top=2 / chromaloc-bottom=2 / display-window=0 / master-display=G(13250,34500)B(7500,3000)R(34000,16000)WP(15635,16450)L(40000000,50) / max-cll=605,89 / min-luma=0 / max-luma=1023 / log2-max-poc-lsb=8 / vui-timing-info / vui-hrd-info / slices=1 / opt-qp-pps / opt-ref-list-length-pps / no-multi-pass-opt-rps / scenecut-bias=0.05 / no-opt-cu-delta-qp / no-aq-motion / hdr / hdr-opt / no-dhdr10-opt / analysis-reuse-level=5 / scale-factor=0 / refine-intra=0 / refine-inter=0 / refine-mv=0 / no-limit-sao / ctu-info=0
Default : Yes
Forced : No
Color range : Limited
Color primaries : BT.2020
Transfer characteristics : PQ
Matrix coefficients : BT.2020 non-constant
Mastering display color primaries : R: x=0.680000 y=0.320000, G: x=0.265000 y=0.690000, B: x=0.150000 y=0.060000, White point: x=0.312700 y=0.329000
Mastering display luminance : min: 0.0050 cd/m2, max: 4000.0000 cd/m2
Maximum Content Light Level : 605 cd/m2
Maximum Frame-Average Light Level : 89 cd/m2

Audio #1
ID : 2
Format : DTS
Format/Info : Digital Theater Systems
Format profile : MA / Core
Codec ID : A_DTS
Duration : 2 h 7 min
Bit rate mode : Variable / Constant
Bit rate : 2 538 kb/s / 1 509 kb/s
Channel(s) : 8 channels / 6 channels
Channel positions : Front: L C R, Side: L R, Back: L R, LFE / Front: L C R, Side: L R, LFE
Sampling rate : 48.0 kHz
Frame rate : 93.750 FPS (512 SPF)
Bit depth : 16 bits
Compression mode : Lossless / Lossy
Stream size : 2.27 GiB (12%)
Title : The.Accountant.2016.2160p.BluRay.x265.10bit.HDR.DTS-HD.MA.7.1-SWTYBLZ
Language : English
Default : Yes
Forced : No

Audio #2
ID : 3
Format : AC-3
Format/Info : Audio Coding 3
Codec ID : A_AC3
Duration : 2 h 7 min
Bit rate mode : Constant
Bit rate : 640 kb/s
Channel(s) : 6 channels
Channel positions : Front: L C R, Side: L R, LFE
Sampling rate : 48.0 kHz
Frame rate : 31.250 FPS (1536 SPF)
Bit depth : 16 bits
Compression mode : Lossy
Stream size : 585 MiB (3%)
Title : The.Accountant.2016.2160p.BluRay.x265.10bit.HDR.DTS-HD.MA.7.1-SWTYBLZ
Language : English
Service kind : Complete Main
Default : No
Forced : No

Text #1
ID : 4
Format : UTF-8
Codec ID : S_TEXT/UTF8
Codec ID/Info : UTF-8 Plain Text
Duration : 1 h 58 min
Bit rate : 54 b/s
Count of elements : 1495
Stream size : 47.5 KiB (0%)
Title : English-SRT
Language : English
Default : Yes
Forced : No

Text #2
ID : 5
Format : PGS
Muxing mode : zlib
Codec ID : S_HDMV/PGS
Codec ID/Info : Picture based subtitle format used on BDs/HD-DVDs
Duration : 2 h 7 min
Bit rate : 34.5 kb/s
Count of elements : 3404
Stream size : 31.4 MiB (0%)
Title : English-PGS
Language : English
Default : No
Forced : No

Text #3
ID : 6
Format : PGS
Muxing mode : zlib
Codec ID : S_HDMV/PGS
Codec ID/Info : Picture based subtitle format used on BDs/HD-DVDs
Duration : 1 h 58 min
Bit rate : 21.9 kb/s
Count of elements : 3492
Stream size : 18.6 MiB (0%)
Title : Japanese-PGS
Language : Japanese
Default : No
Forced : No

Text #4
ID : 7
Format : PGS
Muxing mode : zlib
Codec ID : S_HDMV/PGS
Codec ID/Info : Picture based subtitle format used on BDs/HD-DVDs
Duration : 1 h 53 min
Bit rate : 668 b/s
Count of elements : 288
Stream size : 556 KiB (0%)
Title : Japanese-PGS
Language : Japanese
Default : No
Forced : No

Text #5
ID : 8
Format : PGS
Muxing mode : zlib
Codec ID : S_HDMV/PGS
Codec ID/Info : Picture based subtitle format used on BDs/HD-DVDs
Duration : 2 h 7 min
Bit rate : 26.6 kb/s
Count of elements : 3020
Stream size : 24.2 MiB (0%)
Title : French-PGS
Language : French
Default : No
Forced : No

Text #6
ID : 9
Format : PGS
Muxing mode : zlib
Codec ID : S_HDMV/PGS
Codec ID/Info : Picture based subtitle format used on BDs/HD-DVDs
Duration : 2 h 7 min
Bit rate : 38.7 kb/s
Count of elements : 3476
Stream size : 35.2 MiB (0%)
Title : German-PGS
Language : German
Default : No
Forced : No

Text #7
ID : 10
Format : PGS
Muxing mode : zlib
Codec ID : S_HDMV/PGS
Codec ID/Info : Picture based subtitle format used on BDs/HD-DVDs
Duration : 2 h 7 min
Bit rate : 32.5 kb/s
Count of elements : 3472
Stream size : 29.6 MiB (0%)
Title : Italian-PGS
Language : Italian
Default : No
Forced : No

Text #8
ID : 11
Format : PGS
Muxing mode : zlib
Codec ID : S_HDMV/PGS
Codec ID/Info : Picture based subtitle format used on BDs/HD-DVDs
Duration : 2 h 7 min
Bit rate : 30.3 kb/s
Count of elements : 3048
Stream size : 27.5 MiB (0%)
Title : Spanish-PGS
Language : Spanish
Default : No
Forced : No

Text #9
ID : 12
Format : PGS
Muxing mode : zlib
Codec ID : S_HDMV/PGS
Codec ID/Info : Picture based subtitle format used on BDs/HD-DVDs
Duration : 2 h 7 min
Bit rate : 25.6 kb/s
Count of elements : 2548
Stream size : 23.3 MiB (0%)
Title : Dutch-PGS
Language : Dutch
Default : No
Forced : No

Text #10
ID : 13
Format : PGS
Muxing mode : zlib
Codec ID : S_HDMV/PGS
Codec ID/Info : Picture based subtitle format used on BDs/HD-DVDs
Duration : 2 h 7 min
Bit rate : 30.1 kb/s
Count of elements : 3082
Stream size : 27.4 MiB (0%)
Title : Chinese-PGS
Language : Chinese
Default : No
Forced : No

Text #11
ID : 14
Format : PGS
Muxing mode : zlib
Codec ID : S_HDMV/PGS
Codec ID/Info : Picture based subtitle format used on BDs/HD-DVDs
Duration : 2 h 7 min
Bit rate : 28.4 kb/s
Count of elements : 3078
Stream size : 25.8 MiB (0%)
Title : Chinese-PGS
Language : Chinese
Default : No
Forced : No

Text #12
ID : 15
Format : PGS
Muxing mode : zlib
Codec ID : S_HDMV/PGS
Codec ID/Info : Picture based subtitle format used on BDs/HD-DVDs
Duration : 2 h 7 min
Bit rate : 19.4 kb/s
Count of elements : 3038
Stream size : 17.6 MiB (0%)
Title : Korean-PGS
Language : Korean
Default : No
Forced : No

Text #13
ID : 16
Format : PGS
Muxing mode : zlib
Codec ID : S_HDMV/PGS
Codec ID/Info : Picture based subtitle format used on BDs/HD-DVDs
Duration : 2 h 7 min
Bit rate : 31.1 kb/s
Count of elements : 3086
Stream size : 28.3 MiB (0%)
Title : Spanish-PGS
Language : Spanish
Default : No
Forced : No

Text #14
ID : 17
Format : PGS
Muxing mode : zlib
Codec ID : S_HDMV/PGS
Codec ID/Info : Picture based subtitle format used on BDs/HD-DVDs
Duration : 2 h 7 min
Bit rate : 30.7 kb/s
Count of elements : 3062
Stream size : 27.9 MiB (0%)
Title : Portuguese-PGS
Language : Portuguese
Default : No
Forced : No

Text #15
ID : 18
Format : PGS
Muxing mode : zlib
Codec ID : S_HDMV/PGS
Codec ID/Info : Picture based subtitle format used on BDs/HD-DVDs
Duration : 2 h 7 min
Bit rate : 17.4 kb/s
Count of elements : 3096
Stream size : 15.9 MiB (0%)
Title : Arabic-PGS
Language : Arabic
Default : No
Forced : No

Text #16
ID : 19
Format : PGS
Muxing mode : zlib
Codec ID : S_HDMV/PGS
Codec ID/Info : Picture based subtitle format used on BDs/HD-DVDs
Duration : 2 h 7 min
Bit rate : 29.1 kb/s
Count of elements : 3102
Stream size : 26.5 MiB (0%)
Title : Czech-PGS
Language : Czech
Default : No
Forced : No

Text #17
ID : 20
Format : PGS
Muxing mode : zlib
Codec ID : S_HDMV/PGS
Codec ID/Info : Picture based subtitle format used on BDs/HD-DVDs
Duration : 2 h 7 min
Bit rate : 29.0 kb/s
Count of elements : 2380
Stream size : 26.4 MiB (0%)
Title : Danish-PGS
Language : Danish
Default : No
Forced : No

Text #18
ID : 21
Format : PGS
Muxing mode : zlib
Codec ID : S_HDMV/PGS
Codec ID/Info : Picture based subtitle format used on BDs/HD-DVDs
Duration : 2 h 7 min
Bit rate : 26.2 kb/s
Count of elements : 3052
Stream size : 23.8 MiB (0%)
Title : Finnish-PGS
Language : Finnish
Default : No
Forced : No

Text #19
ID : 22
Format : PGS
Muxing mode : zlib
Codec ID : S_HDMV/PGS
Codec ID/Info : Picture based subtitle format used on BDs/HD-DVDs
Duration : 2 h 7 min
Bit rate : 27.6 kb/s
Count of elements : 2668
Stream size : 25.1 MiB (0%)
Title : Norwegian-PGS
Language : Norwegian
Default : No
Forced : No

Text #20
ID : 23
Format : PGS
Muxing mode : zlib
Codec ID : S_HDMV/PGS
Codec ID/Info : Picture based subtitle format used on BDs/HD-DVDs
Duration : 2 h 7 min
Bit rate : 23.6 kb/s
Count of elements : 2864
Stream size : 21.5 MiB (0%)
Title : Polish-PGS
Language : Polish
Default : No
Forced : No

Text #21
ID : 24
Format : PGS
Muxing mode : zlib
Codec ID : S_HDMV/PGS
Codec ID/Info : Picture based subtitle format used on BDs/HD-DVDs
Duration : 2 h 7 min
Bit rate : 28.8 kb/s
Count of elements : 3042
Stream size : 26.2 MiB (0%)
Title : Swedish-PGS
Language : Swedish
Default : No
Forced : No

Text #22
ID : 25
Format : PGS
Muxing mode : zlib
Codec ID : S_HDMV/PGS
Codec ID/Info : Picture based subtitle format used on BDs/HD-DVDs
Duration : 2 h 2 min
Bit rate : 305 b/s
Count of elements : 22
Stream size : 274 KiB (0%)
Title : French-PGS
Language : French
Default : No
Forced : No

Text #23
ID : 26
Format : PGS
Muxing mode : zlib
Codec ID : S_HDMV/PGS
Codec ID/Info : Picture based subtitle format used on BDs/HD-DVDs
Duration : 2 h 5 min
Bit rate : 337 b/s
Count of elements : 30
Stream size : 311 KiB (0%)
Title : French-PGS
Language : French
Default : No
Forced : No

Text #24
ID : 27
Format : PGS
Muxing mode : zlib
Codec ID : S_HDMV/PGS
Codec ID/Info : Picture based subtitle format used on BDs/HD-DVDs
Duration : 2 h 5 min
Bit rate : 180 b/s
Count of elements : 16
Stream size : 166 KiB (0%)
Title : German-PGS
Language : German
Default : No
Forced : No

Text #25
ID : 28
Format : PGS
Muxing mode : zlib
Codec ID : S_HDMV/PGS
Codec ID/Info : Picture based subtitle format used on BDs/HD-DVDs
Duration : 2 h 5 min
Bit rate : 632 b/s
Count of elements : 56
Stream size : 581 KiB (0%)
Title : Italian-PGS
Language : Italian
Default : No
Forced : No

Text #26
ID : 29
Format : PGS
Muxing mode : zlib
Codec ID : S_HDMV/PGS
Codec ID/Info : Picture based subtitle format used on BDs/HD-DVDs
Duration : 2 h 5 min
Bit rate : 276 b/s
Count of elements : 26
Stream size : 254 KiB (0%)
Title : Spanish-PGS
Language : Spanish
Default : No
Forced : No

Text #27
ID : 30
Format : PGS
Muxing mode : zlib
Codec ID : S_HDMV/PGS
Codec ID/Info : Picture based subtitle format used on BDs/HD-DVDs
Duration : 2 h 2 min
Bit rate : 672 b/s
Count of elements : 54
Stream size : 603 KiB (0%)
Title : Spanish-PGS
Language : Spanish
Default : No
Forced : No

Text #28
ID : 31
Format : PGS
Muxing mode : zlib
Codec ID : S_HDMV/PGS
Codec ID/Info : Picture based subtitle format used on BDs/HD-DVDs
Duration : 1 h 49 min
Bit rate : 628 b/s
Count of elements : 48
Stream size : 506 KiB (0%)
Title : Portuguese-PGS
Language : Portuguese
Default : No
Forced : No

Text #29
ID : 32
Format : PGS
Muxing mode : zlib
Codec ID : S_HDMV/PGS
Codec ID/Info : Picture based subtitle format used on BDs/HD-DVDs
Duration : 2 h 2 min
Bit rate : 1 064 b/s
Count of elements : 90
Stream size : 955 KiB (0%)
Title : Czech-PGS
Language : Czech
Default : No
Forced : No

Text #30
ID : 33
Format : PGS
Muxing mode : zlib
Codec ID : S_HDMV/PGS
Codec ID/Info : Picture based subtitle format used on BDs/HD-DVDs
Duration : 1 h 35 min
Bit rate : 81 b/s
Count of elements : 10
Stream size : 57.0 KiB (0%)
Title : Polish-PGS
Language : Polish
Default : No
Forced : No

Menu
00:00:00.000 : en:Chapter 1
00:13:01.447 : en:Chapter 2
00:20:36.276 : en:Chapter 3
00:29:30.393 : en:Chapter 4
00:38:44.655 : en:Chapter 5
00:49:33.679 : en:Chapter 6
01:00:05.435 : en:Chapter 7
01:13:39.706 : en:Chapter 8
01:25:57.068 : en:Chapter 9
01:39:15.658 : en:Chapter 10
01:54:31.155 : en:Chapter 11
02:01:40.251 : en:Chapter 12

Download

download 4k hdr movies download 4k hdr movies

The Accountant 4K 2016 Ultra HD 2160p


Watch a movie trailer - The Accountant 4K 2016 Ultra HD 2160p
Comments and Feedback
Add your comment:
Your name:
Your E-Mail:
Code:
reload, if the code cannot be seen
Enter code: