Select movie Search movie Close search My Account

Death Wish 4K 2018 Ultra HD 2160p

Death Wish 4K 2018 Ultra HD 2160p
BDRemux / BDRip
Country: USA
Time: 1h 47min
IMDB: 6.4
Director: Eli Roth
Actors: Bruce Willis, Vincent D'Onofrio, Elisabeth Shue, Camila Morrone, Dean Norris, Beau Knapp, Kimberly Elise, Len Cariou Len, Jack Kesy, Ronnie Gene Blevins, Kirby Bliss Blanton, Andreas Apergis, Ian Matthews, Wendy Crewson, Warona Setshwaelo

Story Movie

Death Wish 4K 2018 Ultra HD 2160p
The plot of the film Death Wish 4k movie download site from the very first minutes begins to develop rapidly. A well-known surgeon, the protagonist of this film, was not used to putting up with injustice in his life. He always helped people, no matter who they were and pulled them out of the world. But when his wife and daughter die as a result of criminal quarrels, and the cops do not want to move even with their fingers, Pop Kersey himself becomes an avenger and makes a bloody payment.

Review 4K Movie

Some things can not be explained. How did the man appear? How were the pyramids constructed? And why do I, after so many disappointments, still give Eliha Roth another chance and watch his new film? For his filmography, I've been watching for a long time and do not say that it is something exceptional - his best work for all time, I believe, was the trailer "Thanksgiving" from the "Grindhouse" Tarantino / Rodriguez. But it can not be said that the guy is devoid of talent, he just did not seem to know how to properly use it. And what was my surprise after watching his last, at the moment, project, "The Thirst for Death," where almost everything I'd expected from Eli all these years, he presented on the screen.

"Death Wish" 4k movie download site
BDRemux: is a remake of a cult band from the 70's with Charles Bronson, who in the new version was replaced by Bruce Willis, who for some time gives a commendable performance. Just note that the comparison with the original in this review will not be, because I'm just not familiar with it. Plus, I immediately warn all viewers who, when starting with viewing, hope to see here some twisted and complex plot. At the heart of the film is absolutely typical story about the revenge of the main character for the pain inflicted on his close ones. To scold for this, in my opinion, is stupid, because from any story you can make an interesting movie, it all depends on the filing. And with this, Eli Roth coped very skillfully - from the very beginning the picture captures the viewer in tension, the frames often look damn stylish, and, what is most striking, the film is full of emotional weight, the characters are sympathetic and even worried for them. And this is after the "Green Hell", where you just want a speedy death to all the characters of the tape.

I really liked that the situation in the film is viewed from different sides and opinions, and it is done very competently - it gives some food for thought and makes the cinema at times more enthralling, while the makers of the tape never take one clear position. From this, the film becomes more multifaceted than it really is. The police here are not hopeless idiots, as we often see in such pictures, they are trying to solve the case, but external factors do not always allow it. And the protagonist is not the savior of the world at all, but only a person who has survived a great grief, and now acts as he thinks is right. And only bandits are absolute villains.

The painting pays homage to a lot of similar tapes from the 70's and 80's and this is felt throughout the film, which gives aesthetic pleasure. There are a lot of characters here, almost everyone is given enough time to open up and everyone is able to fall in love with the viewer, so you spend time in joy. You want to spend time with these characters, and the movie takes place almost in one breath, no hanging was noticed. This is a fairly easy movie, for which you do not have time to get bored. However, unfortunately, this is also the Achilles' heel of the film - it has enough different directing and camera solutions to get pleasure, but this is not always enough to really stay in memory, leave a mark in the viewer's head. After a while, there is hardly much to remember from the movie. And yet, "Death Wish" Ultra HD still deserves a chance. I'm sure this movie will be to the liking of many.

Mediainfo

movie BDRemux Video
ID : 1
Format : HEVC
Format/Info : High Efficiency Video Coding
Commercial name : HDR10
Format profile : Main 10@L5.1@High
Codec ID : V_MPEGH/ISO/HEVC
Duration : 1 h 47 min
Bit rate : 73.0 Mb/s
Width : 3 840 pixels
Height : 2 160 pixels
Display aspect ratio : 16:9
Frame rate mode : Constant
Frame rate : 24.000 FPS
Standard : Component
Color space : YUV
Chroma subsampling : 4:2:0 (Type 2)
Bit depth : 10 bits
Bits/(Pixel*Frame) : 0.367
Stream size : 55.0 GiB (95%)
Title : Death.Wish.2018.2160p.BluRay.REMUX.HEVC.DTS-HD.MA.5.1
Default : Yes
Forced : No
Color range : Limited
Color primaries : BT.2020
Transfer characteristics : PQ
Matrix coefficients : BT.2020 non-constant
Mastering display color primaries : Display P3
Mastering display luminance : min: 0.0000 cd/m2, max: 1000 cd/m2
Maximum Content Light Level : 1000 cd/m2
Maximum Frame-Average Light Level : 13 cd/m2

Audio #1
ID : 2
Format : DTS
Format/Info : Digital Theater Systems
Format profile : MA / Core
Codec ID : A_DTS
Duration : 1 h 47 min
Bit rate mode : Variable / Constant
Bit rate : 1 920 kb/s / 1 509 kb/s
Channel(s) : 6 channels
Channel positions : Front: L C R, Side: L R, LFE
Sampling rate : 48.0 kHz
Frame rate : 93.750 FPS (512 SPF)
Bit depth : 16 bits
Compression mode : Lossless / Lossy
Stream size : 1.47 GiB (3%)
Title : Death.Wish.2018.2160p.BluRay.REMUX.HEVC.DTS-HD.MA.5.1
Language : English
Default : Yes
Forced : No

Audio #2
ID : 3
Format : DTS
Format/Info : Digital Theater Systems
Format profile : MA / Core
Codec ID : A_DTS
Duration : 1 h 47 min
Bit rate mode : Variable / Constant
Bit rate : 2 048 kb/s / 1 509 kb/s
Channel(s) : 6 channels
Channel positions : Front: L C R, Side: L R, LFE
Sampling rate : 48.0 kHz
Frame rate : 93.750 FPS (512 SPF)
Bit depth : 16 bits
Compression mode : Lossless / Lossy
Stream size : 1.53 GiB (3%)
Title : Death.Wish.2018.2160p.BluRay.REMUX.HEVC.DTS-HD.MA.5.1
Language : Italian
Default : No
Forced : No

Text #1
ID : 4
Format : PGS
Muxing mode : zlib
Codec ID : S_HDMV/PGS
Codec ID/Info : Picture based subtitle format used on BDs/HD-DVDs
Duration : 1 h 40 min
Bit rate : 33.2 kb/s
Count of elements : 2572
Stream size : 23.8 MiB (0%)
Title : Italian-PGS
Language : Italian
Default : No
Forced : No

Text #2
ID : 5
Format : PGS
Muxing mode : zlib
Codec ID : S_HDMV/PGS
Codec ID/Info : Picture based subtitle format used on BDs/HD-DVDs
Duration : 1 h 11 min
Bit rate : 706 b/s
Count of elements : 34
Stream size : 371 KiB (0%)
Title : Italian-FORCED-PGS
Language : Italian
Default : No
Forced : No

Menu
00:00:00.000 : en:Chapter 1
00:10:19.708 : en:Chapter 2
00:17:42.750 : en:Chapter 3
00:26:36.958 : en:Chapter 4
00:35:56.375 : en:Chapter 5
00:44:32.041 : en:Chapter 6
00:52:49.416 : en:Chapter 7
01:01:22.000 : en:Chapter 8
01:12:10.916 : en:Chapter 9
01:20:04.666 : en:Chapter 10
01:28:57.250 : en:Chapter 11
01:39:45.958 : en:Chapter 12
movie BDRip Video
ID : 1
Format : HEVC
Format/Info : High Efficiency Video Coding
Commercial name : HDR10
Format profile : Main 10@L5.1@High
Codec ID : V_MPEGH/ISO/HEVC
Duration : 1 h 47 min
Width : 3 840 pixels
Height : 1 600 pixels
Display aspect ratio : 2.40:1
Frame rate mode : Constant
Frame rate : 23.976 (24000/1001) FPS
Color space : YUV
Chroma subsampling : 4:2:0 (Type 2)
Bit depth : 10 bits
Writing library : x265 2.7+338-147b7dcee675:[Windows][GCC 6.3.0][64 bit] 10bit
Encoding settings : cpuid=1111039 / frame-threads=4 / numa-pools=16 / wpp / no-pmode / no-pme / no-psnr / no-ssim / log-level=2 / input-csp=1 / input-res=3840x1600 / interlace=0 / total-frames=155804 / level-idc=51 / high-tier=1 / uhd-bd=0 / ref=4 / no-allow-non-conformance / repeat-headers / annexb / aud / hrd / info / hash=0 / no-temporal-layers / no-open-gop / min-keyint=24 / keyint=240 / gop-lookahead=0 / bframes=4 / b-adapt=2 / b-pyramid / bframe-bias=0 / rc-lookahead=25 / lookahead-slices=4 / scenecut=40 / radl=0 / no-intra-refresh / ctu=64 / min-cu-size=8 / rect / no-amp / max-tu-size=32 / tu-inter-depth=1 / tu-intra-depth=1 / limit-tu=0 / rdoq-level=2 / dynamic-rd=0.00 / no-ssim-rd / signhide / no-tskip / nr-intra=0 / nr-inter=0 / no-constrained-intra / no-strong-intra-smoothing / max-merge=3 / limit-refs=3 / limit-modes / me=3 / subme=3 / merange=57 / temporal-mvp / weightp / no-weightb / no-analyze-src-pics / deblock=-3:-3 / no-sao / no-sao-non-deblock / rd=4 / no-early-skip / rskip / no-fast-intra / no-tskip-fast / no-cu-lossless / no-b-intra / no-splitrd-skip / rdpenalty=0 / psy-rd=2.00 / psy-rdoq=1.00 / no-rd-refine / no-lossless / cbqpoffs=0 / crqpoffs=0 / rc=crf / crf=17.0 / qcomp=0.60 / qpstep=4 / stats-write=0 / stats-read=0 / vbv-maxrate=160000 / vbv-bufsize=160000 / vbv-init=0.9 / crf-max=0.0 / crf-min=0.0 / ipratio=1.40 / pbratio=1.30 / aq-mode=1 / aq-strength=1.00 / cutree / zone-count=0 / no-strict-cbr / qg-size=32 / no-rc-grain / qpmax=69 / qpmin=0 / no-const-vbv / sar=1 / overscan=0 / videoformat=5 / range=0 / colorprim=9 / transfer=16 / colormatrix=9 / chromaloc=1 / chromaloc-top=2 / chromaloc-bottom=2 / display-window=0 / master-display=G(13250,34500)B(7500,3000)R(34000,16000)WP(15635,16450)L(40000000,50) / max-cll=1098,979 / min-luma=0 / max-luma=1023 / log2-max-poc-lsb=8 / vui-timing-info / vui-hrd-info / slices=1 / opt-qp-pps / opt-ref-list-length-pps / no-multi-pass-opt-rps / scenecut-bias=0.05 / no-opt-cu-delta-qp / no-aq-motion / hdr / hdr-opt / no-dhdr10-opt / no-idr-recovery-sei / analysis-reuse-level=5 / scale-factor=0 / refine-intra=0 / refine-inter=0 / refine-mv=0 / no-limit-sao / ctu-info=0 / no-lowpass-dct / refine-mv-type=0 / copy-pic=1 / max-ausize-factor=1.0 / no-dynamic-refine / no-single-sei
Default : Yes
Forced : No
Color range : Limited
Color primaries : BT.2020
Transfer characteristics : PQ
Matrix coefficients : BT.2020 non-constant
Statistics Tags Issue : no_variable_data 1970-01-01 00:00:00 / no_variable_data 2010-02-22 21:41:29
FromStats_BitRate : 9033095
FromStats_Duration : 01:47:42.581000000
FromStats_FrameCount : 154947
FromStats_StreamSize : 7297139074
Mastering display color primaries : Display P3
Mastering display luminance : min: 0.0050 cd/m2, max: 4000 cd/m2
Maximum Content Light Level : 1098 cd/m2
Maximum Frame-Average Light Level : 979 cd/m2

Audio #1
ID : 2
Format : DTS
Format/Info : Digital Theater Systems
Format profile : MA / Core
Codec ID : A_DTS
Duration : 1 h 47 min
Bit rate mode : Variable / Constant
Bit rate : Unknown / 1 509 kb/s
Channel(s) : 6 channels
Channel positions : Front: L C R, Side: L R, LFE
Sampling rate : 48.0 kHz
Frame rate : 93.750 FPS (512 SPF)
Bit depth : 24 bits
Compression mode : Lossless / Lossy
Title : DTS-HD MA 5.1
Language : English
Default : No
Forced : No
Statistics Tags Issue : no_variable_data 1970-01-01 00:00:00 / no_variable_data 2010-02-22 21:41:29
FromStats_BitRate : 3572991
FromStats_Duration : 01:47:42.581000000
FromStats_FrameCount : 605867
FromStats_StreamSize : 2886343460

Audio #2
ID : 3
Format : DTS
Format/Info : Digital Theater Systems
Codec ID : A_DTS
Duration : 1 h 47 min
Bit rate mode : Constant
Bit rate : 318 kb/s
Channel(s) : 2 channels
Channel positions : Front: L R
Sampling rate : 48.0 kHz
Frame rate : 93.750 FPS (512 SPF)
Bit depth : 24 bits
Compression mode : Lossy
Stream size : 245 MiB (2%)
Title : Commentary with Director Eli Roth and Producer Roger Birnbaum
Language : English
Default : No
Forced : No
Statistics Tags Issue : no_variable_data 1970-01-01 00:00:00 / no_variable_data 2010-02-22 21:41:29
FromStats_BitRate : 317999
FromStats_Duration : 01:47:42.582000000
FromStats_FrameCount : 605867
FromStats_StreamSize : 256887608

Text #1
ID : 4
Format : UTF-8
Codec ID : S_TEXT/UTF8
Codec ID/Info : UTF-8 Plain Text
Title : Stripped SRT
Language : English
Default : No
Forced : No
Statistics Tags Issue : no_variable_data 1970-01-01 00:00:00 / no_variable_data 2010-02-22 21:41:29
FromStats_BitRate : 66
FromStats_Duration : 01:40:28.772000000
FromStats_FrameCount : 1328
FromStats_StreamSize : 50007

Text #2
ID : 5
Format : UTF-8
Codec ID : S_TEXT/UTF8
Codec ID/Info : UTF-8 Plain Text
Title : SDH SRT
Language : English
Default : No
Forced : No
Statistics Tags Issue : no_variable_data 1970-01-01 00:00:00 / no_variable_data 2010-02-22 21:41:29
FromStats_BitRate : 71
FromStats_Duration : 01:44:18.920000000
FromStats_FrameCount : 1492
FromStats_StreamSize : 56188

Text #3
ID : 6
Format : PGS
Muxing mode : zlib
Codec ID : S_HDMV/PGS
Codec ID/Info : Picture based subtitle format used on BDs/HD-DVDs
Title : SDH
Language : English
Default : No
Forced : No
Statistics Tags Issue : no_variable_data 1970-01-01 00:00:00 / no_variable_data 2010-02-22 21:41:29
FromStats_BitRate : 34058
FromStats_Duration : 01:44:18.920000000
FromStats_FrameCount : 2984
FromStats_StreamSize : 26646314

Text #4
ID : 7
Format : PGS
Muxing mode : zlib
Codec ID : S_HDMV/PGS
Codec ID/Info : Picture based subtitle format used on BDs/HD-DVDs
Language : German
Default : No
Forced : No
Statistics Tags Issue : no_variable_data 1970-01-01 00:00:00 / no_variable_data 2010-02-22 21:41:29
FromStats_BitRate : 30064
FromStats_Duration : 01:40:28.439000000
FromStats_FrameCount : 2746
FromStats_StreamSize : 22655106

Menu
00:00:00.000 : en:Chapter 01
00:10:31.631 : en:Chapter 02
00:20:37.569 : en:Chapter 03
00:28:57.736 : en:Chapter 04
00:38:41.319 : en:Chapter 05
00:49:06.693 : en:Chapter 06
01:01:23.680 : en:Chapter 07
01:10:20.216 : en:Chapter 08
01:20:20.774 : en:Chapter 09
01:30:17.412 : en:Chapter 10
01:41:12.066 : en:Chapter 11

Download

download 4k hdr movies download 4k hdr movies

Watch a movie trailer - Death Wish 4K 2018 Ultra HD 2160p
Comments and Feedback
Add your comment:
Your name:
Your E-Mail:
Code:
reload, if the code cannot be seen
Enter code: