Select movie Search movie Close search My Account

Kin 4K 2018 Ultra HD 2160p

Kin 4K 2018 Ultra HD 2160p
BDRemux / BDRip
Country: USA
Time: 1h 42min
IMDB: 5.6
Director: Jonathan Baker, Josh Baker
Actors: Myles Truitt, Jack Reynor, Dennis Quaid, Zo? Kravitz, James Franco, Carrie Coon, Ian Matthews, Gavin Fox, Stephane Garneau-Monten, Lukas Penar, Carleigh Beverly, Lily Gao, Michael B. Jordan, Milton Barnes, Michael Grisley

Story Movie

Kin 4K 2018 Ultra HD 2160p

Kin 2160p bluray movie is a new teenage sci-fi thriller, the main purpose of which, it would seem, should be box office. But, if you look at the advertising campaign of this film, which is impossible, because it is simply not available, then you should think about how the film expects to at least pay off if only the most inveterate movie fan knows about its start in the movie

Review 4K Movie

It is rare to find a film that begins as a family drama, continues as a carefree road movie, and ends on a sci-fi note. Alas, Kin 2160p bluray movie, despite a similar technique of mixing genres, is a real mess - tonal shifts are perceived rather irritably. The Baker brothers and co-directors quickly lose control of their history: overall, Kin looks painfully boring with rare patches of cartoon-like stupid moments, and when the project does have a positive effect on the viewer, this is not for the reasons the creators intended. In other words, to summarize the impressions of Kin 4k, then in television format the tape could be a good start for a good series about alienated brothers on the run. In the full-length version, there is hardly anything in the film that is more substantial than the free fantasy about a black boy who has found a laser gun.

Kin UHD tells of one unfortunate working-class family somewhere in the backyards of America: Hal's single father has two sons. 14-year-old black Elijah - adopted son. The native son by the name of Jimmy is released from prison. The script spends a lot of time studying the problems of the family, recreating the connections between the characters, which could be really interesting if this aspect were really viewed from a dramatic point of view, and not as a plot link. It soon becomes clear that Jimmy owes money to local gangsters, which is why the brothers flee and go on a road trip.

The second act is opposite in spirit to the first. Jimmy and Elijah travel across the country, grab the most chaste stripper in cinema history along the way, and she accompanies the brothers. The boy also knows the power of alien technology in the form of some kind of laser gun, which the young man found in an abandoned warehouse. When he first activates it, not only bandits but also owners of mysterious weapons begin to hunt for the team.

As soon as the Kin script tries to develop its characters or focus on their inner world, the film immediately becomes incredibly dim. Heroes seem to be woven from conventions and contradictions. Jimmy is a hot daredevil who refuses to take responsibility for his actions, but naturally, as the plot moves, he will come to know the concept of sympathy. Elijah is a good child who has not committed serious crimes, which does not prevent him from shooting bandits from his wunderwaffe without the slightest remorse. The lack of psychological depth in the brothers is a disappointing factor, since the script spends a lot of time trying to convince the viewer precisely in the family-dramatic component of the plot.

Mediainfo

movie BDRemux Video #1
ID : 1
Format : HEVC
Format/Info : High Efficiency Video Coding
Commercial name : HDR10
Format profile : Main 10@L5.1@High
Codec ID : V_MPEGH/ISO/HEVC
Duration : 1 h 42 min
Bit rate : 64.7 Mb/s
Width : 3 840 pixels
Height : 2 160 pixels
Display aspect ratio : 16:9
Frame rate mode : Constant
Frame rate : 23.976 (24000/1001) FPS
Color space : YUV
Chroma subsampling : 4:2:0 (Type 2)
Bit depth : 10 bits
Bits/(Pixel*Frame) : 0.326
Stream size : 46.4 GiB (81%)
Title : Kin.2018.2160p.BluRay.REMUX.HEVC.DTS-X.7.1
Default : Yes
Forced : No
Color range : Limited
Color primaries : BT.2020
Transfer characteristics : PQ
Matrix coefficients : BT.2020 non-constant
Mastering display color primaries : Display P3
Mastering display luminance : min: 0.0001 cd/m2, max: 1000 cd/m2
Maximum Content Light Level : 1000 cd/m2
Maximum Frame-Average Light Level : 689 cd/m2


Video #2
ID : 2
Format : HEVC
Format/Info : High Efficiency Video Coding
Commercial name : HDR10
Format profile : Main 10@L5.1@High
Codec ID : V_MPEGH/ISO/HEVC
Duration : 1 h 42 min
Bit rate : 7 661 kb/s
Width : 1 920 pixels
Height : 1 080 pixels
Display aspect ratio : 16:9
Frame rate mode : Constant
Frame rate : 23.976 (24000/1001) FPS
Color space : YUV
Chroma subsampling : 4:2:0 (Type 2)
Bit depth : 10 bits
Bits/(Pixel*Frame) : 0.154
Stream size : 5.49 GiB (10%)
Title : Kin.2018.2160p.BluRay.REMUX.HEVC.DTS-X.7.1
Default : No
Forced : No
Color range : Limited
Color primaries : BT.2020
Transfer characteristics : PQ
Matrix coefficients : BT.2020 non-constant
Mastering display color primaries : Display P3
Mastering display luminance : min: 0.0001 cd/m2, max: 1000 cd/m2

Audio #1
ID : 3
Format : DTS XLL X
Format/Info : Digital Theater Systems
Commercial name : DTS-HD Master Audio
Codec ID : A_DTS
Duration : 1 h 42 min
Bit rate mode : Variable
Bit rate : 6 347 kb/s
Channel(s) : 8 channels
Channel(s)_Original : Object Based
Channel layout : Object Based
Sampling rate : 48.0 kHz
Frame rate : 93.750 FPS (512 SPF)
Bit depth : 24 bits
Stream size : 4.55 GiB (8%)
Title : Kin.2018.2160p.BluRay.REMUX.HEVC.DTS-X.7.1
Language : English
Default : Yes
Forced : No

Audio #2
ID : 4
Format : AC-3
Format/Info : Audio Coding 3
Commercial name : Dolby Digital
Codec ID : A_AC3
Duration : 1 h 42 min
Bit rate mode : Constant
Bit rate : 224 kb/s
Channel(s) : 2 channels
Channel layout : L R
Sampling rate : 48.0 kHz
Frame rate : 31.250 FPS (1536 SPF)
Bit depth : 16 bits
Compression mode : Lossy
Stream size : 164 MiB (0%)
Title : Kin.2018.2160p.BluRay.REMUX.HEVC.DTS-X.7.1
Language : English
Service kind : Complete Main
Default : No
Forced : No

Audio #3
ID : 5
Format : AC-3
Format/Info : Audio Coding 3
Commercial name : Dolby Digital
Codec ID : A_AC3
Duration : 1 h 42 min
Bit rate mode : Constant
Bit rate : 640 kb/s
Channel(s) : 6 channels
Channel layout : L R C LFE Ls Rs
Sampling rate : 48.0 kHz
Frame rate : 31.250 FPS (1536 SPF)
Bit depth : 16 bits
Compression mode : Lossy
Stream size : 470 MiB (1%)
Title : Kin.2018.2160p.BluRay.REMUX.HEVC.DTS-X.7.1
Language : Spanish
Service kind : Complete Main
Default : No
Forced : No

Audio #4
ID : 6
Format : AC-3
Format/Info : Audio Coding 3
Commercial name : Dolby Digital
Codec ID : A_AC3
Duration : 1 h 42 min
Bit rate mode : Constant
Bit rate : 224 kb/s
Channel(s) : 2 channels
Channel layout : L R
Sampling rate : 48.0 kHz
Frame rate : 31.250 FPS (1536 SPF)
Bit depth : 16 bits
Compression mode : Lossy
Stream size : 164 MiB (0%)
Title : Kin.2018.2160p.BluRay.REMUX.HEVC.DTS-X.7.1
Language : English
Service kind : Complete Main
Default : No
Forced : No

Audio #5
ID : 7
Format : AC-3
Format/Info : Audio Coding 3
Commercial name : Dolby Digital
Codec ID : A_AC3
Duration : 1 h 42 min
Bit rate mode : Constant
Bit rate : 224 kb/s
Channel(s) : 2 channels
Channel layout : L R
Sampling rate : 48.0 kHz
Frame rate : 31.250 FPS (1536 SPF)
Bit depth : 16 bits
Compression mode : Lossy
Stream size : 164 MiB (0%)
Title : Kin.2018.2160p.BluRay.REMUX.HEVC.DTS-X.7.1
Language : English
Service kind : Complete Main
Default : No
Forced : No

Text #1
ID : 8
Format : UTF-8
Codec ID : S_TEXT/UTF8
Codec ID/Info : UTF-8 Plain Text
Duration : 1 h 34 min
Bit rate : 39 b/s
Count of elements : 1068
Stream size : 27.7 KiB (0%)
Title : English-SRT
Language : English
Default : Yes
Forced : No

Text #2
ID : 9
Format : PGS
Muxing mode : zlib
Codec ID : S_HDMV/PGS
Codec ID/Info : Picture based subtitle format used on BDs/HD-DVDs
Duration : 1 h 34 min
Bit rate : 28.3 kb/s
Count of elements : 2144
Stream size : 19.2 MiB (0%)
Title : English-PGS
Language : English
Default : No
Forced : No

Text #3
ID : 10
Format : PGS
Muxing mode : zlib
Codec ID : S_HDMV/PGS
Codec ID/Info : Picture based subtitle format used on BDs/HD-DVDs
Duration : 1 h 35 min
Bit rate : 34.8 kb/s
Count of elements : 2586
Stream size : 23.9 MiB (0%)
Title : English-SDH-PGS
Language : English
Default : No
Forced : No

Text #4
ID : 11
Format : PGS
Muxing mode : zlib
Codec ID : S_HDMV/PGS
Codec ID/Info : Picture based subtitle format used on BDs/HD-DVDs
Duration : 1 h 34 min
Bit rate : 25.5 kb/s
Count of elements : 2030
Stream size : 17.3 MiB (0%)
Title : Spanish-PGS
Language : Spanish
Default : No
Forced : No

Menu
00:00:00.000 : :Chapter 1
00:07:23.734 : :Chapter 2
00:12:34.712 : :Chapter 3
00:20:44.451 : :Chapter 4
00:27:27.812 : :Chapter 5
00:31:57.123 : :Chapter 6
00:36:39.780 : :Chapter 7
00:41:57.848 : :Chapter 8
00:50:09.548 : :Chapter 9
00:56:57.497 : :Chapter 10
01:05:01.355 : :Chapter 11
01:08:01.368 : :Chapter 12
01:13:58.600 : :Chapter 13
01:17:52.209 : :Chapter 14
01:25:58.736 : :Chapter 15
01:34:28.954 : :Chapter 16
movie BDRip Video
ID : 1
Format : HEVC
Format/Info : High Efficiency Video Coding
Commercial name : HDR10
Format profile : Main 10@L5.1@High
Codec ID : V_MPEGH/ISO/HEVC
Duration : 1 h 42 min
Bit rate : 21.4 Mb/s
Width : 3 840 pixels
Height : 1 608 pixels
Display aspect ratio : 2.40:1
Frame rate mode : Constant
Frame rate : 23.976 (24000/1001) FPS
Color space : YUV
Chroma subsampling : 4:2:0 (Type 2)
Bit depth : 10 bits
Bits/(Pixel*Frame) : 0.145
Stream size : 15.3 GiB (76%)
Writing library : x265 2.8+10-703eade86b53:[Windows][MSVC 1914][64 bit] 10bit
Encoding settings : cpuid=1111039 / frame-threads=5 / numa-pools=36 / wpp / no-pmode / no-pme / no-psnr / no-ssim / log-level=2 / input-csp=1 / input-res=3840x1608 / interlace=0 / total-frames=147552 / level-idc=51 / high-tier=1 / uhd-bd=0 / ref=4 / no-allow-non-conformance / repeat-headers / annexb / aud / hrd / info / hash=0 / no-temporal-layers / no-open-gop / min-keyint=1 / keyint=24 / gop-lookahead=0 / bframes=4 / b-adapt=2 / b-pyramid / bframe-bias=0 / rc-lookahead=25 / lookahead-slices=4 / scenecut=40 / radl=0 / no-intra-refresh / ctu=64 / min-cu-size=8 / rect / no-amp / max-tu-size=32 / tu-inter-depth=1 / tu-intra-depth=1 / limit-tu=0 / rdoq-level=2 / dynamic-rd=0.00 / no-ssim-rd / signhide / no-tskip / nr-intra=0 / nr-inter=0 / no-constrained-intra / no-strong-intra-smoothing / max-merge=3 / limit-refs=3 / limit-modes / me=3 / subme=3 / merange=57 / temporal-mvp / weightp / no-weightb / no-analyze-src-pics / deblock=-3:-3 / no-sao / no-sao-non-deblock / rd=4 / no-early-skip / rskip / no-fast-intra / no-tskip-fast / no-cu-lossless / no-b-intra / no-splitrd-skip / rdpenalty=0 / psy-rd=2.00 / psy-rdoq=1.00 / no-rd-refine / no-lossless / cbqpoffs=0 / crqpoffs=0 / rc=crf / crf=17.0 / qcomp=0.60 / qpstep=4 / stats-write=0 / stats-read=0 / vbv-maxrate=160000 / vbv-bufsize=160000 / vbv-init=0.9 / crf-max=0.0 / crf-min=0.0 / ipratio=1.40 / pbratio=1.30 / aq-mode=1 / aq-strength=1.00 / cutree / zone-count=0 / no-strict-cbr / qg-size=32 / no-rc-grain / qpmax=69 / qpmin=0 / no-const-vbv / sar=1 / overscan=0 / videoformat=5 / range=0 / colorprim=9 / transfer=16 / colormatrix=9 / chromaloc=1 / chromaloc-top=2 / chromaloc-bottom=2 / display-window=0 / master-display=G(13250,34500)B(7500,3000)R(34000,16000)WP(15635,16450)L(10000000,1) / max-cll=1000,689 / min-luma=0 / max-luma=1023 / log2-max-poc-lsb=8 / vui-timing-info / vui-hrd-info / slices=1 / no-opt-qp-pps / no-opt-ref-list-length-pps / no-multi-pass-opt-rps / scenecut-bias=0.05 / no-opt-cu-delta-qp / no-aq-motion / hdr / hdr-opt / no-dhdr10-opt / no-idr-recovery-sei / analysis-reuse-level=5 / scale-factor=0 / refine-intra=0 / refine-inter=0 / refine-mv=0 / no-limit-sao / ctu-info=0 / no-lowpass-dct / refine-mv-type=0 / copy-pic=1 / max-ausize-factor=1.0 / no-dynamic-refine / no-single-sei
Default : Yes
Forced : No
Color range : Limited
Color primaries : BT.2020
Transfer characteristics : PQ
Matrix coefficients : BT.2020 non-constant
Mastering display color primaries : Display P3
Mastering display luminance : min: 0.0001 cd/m2, max: 1000 cd/m2
Maximum Content Light Level : 1000 cd/m2
Maximum Frame-Average Light Level : 689 cd/m2

Audio #1
ID : 2
Format : DTS XLL X
Format/Info : Digital Theater Systems
Commercial name : DTS-HD Master Audio
Codec ID : A_DTS
Duration : 1 h 42 min
Bit rate mode : Variable
Bit rate : 6 347 kb/s
Channel(s) : 8 channels
Channel(s)_Original : Object Based
Channel layout : Object Based
Sampling rate : 48.0 kHz
Frame rate : 93.750 FPS (512 SPF)
Bit depth : 24 bits
Stream size : 4.55 GiB (23%)
Language : English
Default : Yes
Forced : No

Audio #2
ID : 3
Format : AC-3
Format/Info : Audio Coding 3
Commercial name : Dolby Digital
Codec ID : A_AC3
Duration : 1 h 42 min
Bit rate mode : Constant
Bit rate : 224 kb/s
Channel(s) : 2 channels
Channel layout : L R
Sampling rate : 48.0 kHz
Frame rate : 31.250 FPS (1536 SPF)
Bit depth : 16 bits
Compression mode : Lossy
Stream size : 164 MiB (1%)
Title : Commentary with Directors Jonathan Baker XVII and Josh Baker and Writer Daniel Casey
Language : English
Service kind : Complete Main
Default : No
Forced : No

Text #1
ID : 4
Format : PGS
Muxing mode : zlib
Codec ID : S_HDMV/PGS
Codec ID/Info : Picture based subtitle format used on BDs/HD-DVDs
Duration : 1 h 34 min
Bit rate : 28.3 kb/s
Count of elements : 2144
Stream size : 19.2 MiB (0%)
Language : English
Default : No
Forced : No

Text #2
ID : 5
Format : PGS
Muxing mode : zlib
Codec ID : S_HDMV/PGS
Codec ID/Info : Picture based subtitle format used on BDs/HD-DVDs
Duration : 1 h 35 min
Bit rate : 34.8 kb/s
Count of elements : 2586
Stream size : 23.9 MiB (0%)
Language : English
Default : No
Forced : No

Text #3
ID : 6
Format : PGS
Muxing mode : zlib
Codec ID : S_HDMV/PGS
Codec ID/Info : Picture based subtitle format used on BDs/HD-DVDs
Duration : 1 h 34 min
Bit rate : 25.5 kb/s
Count of elements : 2030
Stream size : 17.3 MiB (0%)
Language : Spanish
Default : No
Forced : No

Menu
00:00:00.000 : en:00:00:00.000
00:07:23.735 : en:00:07:23.735
00:12:34.712 : en:00:12:34.712
00:20:44.452 : en:00:20:44.452
00:27:27.813 : en:00:27:27.813
00:31:57.124 : en:00:31:57.124
00:36:39.781 : en:00:36:39.781
00:41:57.849 : en:00:41:57.849
00:50:09.548 : en:00:50:09.548
00:56:57.497 : en:00:56:57.497
01:05:01.356 : en:01:05:01.356
01:08:01.369 : en:01:08:01.369
01:13:58.601 : en:01:13:58.601
01:17:52.209 : en:01:17:52.209
01:25:58.737 : en:01:25:58.737
01:34:28.955 : en:01:34:28.955

Download

download 4k hdr movies download 4k hdr movies

Watch a movie trailer - Kin 4K 2018 Ultra HD 2160p
Comments and Feedback
Add your comment:
Your name:
Your E-Mail:
Code:
reload, if the code cannot be seen
Enter code: