Select movie Search movie Close search My Account

Gladiator 4K 2000 Ultra HD 2160p

Gladiator 4K 2000 Ultra HD 2160p
BDRemux / BDRip
Country: USA, UK
Time: 2h 35min
IMDB: 8.5
Director: Ridley Scott
Actors: Russell Crowe, Joaquin Phoenix, Connie Nielsen, Oliver Reed, Richard Harris, Derek Jacobi, Djimon Hounsou, David Schofield, John Shrapnel, Tomas Arana, Ralf Moeller, Spencer Treat Clark, David Hemmings, Tommy Flanagan, Sven-Ole Thorsen

Story Movie

Gladiator 4K 2000 Ultra HD 2160p
General Maximus did not bend bloody battles and warriors. It was dedicated to him the film Gladiator drama 4k movi. And only palace intrigues, like a knife in the back, change everything in his life on his head. And he becomes a gladiator. but even in the arena he has no equal. And the glory of it revives to the brave hero, to whom even there are not equal. But when he gets to the Colosseum, then his sworn enemy must be the sworn enemy.

Review 4K Movie

This film without exaggeration can be called the best creation of the deserved master of cinematography - Ridley Scott (a sort of his "swan song"). Yes, we can distinguish in this genre and its other quality projects, for example, "The Kingdom of Heaven" or "Robin Hood"; but still in "Gladiator" Ultra HD -a, it seems to me, he "put more soul" (whatever it may sound), and the result on the face. I hope that I'm wrong about the swan song, and this director will still create a film of the same level, but for now, alas ...

For the first time I got acquainted with this film in my childhood, and even then he made a great impression on me (which was very rare). But then I saw this "masterpiece of cinema" only in one plane, namely as a historical thriller. Reasonings and dialogues of heroes, I missed the ears and, like almost all children, I enjoyed a delightful picture.

Now I'm just amazed at how many genres this film combines. Besides the fact that this is an excellent action movie with perfectly set and shown battle scenes and a historical narrative (despite some distortions of the facts); also this film is very dramatic. After all, the whole film is simply saturated with philosophical reflections, dialogues, ideas and conclusions, which in the process of understanding reveal the characters of the main characters. In addition, the film is quite dynamic.

If we consider the actor's play in the film, then it's hard to even imagine the selection of the game itself. All the actors were very persuasive. One can not help but highlight Russell Crowe (Maximus), who coped with the role as if he had been preparing for it all his life. I believe that this role for this actor is the best in his career. You can also highlight his game, as a genius in the movie "Mind Games", but he associates me, first of all, with the film "Gladiator" UHD. Also it is impossible not to mention the game of Joaquin Phoenix, for which she (role) also, in my opinion, is key in her career. It has never happened to me that I was watching the "villain" from the first to the last minute (apart from the main character), and not just watching, but trying to understand his character and empathizing in some moments. The actor simply got used to the role and, thanks to this, was able to present such a complex character, combining qualities such as: mind, insanity, greed, cunning, cruelty, pride, etc., so qualitatively.

As for the atmosphere of the film, it is very spectacular and majestic was shown the Roman Empire - one of the greatest and most powerful states in the history of mankind. Very realistic scenery (gardens, streets, marble rooms), heroes' costumes, beautiful foreshortenings (in particular the Coliseum), and some presence of computer graphics - all this looks very plausible and plunges the viewer into the arena of the Colosseum.

The music in the movie is just great. After all, musical accompaniment in any film is one of the main components. Even if you do not see the picture and do not listen to the speech of the characters, only music (melody) can be understood and represented the mood of the moment (tragedy, cheerfulness, playfulness, mystery, horror, etc.). A film without musical accompaniment will be difficult to understand. In this film, the main soundtrack very clearly conveys the basic mood of what is happening. As for the rest of the tunes, he noticed identical (though perhaps just similar) notes in music in such different films as "Gladiator" drama 4k movie, "Rock", "Pirates of the Caribbean", the composer in which was Hans Zimmer. All the same, he is also "cyclical" to some extent.

Mediainfo

movie BDRemux Video
ID : 1
Format : HEVC
Format/Info : High Efficiency Video Coding
Format profile : Main 10@L5.1@High
Codec ID : V_MPEGH/ISO/HEVC
Duration : 2 h 50 min
Width : 3 840 pixels
Height : 1 600 pixels
Display aspect ratio : 2.40:1
Frame rate mode : Constant
Frame rate : 23.976 (24000/1001) FPS
Color space : YUV
Chroma subsampling : 4:2:0 (Type 2)
Bit depth : 10 bits
Writing library : x265 2.7+340-aa9102400f24:[Windows][GCC 7.3.0][64 bit] 10bit
Encoding settings : cpuid=1176575 / frame-threads=5 / numa-pools=32 / wpp / no-pmode / no-pme / no-psnr / no-ssim / log-level=2 / input-csp=1 / input-res=3840x1600 / interlace=0 / total-frames=245910 / level-idc=51 / high-tier=1 / uhd-bd=0 / ref=4 / no-allow-non-conformance / repeat-headers / annexb / aud / hrd / info / hash=0 / no-temporal-layers / no-open-gop / min-keyint=24 / keyint=240 / gop-lookahead=0 / bframes=4 / b-adapt=2 / b-pyramid / bframe-bias=0 / rc-lookahead=25 / lookahead-slices=4 / scenecut=40 / radl=0 / no-intra-refresh / ctu=64 / min-cu-size=8 / rect / no-amp / max-tu-size=32 / tu-inter-depth=1 / tu-intra-depth=1 / limit-tu=0 / rdoq-level=2 / dynamic-rd=0.00 / no-ssim-rd / signhide / no-tskip / nr-intra=0 / nr-inter=0 / no-constrained-intra / no-strong-intra-smoothing / max-merge=3 / limit-refs=3 / limit-modes / me=3 / subme=3 / merange=57 / temporal-mvp / weightp / no-weightb / no-analyze-src-pics / deblock=-3:-3 / no-sao / no-sao-non-deblock / rd=4 / no-early-skip / rskip / no-fast-intra / no-tskip-fast / no-cu-lossless / no-b-intra / no-splitrd-skip / rdpenalty=0 / psy-rd=2.00 / psy-rdoq=1.00 / no-rd-refine / no-lossless / cbqpoffs=0 / crqpoffs=0 / rc=crf / crf=17.0 / qcomp=0.60 / qpstep=4 / stats-write=0 / stats-read=0 / vbv-maxrate=160000 / vbv-bufsize=160000 / vbv-init=0.9 / crf-max=0.0 / crf-min=0.0 / ipratio=1.40 / pbratio=1.30 / aq-mode=1 / aq-strength=1.00 / cutree / zone-count=0 / no-strict-cbr / qg-size=32 / no-rc-grain / qpmax=69 / qpmin=0 / no-const-vbv / sar=1 / overscan=0 / videoformat=5 / range=0 / colorprim=9 / transfer=16 / colormatrix=9 / chromaloc=1 / chromaloc-top=2 / chromaloc-bottom=2 / display-window=0 / master-display=G(13250,34500)B(7500,3000)R(34000,16000)WP(15635,16450)L(10000000,50) / max-cll=1000,497 / min-luma=0 / max-luma=1023 / log2-max-poc-lsb=8 / vui-timing-info / vui-hrd-info / slices=1 / no-opt-qp-pps / no-opt-ref-list-length-pps / no-multi-pass-opt-rps / scenecut-bias=0.05 / no-opt-cu-delta-qp / no-aq-motion / hdr / hdr-opt / no-dhdr10-opt / no-idr-recovery-sei / analysis-reuse-level=5 / scale-factor=0 / refine-intra=0 / refine-inter=0 / refine-mv=0 / no-limit-sao / ctu-info=0 / no-lowpass-dct / refine-mv-type=0 / copy-pic=1 / max-ausize-factor=1.0 / no-dynamic-refine / no-single-sei
Default : Yes
Forced : No
Color range : Limited
Color primaries : BT.2020
Transfer characteristics : PQ
Matrix coefficients : BT.2020 non-constant
Statistics Tags Issue : no_variable_data 1970-01-01 00:00:00 / no_variable_data 2010-02-22 21:41:29
FromStats_BitRate : 20963251
FromStats_Duration : 02:50:56.496000000
FromStats_FrameCount : 245910
FromStats_StreamSize : 26876188567
Mastering display color primaries : Display P3
Mastering display luminance : min: 0.0050 cd/m2, max: 1000 cd/m2
Maximum Content Light Level : 1000 cd/m2
Maximum Frame-Average Light Level : 497 cd/m2

Audio #1
ID : 2
Format : DTS
Format/Info : Digital Theater Systems
Format profile : X / MA / Core
Codec ID : A_DTS
Bit rate mode : Variable / Variable / Constant
Bit rate : Unknown / Unknown / 1 509 kb/s
Channel(s) : Object Based / 8 channels / 6 channels
Channel positions : Object Based / Front: L C R, Side: L R, Back: L R, LFE / Front: L C R, Side: L R, LFE
Sampling rate : / 48.0 kHz / 48.0 kHz
Frame rate : 93.750 FPS (512 SPF)
Bit depth : / 24 bits / 24 bits
Compression mode : / Lossless / Lossy
Language : English
Default : Yes
Forced : No
Statistics Tags Issue : no_variable_data 1970-01-01 00:00:00 / no_variable_data 2010-02-22 21:41:29
FromStats_BitRate : 3820676
FromStats_Duration : 02:50:56.512000000
FromStats_FrameCount : 961548
FromStats_StreamSize : 4898351276

Audio #2
ID : 3
Format : AC-3
Format/Info : Audio Coding 3
Codec ID : A_AC3
Duration : 2 h 50 min
Bit rate mode : Constant
Bit rate : 192 kb/s
Channel(s) : 2 channels
Channel positions : Front: L R
Sampling rate : 48.0 kHz
Frame rate : 31.250 FPS (1536 SPF)
Bit depth : 16 bits
Compression mode : Lossy
Stream size : 235 MiB (1%)
Title : Commentary with director Ridley Scott and actor Russell Crowe
Language : English
Service kind : Complete Main
Default : No
Forced : No
Statistics Tags Issue : no_variable_data 1970-01-01 00:00:00 / no_variable_data 2010-02-22 21:41:29
FromStats_BitRate : 192000
FromStats_Duration : 02:50:56.512000000
FromStats_FrameCount : 320516
FromStats_StreamSize : 246156288

Text #1
ID : 4
Format : UTF-8
Codec ID : S_TEXT/UTF8
Codec ID/Info : UTF-8 Plain Text
Title : Stripped SRT
Language : English
Default : No
Forced : No
Statistics Tags Issue : no_variable_data 1970-01-01 00:00:00 / no_variable_data 2010-02-22 21:41:29
FromStats_BitRate : 34
FromStats_Duration : 02:40:19.026000000
FromStats_FrameCount : 1364
FromStats_StreamSize : 41856

Text #2
ID : 5
Format : UTF-8
Codec ID : S_TEXT/UTF8
Codec ID/Info : UTF-8 Plain Text
Title : SDH SRT
Language : English
Default : No
Forced : No
Statistics Tags Issue : no_variable_data 1970-01-01 00:00:00 / no_variable_data 2010-02-22 21:41:29
FromStats_BitRate : 36
FromStats_Duration : 02:41:38.939000000
FromStats_FrameCount : 1453
FromStats_StreamSize : 44312

Text #3
ID : 6
Format : PGS
Muxing mode : zlib
Codec ID : S_HDMV/PGS
Codec ID/Info : Picture based subtitle format used on BDs/HD-DVDs
Title : SDH
Language : English
Default : No
Forced : No
Statistics Tags Issue : no_variable_data 1970-01-01 00:00:00 / no_variable_data 2010-02-22 21:41:29
FromStats_BitRate : 23978
FromStats_Duration : 02:42:10.596000000
FromStats_FrameCount : 2909
FromStats_StreamSize : 29165255

Text #4
ID : 7
Format : PGS
Muxing mode : zlib
Codec ID : S_HDMV/PGS
Codec ID/Info : Picture based subtitle format used on BDs/HD-DVDs
Title : Commentary with director Ridley Scott and actor Russell Crowe
Language : English
Default : No
Forced : No
Statistics Tags Issue : no_variable_data 1970-01-01 00:00:00 / no_variable_data 2010-02-22 21:41:29
FromStats_BitRate : 72907
FromStats_Duration : 02:46:50.751000000
FromStats_FrameCount : 5698
FromStats_StreamSize : 91232477

Text #5
ID : 8
Format : PGS
Muxing mode : zlib
Codec ID : S_HDMV/PGS
Codec ID/Info : Picture based subtitle format used on BDs/HD-DVDs
Language : French
Default : No
Forced : No
Statistics Tags Issue : no_variable_data 1970-01-01 00:00:00 / no_variable_data 2010-02-22 21:41:29
FromStats_BitRate : 22167
FromStats_Duration : 02:49:51.265000000
FromStats_FrameCount : 2707
FromStats_StreamSize : 28239488

Text #6
ID : 9
Format : PGS
Muxing mode : zlib
Codec ID : S_HDMV/PGS
Codec ID/Info : Picture based subtitle format used on BDs/HD-DVDs
Title : Commentary with director Ridley Scott and actor Russell Crowe
Language : French
Default : No
Forced : No
Statistics Tags Issue : no_variable_data 1970-01-01 00:00:00 / no_variable_data 2010-02-22 21:41:29
FromStats_BitRate : 60549
FromStats_Duration : 02:50:03.860000000
FromStats_FrameCount : 5700
FromStats_StreamSize : 77230036

Text #7
ID : 10
Format : PGS
Muxing mode : zlib
Codec ID : S_HDMV/PGS
Codec ID/Info : Picture based subtitle format used on BDs/HD-DVDs
Language : Dutch
Default : No
Forced : No
Statistics Tags Issue : no_variable_data 1970-01-01 00:00:00 / no_variable_data 2010-02-22 21:41:29
FromStats_BitRate : 19684
FromStats_Duration : 02:49:51.390000000
FromStats_FrameCount : 2709
FromStats_StreamSize : 25077093

Text #8
ID : 11
Format : PGS
Muxing mode : zlib
Codec ID : S_HDMV/PGS
Codec ID/Info : Picture based subtitle format used on BDs/HD-DVDs
Language : Swedish
Default : No
Forced : No
Statistics Tags Issue : no_variable_data 1970-01-01 00:00:00 / no_variable_data 2010-02-22 21:41:29
FromStats_BitRate : 20658
FromStats_Duration : 02:49:51.265000000
FromStats_FrameCount : 2705
FromStats_StreamSize : 26316770

Text #9
ID : 12
Format : PGS
Muxing mode : zlib
Codec ID : S_HDMV/PGS
Codec ID/Info : Picture based subtitle format used on BDs/HD-DVDs
Language : Norwegian
Default : No
Forced : No
Statistics Tags Issue : no_variable_data 1970-01-01 00:00:00 / no_variable_data 2010-02-22 21:41:29
FromStats_BitRate : 20534
FromStats_Duration : 02:49:51.265000000
FromStats_FrameCount : 2711
FromStats_StreamSize : 26159665

Text #10
ID : 13
Format : PGS
Muxing mode : zlib
Codec ID : S_HDMV/PGS
Codec ID/Info : Picture based subtitle format used on BDs/HD-DVDs
Language : Danish
Default : No
Forced : No
Statistics Tags Issue : no_variable_data 1970-01-01 00:00:00 / no_variable_data 2010-02-22 21:41:29
FromStats_BitRate : 21117
FromStats_Duration : 02:49:51.265000000
FromStats_FrameCount : 2707
FromStats_StreamSize : 26901348

Text #11
ID : 14
Format : PGS
Muxing mode : zlib
Codec ID : S_HDMV/PGS
Codec ID/Info : Picture based subtitle format used on BDs/HD-DVDs
Language : Finnish
Default : No
Forced : No
Statistics Tags Issue : no_variable_data 1970-01-01 00:00:00 / no_variable_data 2010-02-22 21:41:29
FromStats_BitRate : 20764
FromStats_Duration : 02:49:51.265000000
FromStats_FrameCount : 2709
FromStats_StreamSize : 26451888

Text #12
ID : 15
Format : PGS
Muxing mode : zlib
Codec ID : S_HDMV/PGS
Codec ID/Info : Picture based subtitle format used on BDs/HD-DVDs
Language : Czech
Default : No
Forced : No
Statistics Tags Issue : no_variable_data 1970-01-01 00:00:00 / no_variable_data 2010-02-22 21:41:29
FromStats_BitRate : 20492
FromStats_Duration : 02:49:51.265000000
FromStats_FrameCount : 2707
FromStats_StreamSize : 26106118

Text #13
ID : 16
Format : PGS
Muxing mode : zlib
Codec ID : S_HDMV/PGS
Codec ID/Info : Picture based subtitle format used on BDs/HD-DVDs
Language : Greek
Default : No
Forced : No
Statistics Tags Issue : no_variable_data 1970-01-01 00:00:00 / no_variable_data 2010-02-22 21:41:29
FromStats_BitRate : 23676
FromStats_Duration : 02:49:51.265000000
FromStats_FrameCount : 2726
FromStats_StreamSize : 30162196

Text #14
ID : 17
Format : PGS
Muxing mode : zlib
Codec ID : S_HDMV/PGS
Codec ID/Info : Picture based subtitle format used on BDs/HD-DVDs
Title : Commentary with director Ridley Scott and actor Russell Crowe
Language : Greek
Default : No
Forced : No
Statistics Tags Issue : no_variable_data 1970-01-01 00:00:00 / no_variable_data 2010-02-22 21:41:29
FromStats_BitRate : 66740
FromStats_Duration : 02:50:03.860000000
FromStats_FrameCount : 5700
FromStats_StreamSize : 85126479

Menu
00:00:00.000 : en:00:00:00.000
00:07:13.308 : en:00:07:13.308
00:12:50.103 : en:00:12:50.103
00:18:44.790 : en:00:18:44.790
00:23:29.325 : en:00:23:29.325
00:32:58.393 : en:00:32:58.393
00:37:34.878 : en:00:37:34.878
00:40:50.740 : en:00:40:50.740
00:47:32.725 : en:00:47:32.725
00:51:35.843 : en:00:51:35.843
00:55:44.383 : en:00:55:44.383
01:02:21.279 : en:01:02:21.279
01:09:56.984 : en:01:09:56.984
01:19:08.285 : en:01:19:08.285
01:29:21.648 : en:01:29:21.648
01:37:11.784 : en:01:37:11.784
01:41:35.798 : en:01:41:35.798
01:51:58.837 : en:01:51:58.837
01:56:36.281 : en:01:56:36.281
02:00:43.486 : en:02:00:43.486
02:04:42.225 : en:02:04:42.225
02:12:19.014 : en:02:12:19.014
02:13:32.671 : en:02:13:32.671
02:24:15.438 : en:02:24:15.438
02:28:48.669 : en:02:28:48.669
02:34:20.751 : en:02:34:20.751
02:38:43.555 : en:02:38:43.555
02:42:57.726 : en:02:42:57.726
movie BDRip Video
ID : 1
Format : HEVC
Format/Info : High Efficiency Video Coding
Format profile : Main 10@L5.1@High
Codec ID : V_MPEGH/ISO/HEVC
Duration : 2 h 50 min
Width : 3 840 pixels
Height : 1 600 pixels
Display aspect ratio : 2.40:1
Frame rate mode : Constant
Frame rate : 23.976 (24000/1001) FPS
Color space : YUV
Chroma subsampling : 4:2:0 (Type 2)
Bit depth : 10 bits
Writing library : x265 2.7+340-aa9102400f24:[Windows][GCC 7.3.0][64 bit] 10bit
Encoding settings : cpuid=1176575 / frame-threads=5 / numa-pools=32 / wpp / no-pmode / no-pme / no-psnr / no-ssim / log-level=2 / input-csp=1 / input-res=3840x1600 / interlace=0 / total-frames=245910 / level-idc=51 / high-tier=1 / uhd-bd=0 / ref=4 / no-allow-non-conformance / repeat-headers / annexb / aud / hrd / info / hash=0 / no-temporal-layers / no-open-gop / min-keyint=24 / keyint=240 / gop-lookahead=0 / bframes=4 / b-adapt=2 / b-pyramid / bframe-bias=0 / rc-lookahead=25 / lookahead-slices=4 / scenecut=40 / radl=0 / no-intra-refresh / ctu=64 / min-cu-size=8 / rect / no-amp / max-tu-size=32 / tu-inter-depth=1 / tu-intra-depth=1 / limit-tu=0 / rdoq-level=2 / dynamic-rd=0.00 / no-ssim-rd / signhide / no-tskip / nr-intra=0 / nr-inter=0 / no-constrained-intra / no-strong-intra-smoothing / max-merge=3 / limit-refs=3 / limit-modes / me=3 / subme=3 / merange=57 / temporal-mvp / weightp / no-weightb / no-analyze-src-pics / deblock=-3:-3 / no-sao / no-sao-non-deblock / rd=4 / no-early-skip / rskip / no-fast-intra / no-tskip-fast / no-cu-lossless / no-b-intra / no-splitrd-skip / rdpenalty=0 / psy-rd=2.00 / psy-rdoq=1.00 / no-rd-refine / no-lossless / cbqpoffs=0 / crqpoffs=0 / rc=crf / crf=17.0 / qcomp=0.60 / qpstep=4 / stats-write=0 / stats-read=0 / vbv-maxrate=160000 / vbv-bufsize=160000 / vbv-init=0.9 / crf-max=0.0 / crf-min=0.0 / ipratio=1.40 / pbratio=1.30 / aq-mode=1 / aq-strength=1.00 / cutree / zone-count=0 / no-strict-cbr / qg-size=32 / no-rc-grain / qpmax=69 / qpmin=0 / no-const-vbv / sar=1 / overscan=0 / videoformat=5 / range=0 / colorprim=9 / transfer=16 / colormatrix=9 / chromaloc=1 / chromaloc-top=2 / chromaloc-bottom=2 / display-window=0 / master-display=G(13250,34500)B(7500,3000)R(34000,16000)WP(15635,16450)L(10000000,50) / max-cll=1000,497 / min-luma=0 / max-luma=1023 / log2-max-poc-lsb=8 / vui-timing-info / vui-hrd-info / slices=1 / no-opt-qp-pps / no-opt-ref-list-length-pps / no-multi-pass-opt-rps / scenecut-bias=0.05 / no-opt-cu-delta-qp / no-aq-motion / hdr / hdr-opt / no-dhdr10-opt / no-idr-recovery-sei / analysis-reuse-level=5 / scale-factor=0 / refine-intra=0 / refine-inter=0 / refine-mv=0 / no-limit-sao / ctu-info=0 / no-lowpass-dct / refine-mv-type=0 / copy-pic=1 / max-ausize-factor=1.0 / no-dynamic-refine / no-single-sei
Default : Yes
Forced : No
Color range : Limited
Color primaries : BT.2020
Transfer characteristics : PQ
Matrix coefficients : BT.2020 non-constant
Statistics Tags Issue : no_variable_data 1970-01-01 00:00:00 / no_variable_data 2010-02-22 21:41:29
FromStats_BitRate : 20963251
FromStats_Duration : 02:50:56.496000000
FromStats_FrameCount : 245910
FromStats_StreamSize : 26876188567
Mastering display color primaries : Display P3
Mastering display luminance : min: 0.0050 cd/m2, max: 1000 cd/m2
Maximum Content Light Level : 1000 cd/m2
Maximum Frame-Average Light Level : 497 cd/m2

Audio #1
ID : 2
Format : DTS
Format/Info : Digital Theater Systems
Format profile : X / MA / Core
Codec ID : A_DTS
Bit rate mode : Variable / Variable / Constant
Bit rate : Unknown / Unknown / 1 509 kb/s
Channel(s) : Object Based / 8 channels / 6 channels
Channel positions : Object Based / Front: L C R, Side: L R, Back: L R, LFE / Front: L C R, Side: L R, LFE
Sampling rate : / 48.0 kHz / 48.0 kHz
Frame rate : 93.750 FPS (512 SPF)
Bit depth : / 24 bits / 24 bits
Compression mode : / Lossless / Lossy
Language : English
Default : Yes
Forced : No
Statistics Tags Issue : no_variable_data 1970-01-01 00:00:00 / no_variable_data 2010-02-22 21:41:29
FromStats_BitRate : 3820676
FromStats_Duration : 02:50:56.512000000
FromStats_FrameCount : 961548
FromStats_StreamSize : 4898351276

Audio #2
ID : 3
Format : AC-3
Format/Info : Audio Coding 3
Codec ID : A_AC3
Duration : 2 h 50 min
Bit rate mode : Constant
Bit rate : 192 kb/s
Channel(s) : 2 channels
Channel positions : Front: L R
Sampling rate : 48.0 kHz
Frame rate : 31.250 FPS (1536 SPF)
Bit depth : 16 bits
Compression mode : Lossy
Stream size : 235 MiB (1%)
Title : Commentary with director Ridley Scott and actor Russell Crowe
Language : English
Service kind : Complete Main
Default : No
Forced : No
Statistics Tags Issue : no_variable_data 1970-01-01 00:00:00 / no_variable_data 2010-02-22 21:41:29
FromStats_BitRate : 192000
FromStats_Duration : 02:50:56.512000000
FromStats_FrameCount : 320516
FromStats_StreamSize : 246156288

Text #1
ID : 4
Format : UTF-8
Codec ID : S_TEXT/UTF8
Codec ID/Info : UTF-8 Plain Text
Title : Stripped SRT
Language : English
Default : No
Forced : No
Statistics Tags Issue : no_variable_data 1970-01-01 00:00:00 / no_variable_data 2010-02-22 21:41:29
FromStats_BitRate : 34
FromStats_Duration : 02:40:19.026000000
FromStats_FrameCount : 1364
FromStats_StreamSize : 41856

Text #2
ID : 5
Format : UTF-8
Codec ID : S_TEXT/UTF8
Codec ID/Info : UTF-8 Plain Text
Title : SDH SRT
Language : English
Default : No
Forced : No
Statistics Tags Issue : no_variable_data 1970-01-01 00:00:00 / no_variable_data 2010-02-22 21:41:29
FromStats_BitRate : 36
FromStats_Duration : 02:41:38.939000000
FromStats_FrameCount : 1453
FromStats_StreamSize : 44312

Text #3
ID : 6
Format : PGS
Muxing mode : zlib
Codec ID : S_HDMV/PGS
Codec ID/Info : Picture based subtitle format used on BDs/HD-DVDs
Title : SDH
Language : English
Default : No
Forced : No
Statistics Tags Issue : no_variable_data 1970-01-01 00:00:00 / no_variable_data 2010-02-22 21:41:29
FromStats_BitRate : 23978
FromStats_Duration : 02:42:10.596000000
FromStats_FrameCount : 2909
FromStats_StreamSize : 29165255

Text #4
ID : 7
Format : PGS
Muxing mode : zlib
Codec ID : S_HDMV/PGS
Codec ID/Info : Picture based subtitle format used on BDs/HD-DVDs
Title : Commentary with director Ridley Scott and actor Russell Crowe
Language : English
Default : No
Forced : No
Statistics Tags Issue : no_variable_data 1970-01-01 00:00:00 / no_variable_data 2010-02-22 21:41:29
FromStats_BitRate : 72907
FromStats_Duration : 02:46:50.751000000
FromStats_FrameCount : 5698
FromStats_StreamSize : 91232477

Text #5
ID : 8
Format : PGS
Muxing mode : zlib
Codec ID : S_HDMV/PGS
Codec ID/Info : Picture based subtitle format used on BDs/HD-DVDs
Language : French
Default : No
Forced : No
Statistics Tags Issue : no_variable_data 1970-01-01 00:00:00 / no_variable_data 2010-02-22 21:41:29
FromStats_BitRate : 22167
FromStats_Duration : 02:49:51.265000000
FromStats_FrameCount : 2707
FromStats_StreamSize : 28239488

Text #6
ID : 9
Format : PGS
Muxing mode : zlib
Codec ID : S_HDMV/PGS
Codec ID/Info : Picture based subtitle format used on BDs/HD-DVDs
Title : Commentary with director Ridley Scott and actor Russell Crowe
Language : French
Default : No
Forced : No
Statistics Tags Issue : no_variable_data 1970-01-01 00:00:00 / no_variable_data 2010-02-22 21:41:29
FromStats_BitRate : 60549
FromStats_Duration : 02:50:03.860000000
FromStats_FrameCount : 5700
FromStats_StreamSize : 77230036

Text #7
ID : 10
Format : PGS
Muxing mode : zlib
Codec ID : S_HDMV/PGS
Codec ID/Info : Picture based subtitle format used on BDs/HD-DVDs
Language : Dutch
Default : No
Forced : No
Statistics Tags Issue : no_variable_data 1970-01-01 00:00:00 / no_variable_data 2010-02-22 21:41:29
FromStats_BitRate : 19684
FromStats_Duration : 02:49:51.390000000
FromStats_FrameCount : 2709
FromStats_StreamSize : 25077093

Text #8
ID : 11
Format : PGS
Muxing mode : zlib
Codec ID : S_HDMV/PGS
Codec ID/Info : Picture based subtitle format used on BDs/HD-DVDs
Language : Swedish
Default : No
Forced : No
Statistics Tags Issue : no_variable_data 1970-01-01 00:00:00 / no_variable_data 2010-02-22 21:41:29
FromStats_BitRate : 20658
FromStats_Duration : 02:49:51.265000000
FromStats_FrameCount : 2705
FromStats_StreamSize : 26316770

Text #9
ID : 12
Format : PGS
Muxing mode : zlib
Codec ID : S_HDMV/PGS
Codec ID/Info : Picture based subtitle format used on BDs/HD-DVDs
Language : Norwegian
Default : No
Forced : No
Statistics Tags Issue : no_variable_data 1970-01-01 00:00:00 / no_variable_data 2010-02-22 21:41:29
FromStats_BitRate : 20534
FromStats_Duration : 02:49:51.265000000
FromStats_FrameCount : 2711
FromStats_StreamSize : 26159665

Text #10
ID : 13
Format : PGS
Muxing mode : zlib
Codec ID : S_HDMV/PGS
Codec ID/Info : Picture based subtitle format used on BDs/HD-DVDs
Language : Danish
Default : No
Forced : No
Statistics Tags Issue : no_variable_data 1970-01-01 00:00:00 / no_variable_data 2010-02-22 21:41:29
FromStats_BitRate : 21117
FromStats_Duration : 02:49:51.265000000
FromStats_FrameCount : 2707
FromStats_StreamSize : 26901348

Text #11
ID : 14
Format : PGS
Muxing mode : zlib
Codec ID : S_HDMV/PGS
Codec ID/Info : Picture based subtitle format used on BDs/HD-DVDs
Language : Finnish
Default : No
Forced : No
Statistics Tags Issue : no_variable_data 1970-01-01 00:00:00 / no_variable_data 2010-02-22 21:41:29
FromStats_BitRate : 20764
FromStats_Duration : 02:49:51.265000000
FromStats_FrameCount : 2709
FromStats_StreamSize : 26451888

Text #12
ID : 15
Format : PGS
Muxing mode : zlib
Codec ID : S_HDMV/PGS
Codec ID/Info : Picture based subtitle format used on BDs/HD-DVDs
Language : Czech
Default : No
Forced : No
Statistics Tags Issue : no_variable_data 1970-01-01 00:00:00 / no_variable_data 2010-02-22 21:41:29
FromStats_BitRate : 20492
FromStats_Duration : 02:49:51.265000000
FromStats_FrameCount : 2707
FromStats_StreamSize : 26106118

Text #13
ID : 16
Format : PGS
Muxing mode : zlib
Codec ID : S_HDMV/PGS
Codec ID/Info : Picture based subtitle format used on BDs/HD-DVDs
Language : Greek
Default : No
Forced : No
Statistics Tags Issue : no_variable_data 1970-01-01 00:00:00 / no_variable_data 2010-02-22 21:41:29
FromStats_BitRate : 23676
FromStats_Duration : 02:49:51.265000000
FromStats_FrameCount : 2726
FromStats_StreamSize : 30162196

Text #14
ID : 17
Format : PGS
Muxing mode : zlib
Codec ID : S_HDMV/PGS
Codec ID/Info : Picture based subtitle format used on BDs/HD-DVDs
Title : Commentary with director Ridley Scott and actor Russell Crowe
Language : Greek
Default : No
Forced : No
Statistics Tags Issue : no_variable_data 1970-01-01 00:00:00 / no_variable_data 2010-02-22 21:41:29
FromStats_BitRate : 66740
FromStats_Duration : 02:50:03.860000000
FromStats_FrameCount : 5700
FromStats_StreamSize : 85126479

Menu
00:00:00.000 : en:00:00:00.000
00:07:13.308 : en:00:07:13.308
00:12:50.103 : en:00:12:50.103
00:18:44.790 : en:00:18:44.790
00:23:29.325 : en:00:23:29.325
00:32:58.393 : en:00:32:58.393
00:37:34.878 : en:00:37:34.878
00:40:50.740 : en:00:40:50.740
00:47:32.725 : en:00:47:32.725
00:51:35.843 : en:00:51:35.843
00:55:44.383 : en:00:55:44.383
01:02:21.279 : en:01:02:21.279
01:09:56.984 : en:01:09:56.984
01:19:08.285 : en:01:19:08.285
01:29:21.648 : en:01:29:21.648
01:37:11.784 : en:01:37:11.784
01:41:35.798 : en:01:41:35.798
01:51:58.837 : en:01:51:58.837
01:56:36.281 : en:01:56:36.281
02:00:43.486 : en:02:00:43.486
02:04:42.225 : en:02:04:42.225
02:12:19.014 : en:02:12:19.014
02:13:32.671 : en:02:13:32.671
02:24:15.438 : en:02:24:15.438
02:28:48.669 : en:02:28:48.669
02:34:20.751 : en:02:34:20.751
02:38:43.555 : en:02:38:43.555
02:42:57.726 : en:02:42:57.726

Download

download 4k hdr movies download 4k hdr movies

Watch a movie trailer - Gladiator 4K 2000 Ultra HD 2160p
Comments and Feedback
Add your comment:
Your name:
Your E-Mail:
Code:
reload, if the code cannot be seen
Enter code: