Select movie Search movie Close search My Account

The Mule 4K 2018 Ultra HD 2160p

The Mule 4K 2018 Ultra HD 2160p
BDRemux / BDRip
Country: USA
Time: 1h 56min
IMDB: 7.1
Director: Clint Eastwood
Actors: Clint Eastwood, Patrick L. Reyes, Cesar De Le?n, Gustavo Mu?oz, Jackie Prucha, Richard Herd, Adam Drescher, Christi McClintock, Keith Flippen, Alison Eastwood, Kinsley Isla Dillon, Dianne Wiest, Joe Knezevich, Megan Leahy, Taissa Farmiga.

Story Movie

The Mule 4K 2018 Ultra HD 2160p

The Mule 4K drug courier is an atmospheric, tightly filmed movie 4k download crime thriller, which perfectly combines a detective story, a family drama, and a black comedy. A simple plot design, thanks to the remarkable direction and excellent acting work looks with great interest and does not allow to get bored. This movie will be an excellent option for evening viewing and a real gift for Clint Eastwood's fans. Would definitely recommend.

Review 4K Movie

Taking into account his age and regalia, Clint Eastwood could, in principle, shoot anything and play anyone, and no one would have said a word across to him. So, he prefers to play, in fact, himself in The Mule 4K and to remain himself for the legendary filmmaker turns out to be the most successful choice. Moving away from the cheers and patriotic rhetoric of several of his latest tapes, the venerable Hollywood veteran finally gives out something comparable in level and style to the Gran Torino. Theoretically, “Drug stranger” could well even be taken as a sequel to the legendary film of 2008, if its final would then leave a similar opportunity. Eastwood here is still the same monumental, inflexible old veteran, not ashamed of a strong wit and not knowing the meaning of the words "tolerance" and "political correctness." As if carved out of stone, Eastwood's face at the next close-up suggests comparisons with the statue of the commander, but this monument is surrounded by serious passions and emotions - and in their declining years, perhaps, for once, it was found more than the hero had for the entire previous one. a life. Once again inspired by the real story (seven of the last eight Eastwood tapes based on a true story), this time he does not say a word about politics, but he talks a lot about family values ​​and rethinking what has been lived and experienced. How many reflections and regrets about one’s own mistakes are there is known only to the 88-year-old director himself. But the fact that this film is the most successful in ten years, including because the most personal since the times of the aforementioned Gran Torino, is beyond doubt.

In fairness, Eastwood does not turn the tape into a personal confession or self-examination session and does not idealize his character, but honestly, with warmth, humor and unexpected sentimentality, tells a truly non-trivial story, perfectly maintaining the balance of the tragic and comic: The Mule 4K Ultra HD is full of lively dialogues, gives some really funny scenes and at least one very dramatic one. An old man who lived to graying hair, retired to deliver cocaine for Mexican cartels is hardly a good example to follow (although taking into account domestic realities, this scheme may sound almost like life hacking), but neither the character nor the actor who played him eventually in whose either approval or even more sympathy. All they need is a bit of respect in this insane, long-gone world of madness. A world where it is harder and harder for a person to remain himself - and Eastwood is perhaps one of the few who still succeeds.

Probably the only film movie 4k download about drug trafficking, which can be characterized by the epithet "soulful" - already in cinemas.

Mediainfo

movie BDRemux Video
ID : 1
Format : HEVC
Format/Info : High Efficiency Video Coding
Commercial name : HDR10
Format profile : Main 10@L5.1@High
Codec ID : V_MPEGH/ISO/HEVC
Duration : 1 h 56 min
Bit rate : 57.1 Mb/s
Width : 3 840 pixels
Height : 2 160 pixels
Display aspect ratio : 16:9
Frame rate mode : Constant
Frame rate : 23.976 (24000/1001) FPS
Color space : YUV
Chroma subsampling : 4:2:0 (Type 2)
Bit depth : 10 bits
Bits/(Pixel*Frame) : 0.287
Stream size : 46.4 GiB (91%)
Title : The.Mule.2018.2160p.BluRay.REMUX.HEVC.DTS-HD.MA.5.1
Writing library : ATEME Titan File 3.9.0 (4.9.0.0)
Default : Yes
Forced : No
Color range : Limited
Color primaries : BT.2020
Transfer characteristics : PQ
Matrix coefficients : BT.2020 non-constant
Mastering display color primaries : Display P3
Mastering display luminance : min: 0.0050 cd/m2, max: 4000 cd/m2
Maximum Content Light Level : 2111 cd/m2
Maximum Frame-Average Light Level : 161 cd/m2

Audio #1
ID : 2
Format : DTS XLL
Format/Info : Digital Theater Systems
Commercial name : DTS-HD Master Audio
Codec ID : A_DTS
Duration : 1 h 56 min
Bit rate mode : Variable
Bit rate : 3 356 kb/s
Channel(s) : 6 channels
Channel layout : C L R Ls Rs LFE
Sampling rate : 48.0 kHz
Frame rate : 93.750 FPS (512 SPF)
Bit depth : 24 bits
Compression mode : Lossless
Stream size : 2.73 GiB (5%)
Title : The.Mule.2018.2160p.BluRay.REMUX.HEVC.DTS-HD.MA.5.1
Language : English
Default : Yes
Forced : No

Audio #2
ID : 3
Format : AC-3
Format/Info : Audio Coding 3
Commercial name : Dolby Digital
Codec ID : A_AC3
Duration : 1 h 56 min
Bit rate mode : Constant
Bit rate : 640 kb/s
Channel(s) : 6 channels
Channel layout : L R C LFE Ls Rs
Sampling rate : 48.0 kHz
Frame rate : 31.250 FPS (1536 SPF)
Bit depth : 16 bits
Compression mode : Lossy
Stream size : 533 MiB (1%)
Title : The.Mule.2018.2160p.BluRay.REMUX.HEVC.DTS-HD.MA.5.1
Language : English
Service kind : Complete Main
Default : No
Forced : No

Audio #3
ID : 4
Format : AC-3
Format/Info : Audio Coding 3
Commercial name : Dolby Digital
Codec ID : A_AC3
Duration : 1 h 56 min
Bit rate mode : Constant
Bit rate : 640 kb/s
Channel(s) : 6 channels
Channel layout : L R C LFE Ls Rs
Sampling rate : 48.0 kHz
Frame rate : 31.250 FPS (1536 SPF)
Bit depth : 16 bits
Compression mode : Lossy
Stream size : 533 MiB (1%)
Title : The.Mule.2018.2160p.BluRay.REMUX.HEVC.DTS-HD.MA.5.1
Language : French
Service kind : Complete Main
Default : No
Forced : No

Audio #4
ID : 5
Format : AC-3
Format/Info : Audio Coding 3
Commercial name : Dolby Digital
Codec ID : A_AC3
Duration : 1 h 56 min
Bit rate mode : Constant
Bit rate : 640 kb/s
Channel(s) : 6 channels
Channel layout : L R C LFE Ls Rs
Sampling rate : 48.0 kHz
Frame rate : 31.250 FPS (1536 SPF)
Bit depth : 16 bits
Compression mode : Lossy
Stream size : 533 MiB (1%)
Title : The.Mule.2018.2160p.BluRay.REMUX.HEVC.DTS-HD.MA.5.1
Language : Spanish
Service kind : Complete Main
Default : No
Forced : No

Text #1
ID : 6
Format : UTF-8
Codec ID : S_TEXT/UTF8
Codec ID/Info : UTF-8 Plain Text
Duration : 1 h 46 min
Bit rate : 57 b/s
Count of elements : 1514
Stream size : 45.3 KiB (0%)
Title : English-SRT
Language : English
Default : Yes
Forced : No

Text #2
ID : 7
Format : UTF-8
Codec ID : S_TEXT/UTF8
Codec ID/Info : UTF-8 Plain Text
Duration : 1 h 47 min
Bit rate : 66 b/s
Count of elements : 1697
Stream size : 52.0 KiB (0%)
Title : English-SDH-SRT
Language : English
Default : No
Forced : No

Text #3
ID : 8
Format : PGS
Muxing mode : zlib
Codec ID : S_HDMV/PGS
Codec ID/Info : Picture based subtitle format used on BDs/HD-DVDs
Duration : 1 h 47 min
Bit rate : 38.6 kb/s
Count of elements : 3402
Stream size : 29.6 MiB (0%)
Title : English-PGS
Language : English
Default : No
Forced : No

Text #4
ID : 9
Format : PGS
Muxing mode : zlib
Codec ID : S_HDMV/PGS
Codec ID/Info : Picture based subtitle format used on BDs/HD-DVDs
Duration : 1 h 55 min
Bit rate : 24.2 kb/s
Count of elements : 2818
Stream size : 20.0 MiB (0%)
Title : French-PGS
Language : French
Default : No
Forced : No

Text #5
ID : 10
Format : PGS
Muxing mode : zlib
Codec ID : S_HDMV/PGS
Codec ID/Info : Picture based subtitle format used on BDs/HD-DVDs
Duration : 1 h 55 min
Bit rate : 27.7 kb/s
Count of elements : 3034
Stream size : 22.9 MiB (0%)
Title : Chinese-PGS
Language : Chinese
Default : No
Forced : No

Text #6
ID : 11
Format : PGS
Muxing mode : zlib
Codec ID : S_HDMV/PGS
Codec ID/Info : Picture based subtitle format used on BDs/HD-DVDs
Duration : 1 h 55 min
Bit rate : 22.2 kb/s
Count of elements : 3112
Stream size : 18.3 MiB (0%)
Title : Korean-PGS
Language : Korean
Default : No
Forced : No

Text #7
ID : 12
Format : PGS
Muxing mode : zlib
Codec ID : S_HDMV/PGS
Codec ID/Info : Picture based subtitle format used on BDs/HD-DVDs
Duration : 1 h 55 min
Bit rate : 28.2 kb/s
Count of elements : 2924
Stream size : 23.3 MiB (0%)
Title : Spanish-PGS
Language : Spanish
Default : No
Forced : No

Text #8
ID : 13
Format : PGS
Muxing mode : zlib
Codec ID : S_HDMV/PGS
Codec ID/Info : Picture based subtitle format used on BDs/HD-DVDs
Duration : 1 h 55 min
Bit rate : 17.7 kb/s
Count of elements : 3116
Stream size : 14.6 MiB (0%)
Title : Arabic-PGS
Language : Arabic
Default : No
Forced : No

Text #9
ID : 14
Format : PGS
Muxing mode : zlib
Codec ID : S_HDMV/PGS
Codec ID/Info : Picture based subtitle format used on BDs/HD-DVDs
Duration : 1 h 55 min
Bit rate : 1 384 b/s
Count of elements : 142
Stream size : 1.14 MiB (0%)
Title : French-FORCED-PGS
Language : French
Default : No
Forced : No

Menu
00:00:00.000 : :Chapter 1
00:06:45.822 : :Chapter 2
00:15:27.885 : :Chapter 3
00:23:24.236 : :Chapter 4
00:32:22.482 : :Chapter 5
00:40:29.885 : :Chapter 6
00:48:20.564 : :Chapter 7
00:57:55.346 : :Chapter 8
01:07:17.408 : :Chapter 9
01:16:17.364 : :Chapter 10
01:23:18.785 : :Chapter 11
01:32:20.159 : :Chapter 12
01:39:12.947 : :Chapter 13
01:46:17.579 : :Chapter 14
01:48:52.442 : :Chapter 15
movie BDRip Video
ID : 1
Format : HEVC
Format/Info : High Efficiency Video Coding
Commercial name : HDR10
Format profile : Main 10@L5.1@High
Codec ID : V_MPEGH/ISO/HEVC
Duration : 1 h 56 min
Bit rate : 17.0 Mb/s
Width : 3 840 pixels
Height : 1 608 pixels
Display aspect ratio : 2.40:1
Frame rate mode : Constant
Frame rate : 23.976 (24000/1001) FPS
Color space : YUV
Chroma subsampling : 4:2:0 (Type 2)
Bit depth : 10 bits
Bits/(Pixel*Frame) : 0.115
Stream size : 13.8 GiB (83%)
Writing library : x265 3.0_Au+14-c7e5878bdd31:[Windows][GCC 6.3.0][64 bit] 10bit
Encoding settings : cpuid=1111039 / frame-threads=4 / numa-pools=20 / wpp / no-pmode / no-pme / no-psnr / no-ssim / log-level=2 / input-csp=1 / input-res=3840x1608 / interlace=0 / total-frames=167508 / level-idc=51 / high-tier=1 / uhd-bd=0 / ref=4 / no-allow-non-conformance / repeat-headers / annexb / aud / hrd / info / hash=0 / no-temporal-layers / no-open-gop / min-keyint=1 / keyint=24 / gop-lookahead=0 / bframes=4 / b-adapt=2 / b-pyramid / bframe-bias=0 / rc-lookahead=25 / lookahead-slices=4 / scenecut=40 / radl=0 / no-splice / no-intra-refresh / ctu=64 / min-cu-size=8 / rect / no-amp / max-tu-size=32 / tu-inter-depth=1 / tu-intra-depth=1 / limit-tu=0 / rdoq-level=2 / dynamic-rd=0.00 / no-ssim-rd / signhide / no-tskip / nr-intra=0 / nr-inter=0 / no-constrained-intra / no-strong-intra-smoothing / max-merge=3 / limit-refs=3 / limit-modes / me=3 / subme=3 / merange=57 / temporal-mvp / weightp / no-weightb / no-analyze-src-pics / deblock=-3:-3 / no-sao / no-sao-non-deblock / rd=4 / no-early-skip / rskip / no-fast-intra / no-tskip-fast / no-cu-lossless / no-b-intra / no-splitrd-skip / rdpenalty=0 / psy-rd=2.00 / psy-rdoq=1.00 / no-rd-refine / no-lossless / cbqpoffs=0 / crqpoffs=0 / rc=crf / crf=17.0 / qcomp=0.60 / qpstep=4 / stats-write=0 / stats-read=0 / vbv-maxrate=160000 / vbv-bufsize=160000 / vbv-init=0.9 / crf-max=0.0 / crf-min=0.0 / ipratio=1.40 / pbratio=1.30 / aq-mode=2 / aq-strength=1.00 / cutree / zone-count=0 / no-strict-cbr / qg-size=32 / no-rc-grain / qpmax=69 / qpmin=0 / no-const-vbv / sar=1 / overscan=0 / videoformat=5 / range=0 / colorprim=9 / transfer=16 / colormatrix=9 / chromaloc=1 / chromaloc-top=2 / chromaloc-bottom=2 / display-window=0 / master-display=G(13250,34500)B(7500,3000)R(34000,16000)WP(15635,16450)L(40000000,50) / max-cll=2111,161 / min-luma=0 / max-luma=1023 / log2-max-poc-lsb=8 / vui-timing-info / vui-hrd-info / slices=1 / no-opt-qp-pps / no-opt-ref-list-length-pps / no-multi-pass-opt-rps / scenecut-bias=0.05 / no-opt-cu-delta-qp / no-aq-motion / hdr / hdr-opt / no-dhdr10-opt / no-idr-recovery-sei / analysis-reuse-level=5 / scale-factor=0 / refine-intra=0 / refine-inter=0 / refine-mv=0 / refine-ctu-distortion=0 / no-limit-sao / ctu-info=0 / no-lowpass-dct / refine-analysis-type=0 / copy-pic=1 / max-ausize-factor=1.0 / no-dynamic-refine / no-single-sei / no-hevc-aq / no-svt / qp-adaptation-range=1.00
Default : Yes
Forced : No
Color range : Limited
Color primaries : BT.2020
Transfer characteristics : PQ
Matrix coefficients : BT.2020 non-constant
Mastering display color primaries : Display P3
Mastering display luminance : min: 0.0050 cd/m2, max: 4000 cd/m2
Maximum Content Light Level : 2111 cd/m2
Maximum Frame-Average Light Level : 161 cd/m2

Audio
ID : 2
Format : DTS XLL
Format/Info : Digital Theater Systems
Commercial name : DTS-HD Master Audio
Codec ID : A_DTS
Duration : 1 h 56 min
Bit rate mode : Variable
Bit rate : 3 356 kb/s
Channel(s) : 6 channels
Channel layout : C L R Ls Rs LFE
Sampling rate : 48.0 kHz
Frame rate : 93.750 FPS (512 SPF)
Bit depth : 24 bits
Compression mode : Lossless
Stream size : 2.73 GiB (16%)
Language : English
Default : Yes
Forced : No

Text #1
ID : 3
Format : PGS
Muxing mode : zlib
Codec ID : S_HDMV/PGS
Codec ID/Info : Picture based subtitle format used on BDs/HD-DVDs
Duration : 1 h 47 min
Bit rate : 38.6 kb/s
Count of elements : 3402
Stream size : 29.6 MiB (0%)
Title : English SDH
Language : English
Default : No
Forced : No

Text #2
ID : 4
Format : PGS
Muxing mode : zlib
Codec ID : S_HDMV/PGS
Codec ID/Info : Picture based subtitle format used on BDs/HD-DVDs
Duration : 1 h 55 min
Bit rate : 24.2 kb/s
Count of elements : 2818
Stream size : 20.0 MiB (0%)
Language : French
Default : No
Forced : No

Text #3
ID : 5
Format : PGS
Muxing mode : zlib
Codec ID : S_HDMV/PGS
Codec ID/Info : Picture based subtitle format used on BDs/HD-DVDs
Duration : 1 h 55 min
Bit rate : 27.7 kb/s
Count of elements : 3034
Stream size : 22.9 MiB (0%)
Language : Chinese
Default : No
Forced : No

Text #4
ID : 6
Format : PGS
Muxing mode : zlib
Codec ID : S_HDMV/PGS
Codec ID/Info : Picture based subtitle format used on BDs/HD-DVDs
Duration : 1 h 55 min
Bit rate : 22.2 kb/s
Count of elements : 3112
Stream size : 18.3 MiB (0%)
Language : Korean
Default : No
Forced : No

Text #5
ID : 7
Format : PGS
Muxing mode : zlib
Codec ID : S_HDMV/PGS
Codec ID/Info : Picture based subtitle format used on BDs/HD-DVDs
Duration : 1 h 55 min
Bit rate : 28.2 kb/s
Count of elements : 2924
Stream size : 23.3 MiB (0%)
Language : Spanish
Default : No
Forced : No

Text #6
ID : 8
Format : PGS
Muxing mode : zlib
Codec ID : S_HDMV/PGS
Codec ID/Info : Picture based subtitle format used on BDs/HD-DVDs
Duration : 1 h 55 min
Bit rate : 17.7 kb/s
Count of elements : 3116
Stream size : 14.6 MiB (0%)
Language : Arabic
Default : No
Forced : No

Download

download 4k hdr movies download 4k hdr movies

Watch a movie trailer - The Mule 4K 2018 Ultra HD 2160p
Comments and Feedback
Add your comment:
Your name:
Your E-Mail:
Code:
reload, if the code cannot be seen
Enter code: