Select movie Search movie Close search My Account

Perfume: The Story of a Murderer 4K 2016 Ultra HD 2160p

Perfume: The Story of a Murderer 4K 2016 Ultra HD 2160p
BDRemux / BDRip
Country: Germany | France | Spain
Time: 2h 27min
IMDB: 7.5
Director: Tom Tykwer
Actors: Ben Whishaw, Francesc Albiol, Gonzalo Cunill, Roger Salvany, Andrs Herrera, Simon Chandler, David Calder, Richard Felix, Birgit Minichmayr, Reg Wilson, Catherine Boisgontier, Nria Casas, Carlos Gramaje, Sian Thomas, Michael Smiley

Story Movie

Jean-Baptiste Grenouille, born with a superior olfactory sense, creates the world's finest perfume. His work, however, takes a dark turn as he searches for the ultimate scent.

Jean-Baptiste Grenouille came into the world unwanted, expected to die, yet born with an unnerving sense of smell that created alienation as well as talent. Of all the smells around him, Grenouille is beckoned to the scent of a woman's soul, and spends the rest of his life attempting to smell her essence again by becoming a perfumer, and creating the essence of an innocence lost.

Review 4K Movie

In this colourful and gripping film, you can literally "smell" the pictures. Sometimes they are captivating, sometimes awful, but they are always fascinating. A great, great movie about sensuality, desire, greed... and the quest for love. Wonderful cast (even Hoffman is excellent!), wonderful music (and the score is not "too" present, which is a good thing), wonderful direction. 2 and a half hours may seem a long time for some, but not for the real sensualists. The story and the film may have their flaws, but they also have outstanding qualities and in a perfect world Tom Tykwer should receive an award for his superb adaptation of the splendid book by Patrick Süsskind.

A must see. Or, should I say, a must "smell"!

Mediainfo

movie BDRemux Video
ID : 1
Format : HEVC
Format/Info : High Efficiency Video Coding
Format profile : Main 10@L5.1@High
Codec ID : V_MPEGH/ISO/HEVC
Duration : 2 h 27 min
Bit rate : 48.3 Mb/s
Width : 3 840 pixels
Height : 2 160 pixels
Display aspect ratio : 16:9
Frame rate mode : Constant
Frame rate : 24.000 FPS
Color space : YUV
Chroma subsampling : 4:2:0 (Type 2)
Bit depth : 10 bits
Bits/(Pixel*Frame) : 0.243
Stream size : 49.7 GiB (92%)
Title : Perfume.The.Story.of.a.Murderer.2006.2160p.BluRay.REMUX.HEVC.DTS-HR.5.1-FGT
Writing library : x265 2.0+9-2737c6ff5f80:[Windows][GCC 5.3.1][64 bit] 10bit
Encoding settings : wpp / ctu=64 / min-cu-size=8 / max-tu-size=32 / tu-intra-depth=1 / tu-inter-depth=1 / me=1 / subme=2 / merange=57 / no-rect / no-amp / max-merge=2 / temporal-mvp / no-early-skip / rskip / rdpenalty=0 / no-tskip / no-tskip-fast / strong-intra-smoothing / no-lossless / no-cu-lossless / no-constrained-intra / no-fast-intra / no-open-gop / no-temporal-layers / interlace=0 / keyint=24 / min-keyint=1 / scenecut=40 / rc-lookahead=20 / lookahead-slices=8 / bframes=4 / bframe-bias=0 / b-adapt=2 / ref=3 / limit-refs=3 / no-limit-modes / weightp / no-weightb / aq-mode=1 / qg-size=32 / aq-strength=1.00 / cbqpoffs=0 / crqpoffs=0 / rd=3 / psy-rd=2.00 / rdoq-level=0 / psy-rdoq=0.00 / no-rd-refine / signhide / deblock=0:0 / sao / no-sao-non-deblock / b-pyramid / cutree / no-intra-refresh / rc=abr / bitrate=50000 / qcomp=0.60 / qpmin=0 / qpmax=69 / qpstep=4 / vbv-maxrate=65000 / vbv-bufsize=50000 / ipratio=1.40 / pbratio=1.30
Default : Yes
Forced : No
Color range : Limited
Color primaries : BT.2020
Transfer characteristics : PQ
Matrix coefficients : BT.2020 non-constant
Mastering display color primaries : Display P3
Mastering display luminance : min: 0.0050 cd/m2, max: 1000 cd/m2
Maximum Content Light Level : 10000 cd/m2
Maximum Frame-Average Light Level : 400 cd/m2

Audio #1
ID : 2
Format : DTS
Format/Info : Digital Theater Systems
Format profile : HRA / Core
Codec ID : A_DTS
Duration : 2 h 27 min
Bit rate mode : Constant
Bit rate : 2 046 kb/s / 1 509 kb/s
Channel(s) : 6 channels
Channel positions : Front: L C R, Side: L R, LFE
Sampling rate : 48.0 kHz
Frame rate : 93.750 FPS (512 SPF)
Bit depth : 24 bits
Compression mode : Lossy
Stream size : 2.11 GiB (4%)
Title : Perfume.The.Story.of.a.Murderer.2006.2160p.BluRay.REMUX.HEVC.DTS-HR.5.1-FGT
Language : English
Default : Yes
Forced : No

Audio #2
ID : 3
Format : DTS
Format/Info : Digital Theater Systems
Format profile : HRA / Core
Codec ID : A_DTS
Duration : 2 h 27 min
Bit rate mode : Constant
Bit rate : 2 046 kb/s / 1 509 kb/s
Channel(s) : 6 channels
Channel positions : Front: L C R, Side: L R, LFE
Sampling rate : 48.0 kHz
Frame rate : 93.750 FPS (512 SPF)
Bit depth : 24 bits
Compression mode : Lossy
Stream size : 2.11 GiB (4%)
Title : Perfume.The.Story.of.a.Murderer.2006.2160p.BluRay.REMUX.HEVC.DTS-HR.5.1-FGT
Language : German
Default : No
Forced : No

Text
ID : 4
Format : PGS
Muxing mode : zlib
Codec ID : S_HDMV/PGS
Codec ID/Info : Picture based subtitle format used on BDs/HD-DVDs
Duration : 2 h 16 min
Bit rate : 26.9 kb/s
Count of elements : 1678
Stream size : 26.2 MiB (0%)
Title : German-PGS
Language : German
Default : No
Forced : No

Menu
00:00:00.000 : en:Chapter 1
00:06:51.500 : en:Chapter 2
00:11:00.541 : en:Chapter 3
00:14:12.208 : en:Chapter 4
00:17:57.583 : en:Chapter 5
00:22:24.416 : en:Chapter 6
00:27:41.250 : en:Chapter 7
00:33:30.791 : en:Chapter 8
00:39:16.625 : en:Chapter 9
00:45:07.041 : en:Chapter 10
00:49:23.625 : en:Chapter 11
00:55:25.958 : en:Chapter 12
00:59:26.625 : en:Chapter 13
01:03:26.708 : en:Chapter 14
01:08:51.458 : en:Chapter 15
01:13:32.166 : en:Chapter 16
01:18:39.791 : en:Chapter 17
01:23:16.250 : en:Chapter 18
01:26:52.291 : en:Chapter 19
01:33:27.791 : en:Chapter 20
01:39:05.041 : en:Chapter 21
01:42:59.416 : en:Chapter 22
01:47:51.000 : en:Chapter 23
01:52:39.958 : en:Chapter 24
01:56:54.250 : en:Chapter 25
02:00:41.333 : en:Chapter 26
02:05:14.916 : en:Chapter 27
02:09:37.208 : en:Chapter 28
02:14:39.625 : en:Chapter 29
02:17:45.208 : en:Chapter 30
movie BDRip Video
ID : 1
Format : HEVC
Format/Info : High Efficiency Video Coding
Format profile : Main 10@L5.1@High
Codec ID : V_MPEGH/ISO/HEVC
Duration : 2 h 27 min
Bit rate : 13.5 Mb/s
Width : 3 840 pixels
Height : 1 636 pixels
Display aspect ratio : 2.35:1
Frame rate mode : Constant
Frame rate : 24.000 FPS
Color space : YUV
Chroma subsampling : 4:2:0 (Type 2)
Bit depth : 10 bits
Bits/(Pixel*Frame) : 0.089
Stream size : 13.9 GiB (85%)
Writing library : x265 2.6+4-f7498acb3874:[Windows][GCC 7.2.0][64 bit] 10bit
Encoding settings : cpuid=1173503 / frame-threads=4 / numa-pools=16 / wpp / no-pmode / no-pme / no-psnr / no-ssim / log-level=2 / input-csp=1 / input-res=3840x1636 / interlace=0 / total-frames=212210 / level-idc=51 / high-tier=1 / uhd-bd=0 / ref=4 / no-allow-non-conformance / repeat-headers / annexb / aud / hrd / info / hash=0 / no-temporal-layers / no-open-gop / min-keyint=24 / keyint=240 / bframes=4 / b-adapt=2 / b-pyramid / bframe-bias=0 / rc-lookahead=25 / lookahead-slices=4 / scenecut=40 / no-intra-refresh / ctu=64 / min-cu-size=8 / rect / no-amp / max-tu-size=32 / tu-inter-depth=1 / tu-intra-depth=1 / limit-tu=0 / rdoq-level=2 / dynamic-rd=0.00 / no-ssim-rd / signhide / no-tskip / nr-intra=0 / nr-inter=0 / no-constrained-intra / no-strong-intra-smoothing / max-merge=3 / limit-refs=3 / limit-modes / me=3 / subme=3 / merange=57 / temporal-mvp / weightp / no-weightb / no-analyze-src-pics / deblock=-3:-3 / no-sao / no-sao-non-deblock / rd=4 / no-early-skip / rskip / no-fast-intra / no-tskip-fast / no-cu-lossless / no-b-intra / no-splitrd-skip / rdpenalty=0 / psy-rd=2.00 / psy-rdoq=1.00 / no-rd-refine / analysis-reuse-mode=0 / no-lossless / cbqpoffs=0 / crqpoffs=0 / rc=crf / crf=17.0 / qcomp=0.60 / qpstep=4 / stats-write=0 / stats-read=0 / vbv-maxrate=160000 / vbv-bufsize=160000 / vbv-init=0.9 / crf-max=0.0 / crf-min=0.0 / ipratio=1.40 / pbratio=1.30 / aq-mode=1 / aq-strength=1.00 / cutree / zone-count=0 / no-strict-cbr / qg-size=32 / no-rc-grain / qpmax=69 / qpmin=0 / no-const-vbv / sar=1 / overscan=0 / videoformat=5 / range=0 / colorprim=9 / transfer=16 / colormatrix=9 / chromaloc=1 / chromaloc-top=2 / chromaloc-bottom=2 / display-window=0 / master-display=G(13250,34500)B(7500,3000)R(34000,16000)WP(15635,16450)L(10000000,50) / max-cll=10000,400 / min-luma=0 / max-luma=1023 / log2-max-poc-lsb=8 / vui-timing-info / vui-hrd-info / slices=1 / opt-qp-pps / opt-ref-list-length-pps / no-multi-pass-opt-rps / scenecut-bias=0.05 / no-opt-cu-delta-qp / no-aq-motion / hdr / hdr-opt / no-dhdr10-opt / analysis-reuse-level=5 / scale-factor=0 / refine-intra=0 / refine-inter=0 / refine-mv=0 / no-limit-sao / ctu-info=0 / no-lowpass-dct / refine-mv-type=0 / copy-pic=1
Default : Yes
Forced : No
Color range : Limited
Color primaries : BT.2020
Transfer characteristics : PQ
Matrix coefficients : BT.2020 non-constant
Statistics Tags Issue : no_variable_data 1970-01-01 00:00:00 / no_variable_data 2010-02-22 21:41:29
FromStats_BitRate : 13797099
FromStats_Duration : 02:27:22.084000000
FromStats_FrameCount : 212210
FromStats_StreamSize : 15249389175
Mastering display color primaries : Display P3
Mastering display luminance : min: 0.0050 cd/m2, max: 1000 cd/m2
Maximum Content Light Level : 10000 cd/m2
Maximum Frame-Average Light Level : 400 cd/m2

Audio
ID : 2
Format : DTS
Format/Info : Digital Theater Systems
Format profile : HRA / Core
Codec ID : A_DTS
Duration : 2 h 27 min
Bit rate mode : Constant
Bit rate : 2 046 kb/s / 1 509 kb/s
Channel(s) : 6 channels
Channel positions : Front: L C R, Side: L R, LFE
Sampling rate : 48.0 kHz
Frame rate : 93.750 FPS (512 SPF)
Bit depth : 24 bits
Compression mode : Lossy
Stream size : 2.11 GiB (13%)
Language : English
Default : No
Forced : No
Statistics Tags Issue : no_variable_data 1970-01-01 00:00:00 / no_variable_data 2010-02-22 21:41:29
FromStats_BitRate : 2045999
FromStats_Duration : 02:27:22.070000000
FromStats_FrameCount : 828944
FromStats_StreamSize : 2261359232

Text #1
ID : 3
Format : UTF-8
Codec ID : S_TEXT/UTF8
Codec ID/Info : UTF-8 Plain Text
Language : English
Default : No
Forced : No
Statistics Tags Issue : no_variable_data 1970-01-01 00:00:00 / no_variable_data 2010-02-22 21:41:29
FromStats_BitRate : 28
FromStats_Duration : 02:16:02.917000000
FromStats_FrameCount : 929
FromStats_StreamSize : 29331

Text #2
ID : 4
Format : PGS
Muxing mode : zlib
Codec ID : S_HDMV/PGS
Codec ID/Info : Picture based subtitle format used on BDs/HD-DVDs
Language : German
Default : No
Forced : No
Statistics Tags Issue : no_variable_data 1970-01-01 00:00:00 / no_variable_data 2010-02-22 21:41:29
FromStats_BitRate : 26935
FromStats_Duration : 02:16:03.458000000
FromStats_FrameCount : 1678
FromStats_StreamSize : 27485564

Menu
00:00:00.000 : en:00:00:00.000
00:06:51.500 : en:00:06:51.500
00:11:00.542 : en:00:11:00.542
00:14:12.208 : en:00:14:12.208
00:17:57.583 : en:00:17:57.583
00:22:24.417 : en:00:22:24.417
00:27:41.250 : en:00:27:41.250
00:33:30.792 : en:00:33:30.792
00:39:16.625 : en:00:39:16.625
00:45:07.042 : en:00:45:07.042
00:49:23.625 : en:00:49:23.625
00:55:25.958 : en:00:55:25.958
00:59:26.625 : en:00:59:26.625
01:03:26.708 : en:01:03:26.708
01:08:51.458 : en:01:08:51.458
01:13:32.167 : en:01:13:32.167
01:18:39.792 : en:01:18:39.792
01:23:16.250 : en:01:23:16.250
01:26:52.292 : en:01:26:52.292
01:33:27.792 : en:01:33:27.792
01:39:05.042 : en:01:39:05.042
01:42:59.417 : en:01:42:59.417
01:47:51.000 : en:01:47:51.000
01:52:39.958 : en:01:52:39.958
01:56:54.250 : en:01:56:54.250
02:00:41.333 : en:02:00:41.333
02:05:14.917 : en:02:05:14.917
02:09:37.208 : en:02:09:37.208
02:14:39.625 : en:02:14:39.625
02:17:45.208 : en:02:17:45.208

Download

download 4k hdr movies download 4k hdr movies

Perfume: The Story of a Murderer 4K 2016 Ultra HD 2160p


Watch a movie trailer - Perfume: The Story of a Murderer 4K 2016 Ultra HD 2160p
Comments and Feedback
Add your comment:
Your name:
Your E-Mail:
Enter the two words shown in the image: *