Select movie Search movie Close search My Account

Apollo 13 4K 1995 Ultra HD 2160p

Apollo 13 4K 1995 Ultra HD 2160p
BDRemux / BDRip
Country: USA
Time: 2h 20min
IMDB: 7.6
Director: Ron Howard
Actors: Tom Hanks, Bill Paxton, Kevin Bacon, Gary Sinise, Ed Harris, Kathleen Quinlan, Mary Kate Schellhardt, Emily Ann Lloyd, Miko Hughes, Max Elliott Slade, Jean Speegle Howard, Tracy Reiner, David Andrews, Michele Little, Chris Ellis...

Story Movie

NASA must devise a strategy to return Apollo 13 to Earth safely after the spacecraft undergoes massive internal damage putting the lives of the three astronauts on board in jeopardy.

Based on the true story of the ill-fated 13th Apollo mission bound for the moon. Astronauts Lovell, Haise and Swigert were scheduled to fly Apollo 14, but are moved up to 13. It's 1970, and The US has already achieved their lunar landing goal, so there's little interest in this "routine" flight.. until that is, things go very wrong, and prospects of a safe return fade.

Review 4K Movie

Probably one of the most significant things about Apollo 13 is the fact that it managed to be such a strikingly realistic film despite the abundance of well-known Hollywood actors. Tom Hanks, of course, can convincingly act any part in the world, and his role in Apollo 13 is no exception. All of the actors involved seemed to have been given parts that they were born to play, because they were so successful in the roles. The true events of the historic Apollo 13 mission are amazingly re-created here, and the results are spectacular.

Not only is this film wonderfully acted, it also presents a nearly flawless portrayal of the time period, even down to the slide rulers that were used to do calculations. The audience is literally taken back in time to the 1960's, and all of these universally exciting events are brought back to life, and this is one of the things that makes this movie so special. So many films try to do this, and the vast majority of them fail miserably, so it just feels so good to occasionally see it done right.

Another thing that was used in the perfect amount in Apollo 13 was the special effects. I am entirely against excessive special effects, because if they aren't justified in being in the film, they can sometimes ruin the film by themselves (remember The Perfect Storm?). The special effects in Apollo 13, however, served the film very well. Of course, the most significant special effect in the film, aside from the space scenes, was the zero gravity, which was done flawlessly. I'm just glad that they decided to go up in one of those Zero-G planes for these scenes, rather than have the actors drift lazily around and act as if they are in zero gravity, because that would have taken a lot away from the film.

Apollo 13 has an excellent story made even better by the fact that it is true, it has great acting, skillful direction, and plenty of tasteful humor. It is not only a highly entertaining film, but is also educational, which should please parents (as if they need any more pleasing than seeing their younger years brought back to life on the silver screen). Definite must-see, Apollo 13 is a contemporary classic.

Mediainfo

movie BDRemux Video
ID : 1
Format : HEVC
Format/Info : High Efficiency Video Coding
Format profile : Main 10@L5.1@High
Codec ID : V_MPEGH/ISO/HEVC
Duration : 2 h 19 min
Bit rate : 36.9 Mb/s
Width : 3 840 pixels
Height : 2 160 pixels
Display aspect ratio : 16:9
Frame rate mode : Constant
Frame rate : 23.976 (24000/1001) FPS
Color space : YUV
Chroma subsampling : 4:2:0 (Type 2)
Bit depth : 10 bits
Bits/(Pixel*Frame) : 0.186
Stream size : 36.1 GiB (75%)
Title : Apollo.13.1995.2160p.BluRay.REMUX.HEVC.DTS-X.7.1-FGT
Writing library : ATEME Titan File 3.8.3 (4.8.3.0)
Default : Yes
Forced : No
Color range : Limited
Color primaries : BT.2020
Transfer characteristics : PQ
Matrix coefficients : BT.2020 non-constant
Mastering display color primaries : R: x=0.680000 y=0.320000, G: x=0.265000 y=0.690000, B: x=0.150000 y=0.060000, White point: x=0.312700 y=0.329000
Mastering display luminance : min: 0.0050 cd/m2, max: 1000.0000 cd/m2
Maximum Content Light Level : 1000 cd/m2
Maximum Frame-Average Light Level : 293 cd/m2

Audio #1
ID : 2
Format : DTS
Format/Info : Digital Theater Systems
Format profile : X / MA / Core
Codec ID : A_DTS
Duration : 2 h 19 min
Bit rate mode : Variable / Variable / Constant
Bit rate : 7 247 kb/s / 7 247 kb/s / 1 509 kb/s
Channel(s) : Object Based / 8 channels / 6 channels
Channel positions : Object Based / Front: L C R, Side: L R, Back: L R, LFE / Front: L C R, Side: L R, LFE
Sampling rate : / 48.0 kHz / 48.0 kHz
Frame rate : 93.750 FPS (512 SPF)
Bit depth : / 24 bits / 24 bits
Compression mode : / Lossless / Lossy
Stream size : 7.08 GiB (15%)
Title : Apollo.13.1995.2160p.BluRay.REMUX.HEVC.DTS-X.7.1-FGT
Language : English
Default : Yes
Forced : No

Audio #2
ID : 3
Format : DTS
Format/Info : Digital Theater Systems
Format profile : X / MA / Core
Codec ID : A_DTS
Duration : 2 h 19 min
Bit rate mode : Variable / Variable / Constant
Bit rate : 3 573 kb/s / 3 573 kb/s / 1 509 kb/s
Channel(s) : Object Based / 8 channels / 6 channels
Channel positions : Object Based / Front: L C R, Side: L R, Back: L R, LFE / Front: L C R, Side: L R, LFE
Sampling rate : / 48.0 kHz / 48.0 kHz
Frame rate : 93.750 FPS (512 SPF)
Bit depth : / 24 bits / 24 bits
Compression mode : / Lossless / Lossy
Stream size : 3.49 GiB (7%)
Title : Apollo.13.1995.2160p.BluRay.REMUX.HEVC.DTS-X.7.1-FGT
Language : German
Default : No
Forced : No

Audio #3
ID : 4
Format : DTS
Format/Info : Digital Theater Systems
Codec ID : A_DTS
Duration : 2 h 19 min
Bit rate mode : Constant
Bit rate : 768 kb/s
Channel(s) : 2 channels
Channel positions : Front: L R
Sampling rate : 48.0 kHz
Frame rate : 93.750 FPS (512 SPF)
Bit depth : 24 bits
Compression mode : Lossy
Stream size : 768 MiB (2%)
Title : Apollo.13.1995.2160p.BluRay.REMUX.HEVC.DTS-X.7.1-FGT
Language : Turkish
Default : No
Forced : No

Audio #4
ID : 5
Format : AC-3
Format/Info : Audio Coding 3
Codec ID : A_AC3
Duration : 2 h 19 min
Bit rate mode : Constant
Bit rate : 192 kb/s
Channel(s) : 2 channels
Channel positions : Front: L R
Sampling rate : 48.0 kHz
Frame rate : 31.250 FPS (1536 SPF)
Bit depth : 16 bits
Compression mode : Lossy
Stream size : 192 MiB (0%)
Title : Apollo.13.1995.2160p.BluRay.REMUX.HEVC.DTS-X.7.1-FGT
Language : English
Service kind : Complete Main
Default : No
Forced : No

Audio #5
ID : 6
Format : AC-3
Format/Info : Audio Coding 3
Codec ID : A_AC3
Duration : 2 h 19 min
Bit rate mode : Constant
Bit rate : 192 kb/s
Channel(s) : 2 channels
Channel positions : Front: L R
Sampling rate : 48.0 kHz
Frame rate : 31.250 FPS (1536 SPF)
Bit depth : 16 bits
Compression mode : Lossy
Stream size : 192 MiB (0%)
Title : Apollo.13.1995.2160p.BluRay.REMUX.HEVC.DTS-X.7.1-FGT
Language : English
Service kind : Complete Main
Default : No
Forced : No

Text #1
ID : 7
Format : PGS
Muxing mode : zlib
Codec ID : S_HDMV/PGS
Codec ID/Info : Picture based subtitle format used on BDs/HD-DVDs
Duration : 2 h 13 min
Bit rate : 52.3 kb/s
Count of elements : 4270
Stream size : 49.9 MiB (0%)
Title : English-PGS
Language : English
Default : Yes
Forced : No

Text #2
ID : 8
Format : PGS
Muxing mode : zlib
Codec ID : S_HDMV/PGS
Codec ID/Info : Picture based subtitle format used on BDs/HD-DVDs
Duration : 2 h 19 min
Bit rate : 47.5 kb/s
Count of elements : 3698
Stream size : 47.3 MiB (0%)
Title : German-PGS
Language : German
Default : No
Forced : No

Text #3
ID : 9
Format : PGS
Muxing mode : zlib
Codec ID : S_HDMV/PGS
Codec ID/Info : Picture based subtitle format used on BDs/HD-DVDs
Duration : 2 h 19 min
Bit rate : 44.4 kb/s
Count of elements : 3704
Stream size : 44.2 MiB (0%)
Title : Turkish-PGS
Language : Turkish
Default : No
Forced : No

Text #4
ID : 10
Format : PGS
Muxing mode : zlib
Codec ID : S_HDMV/PGS
Codec ID/Info : Picture based subtitle format used on BDs/HD-DVDs
Duration : 2 h 14 min
Bit rate : 61.4 kb/s
Count of elements : 4104
Stream size : 59.3 MiB (0%)
Title : English-SDH-PGS
Language : English
Default : No
Forced : No

Text #5
ID : 11
Format : PGS
Muxing mode : zlib
Codec ID : S_HDMV/PGS
Codec ID/Info : Picture based subtitle format used on BDs/HD-DVDs
Duration : 2 h 19 min
Bit rate : 61.7 kb/s
Count of elements : 4128
Stream size : 61.6 MiB (0%)
Title : German-SDH-PGS
Language : German
Default : No
Forced : No

Text #6
ID : 12
Format : PGS
Muxing mode : zlib
Codec ID : S_HDMV/PGS
Codec ID/Info : Picture based subtitle format used on BDs/HD-DVDs
Duration : 2 h 14 min
Bit rate : 65.6 kb/s
Count of elements : 4340
Stream size : 62.9 MiB (0%)
Title : English-COMMENTARY-PGS
Language : English
Default : No
Forced : No

Text #7
ID : 13
Format : PGS
Muxing mode : zlib
Codec ID : S_HDMV/PGS
Codec ID/Info : Picture based subtitle format used on BDs/HD-DVDs
Duration : 2 h 19 min
Bit rate : 65.9 kb/s
Count of elements : 4374
Stream size : 65.9 MiB (0%)
Title : German-COMMENTARY-PGS
Language : German
Default : No
Forced : No

Text #8
ID : 14
Format : PGS
Muxing mode : zlib
Codec ID : S_HDMV/PGS
Codec ID/Info : Picture based subtitle format used on BDs/HD-DVDs
Duration : 2 h 18 min
Bit rate : 623 b/s
Count of elements : 82
Stream size : 632 KiB (0%)
Title : German-FORCED-PGS
Language : German
Default : No
Forced : No

Text #9
ID : 15
Format : PGS
Muxing mode : zlib
Codec ID : S_HDMV/PGS
Codec ID/Info : Picture based subtitle format used on BDs/HD-DVDs
Duration : 2 h 19 min
Bit rate : 912 b/s
Count of elements : 104
Stream size : 929 KiB (0%)
Title : Turkish-FORCED-PGS
Language : Turkish
Default : No
Forced : No

Menu
00:00:00.000 : en:Chapter 1
00:09:39.120 : en:Chapter 2
00:19:49.354 : en:Chapter 3
00:34:21.851 : en:Chapter 4
00:45:15.337 : en:Chapter 5
00:49:38.183 : en:Chapter 6
01:01:59.674 : en:Chapter 7
01:05:52.657 : en:Chapter 8
01:10:05.451 : en:Chapter 9
01:15:08.045 : en:Chapter 10
01:17:08.040 : en:Chapter 11
01:19:41.610 : en:Chapter 12
01:35:12.581 : en:Chapter 13
01:39:11.153 : en:Chapter 14
01:48:21.495 : en:Chapter 15
01:56:39.617 : en:Chapter 16
01:58:49.914 : en:Chapter 17
02:05:18.093 : en:Chapter 18
02:09:07.156 : en:Chapter 19
02:14:06.038 : en:Chapter 20
movie BDRip Video
ID : 1
Format : HEVC
Format/Info : High Efficiency Video Coding
Format profile : Main 10@L5.1@High
Codec ID : V_MPEGH/ISO/HEVC
Duration : 2 h 19 min
Bit rate : 23.9 Mb/s
Width : 3 840 pixels
Height : 1 632 pixels
Display aspect ratio : 2.35:1
Frame rate mode : Constant
Frame rate : 23.976 (24000/1001) FPS
Color space : YUV
Chroma subsampling : 4:2:0 (Type 2)
Bit depth : 10 bits
Bits/(Pixel*Frame) : 0.159
Stream size : 23.4 GiB (75%)
Writing library : x265 2.5+58-06979c042350:[Windows][GCC 6.2.1][64 bit] 10bit
Encoding settings : cpuid=1173503 / frame-threads=4 / numa-pools=20 / wpp / no-pmode / no-pme / no-psnr / no-ssim / log-level=2 / input-csp=1 / input-res=3840x1632 / interlace=0 / total-frames=201185 / level-idc=51 / high-tier=1 / uhd-bd=0 / ref=4 / no-allow-non-conformance / repeat-headers / annexb / aud / hrd / info / hash=0 / no-temporal-layers / no-open-gop / min-keyint=1 / keyint=24 / bframes=4 / b-adapt=2 / b-pyramid / bframe-bias=0 / rc-lookahead=25 / lookahead-slices=4 / scenecut=40 / no-intra-refresh / ctu=64 / min-cu-size=8 / rect / no-amp / max-tu-size=32 / tu-inter-depth=1 / tu-intra-depth=1 / limit-tu=0 / rdoq-level=2 / dynamic-rd=0.00 / no-ssim-rd / signhide / no-tskip / nr-intra=0 / nr-inter=0 / no-constrained-intra / no-strong-intra-smoothing / max-merge=3 / limit-refs=3 / limit-modes / me=3 / subme=3 / merange=57 / temporal-mvp / weightp / no-weightb / no-analyze-src-pics / deblock=-3:-3 / no-sao / no-sao-non-deblock / rd=4 / no-early-skip / rskip / no-fast-intra / no-tskip-fast / no-cu-lossless / no-b-intra / no-splitrd-skip / rdpenalty=0 / psy-rd=2.00 / psy-rdoq=1.00 / no-rd-refine / analysis-reuse-mode=0 / no-lossless / cbqpoffs=0 / crqpoffs=0 / rc=crf / crf=19.0 / qcomp=0.60 / qpstep=4 / stats-write=0 / stats-read=0 / vbv-maxrate=160000 / vbv-bufsize=160000 / vbv-init=0.9 / crf-max=0.0 / crf-min=0.0 / ipratio=1.40 / pbratio=1.30 / aq-mode=1 / aq-strength=1.00 / cutree / zone-count=0 / no-strict-cbr / qg-size=32 / no-rc-grain / qpmax=69 / qpmin=0 / no-const-vbv / sar=1 / overscan=0 / videoformat=5 / range=0 / colorprim=9 / transfer=16 / colormatrix=9 / chromaloc=1 / chromaloc-top=2 / chromaloc-bottom=2 / display-window=0 / master-display=G(13250,34500)B(7500,3000)R(34000,16000)WP(15635,16450)L(10000000,50) / max-cll=1000,293 / min-luma=0 / max-luma=1023 / log2-max-poc-lsb=8 / vui-timing-info / vui-hrd-info / slices=1 / no-opt-qp-pps / no-opt-ref-list-length-pps / no-multi-pass-opt-rps / scenecut-bias=0.05 / no-opt-cu-delta-qp / no-aq-motion / hdr / hdr-opt / no-dhdr10-opt / analysis-reuse-level=5 / scale-factor=0 / refine-intra=0 / refine-inter=0 / refine-mv=0 / no-limit-sao / ctu-info=0 / no-lowpass-dct / refine-mv-type=0 / copy-pic=1
Default : Yes
Forced : No
Color range : Limited
Color primaries : BT.2020
Transfer characteristics : PQ
Matrix coefficients : BT.2020 non-constant
Mastering display color primaries : R: x=0.680000 y=0.320000, G: x=0.265000 y=0.690000, B: x=0.150000 y=0.060000, White point: x=0.312700 y=0.329000
Mastering display luminance : min: 0.0050 cd/m2, max: 1000.0000 cd/m2
Maximum Content Light Level : 1000 cd/m2
Maximum Frame-Average Light Level : 293 cd/m2

Audio #1
ID : 2
Format : DTS
Format/Info : Digital Theater Systems
Format profile : X / MA / Core
Codec ID : A_DTS
Duration : 2 h 20 min
Bit rate mode : Variable / Variable / Constant
Bit rate : 7 230 kb/s / 7 230 kb/s / 1 509 kb/s
Channel(s) : Object Based / 8 channels / 6 channels
Channel positions : Object Based / Front: L C R, Side: L R, Back: L R, LFE / Front: L C R, Side: L R, LFE
Sampling rate : / 48.0 kHz / 48.0 kHz
Frame rate : 93.750 FPS (512 SPF)
Bit depth : / 24 bits / 24 bits
Compression mode : / Lossless / Lossy
Stream size : 7.08 GiB (23%)
Language : English
Default : Yes
Forced : No

Audio #2
ID : 3
Format : AC-3
Format/Info : Audio Coding 3
Codec ID : A_AC3
Duration : 2 h 20 min
Bit rate mode : Constant
Bit rate : 192 kb/s
Channel(s) : 2 channels
Channel positions : Front: L R
Sampling rate : 48.0 kHz
Frame rate : 31.250 FPS (1536 SPF)
Bit depth : 16 bits
Compression mode : Lossy
Stream size : 193 MiB (1%)
Title : Commentary 1 with director Ron Howard
Language : English
Service kind : Complete Main
Default : No
Forced : No

Audio #3
ID : 4
Format : AC-3
Format/Info : Audio Coding 3
Codec ID : A_AC3
Duration : 2 h 20 min
Bit rate mode : Constant
Bit rate : 192 kb/s
Channel(s) : 2 channels
Channel positions : Front: L R
Sampling rate : 48.0 kHz
Frame rate : 31.250 FPS (1536 SPF)
Bit depth : 16 bits
Compression mode : Lossy
Stream size : 193 MiB (1%)
Title : Commentary 2 with Jim Lovell and Marilyn Lovell
Language : English
Service kind : Complete Main
Default : No
Forced : No

Text #1
ID : 5
Format : PGS
Muxing mode : zlib
Codec ID : S_HDMV/PGS
Codec ID/Info : Picture based subtitle format used on BDs/HD-DVDs
Duration : 2 h 13 min
Bit rate : 52.3 kb/s
Count of elements : 4270
Stream size : 49.9 MiB (0%)
Title : SDH
Language : English
Default : No
Forced : No

Text #2
ID : 6
Format : PGS
Muxing mode : zlib
Codec ID : S_HDMV/PGS
Codec ID/Info : Picture based subtitle format used on BDs/HD-DVDs
Duration : 2 h 13 min
Bit rate : 41.7 kb/s
Count of elements : 3704
Stream size : 39.7 MiB (0%)
Language : French
Default : No
Forced : No

Text #3
ID : 7
Format : PGS
Muxing mode : zlib
Codec ID : S_HDMV/PGS
Codec ID/Info : Picture based subtitle format used on BDs/HD-DVDs
Duration : 2 h 13 min
Bit rate : 49.9 kb/s
Count of elements : 3696
Stream size : 47.6 MiB (0%)
Language : Spanish
Default : No
Forced : No

Text #4
ID : 8
Format : PGS
Muxing mode : zlib
Codec ID : S_HDMV/PGS
Codec ID/Info : Picture based subtitle format used on BDs/HD-DVDs
Duration : 2 h 13 min
Bit rate : 29.4 kb/s
Count of elements : 3388
Stream size : 28.0 MiB (0%)
Language : Japanese
Default : No
Forced : No

Text #5
ID : 9
Format : PGS
Muxing mode : zlib
Codec ID : S_HDMV/PGS
Codec ID/Info : Picture based subtitle format used on BDs/HD-DVDs
Duration : 2 h 19 min
Bit rate : 47.1 kb/s
Count of elements : 3700
Stream size : 46.9 MiB (0%)
Language : Portuguese
Default : No
Forced : No

Text #6
ID : 10
Format : PGS
Muxing mode : zlib
Codec ID : S_HDMV/PGS
Codec ID/Info : Picture based subtitle format used on BDs/HD-DVDs
Duration : 2 h 14 min
Bit rate : 61.4 kb/s
Count of elements : 4104
Stream size : 59.3 MiB (0%)
Title : Commentary 1
Language : English
Default : No
Forced : No

Text #7
ID : 11
Format : PGS
Muxing mode : zlib
Codec ID : S_HDMV/PGS
Codec ID/Info : Picture based subtitle format used on BDs/HD-DVDs
Duration : 2 h 14 min
Bit rate : 31.2 kb/s
Count of elements : 2702
Stream size : 30.1 MiB (0%)
Title : Commentary 1
Language : Spanish
Default : No
Forced : No

Text #8
ID : 12
Format : PGS
Muxing mode : zlib
Codec ID : S_HDMV/PGS
Codec ID/Info : Picture based subtitle format used on BDs/HD-DVDs
Duration : 2 h 14 min
Bit rate : 65.6 kb/s
Count of elements : 4340
Stream size : 62.9 MiB (0%)
Title : Commentary 2
Language : French
Default : No
Forced : No

Text #9
ID : 13
Format : PGS
Muxing mode : zlib
Codec ID : S_HDMV/PGS
Codec ID/Info : Picture based subtitle format used on BDs/HD-DVDs
Duration : 2 h 14 min
Bit rate : 28.0 kb/s
Count of elements : 2162
Stream size : 26.9 MiB (0%)
Title : Commentary 2
Language : French
Default : No
Forced : No

Menu
00:00:00.000 : en:00:00:00.000
00:09:39.120 : en:00:09:39.120
00:19:49.355 : en:00:19:49.355
00:34:21.851 : en:00:34:21.851
00:45:15.338 : en:00:45:15.338
00:49:38.184 : en:00:49:38.184
01:01:59.674 : en:01:01:59.674
01:05:52.657 : en:01:05:52.657
01:10:05.451 : en:01:10:05.451
01:15:08.045 : en:01:15:08.045
01:17:08.040 : en:01:17:08.040
01:19:41.610 : en:01:19:41.610
01:35:12.582 : en:01:35:12.582
01:39:11.154 : en:01:39:11.154
01:48:21.495 : en:01:48:21.495
01:56:39.618 : en:01:56:39.618
01:58:49.914 : en:01:58:49.914
02:05:18.094 : en:02:05:18.094
02:09:07.156 : en:02:09:07.156
02:14:06.038 : en:02:14:06.038

Download

download 4k hdr movies

You bought a premium on Takefile. Contact the TakeFile support team, they will increase your traffic up to 512 gb every 48 hours.

download 4k hdr movies

Apollo 13 4K 1995 Ultra HD 2160p


Watch a movie trailer - Apollo 13 4K 1995 Ultra HD 2160p
Comments and Feedback
Add your comment:
Your name:
Your E-Mail:
Enter the two words shown in the image: *