Select movie Search movie Close search My Account

Hickok 4K 2017 Ultra HD 2160p

Hickok 4K 2017 Ultra HD 2160p
BDRemux
Country: USA
Time: 1h 28min
IMDB: 4.8
Director: Timothy Woodward Jr.
Actors: Luke Hemsworth, Trace Adkins, Kris Kristofferson, Bruce Dern, Cameron Richardson, Kaiwi Lyman-Mersereau, Hunter Fischer, Robert Catrini, Britain Simons, Heather Alexander, Kimberly Alexander, Shane P. Allen, Terral Altom, Beau Bassewitz, Max Bogner

Story Movie

Legendary lawman and gunslinger, Wild Bill Hickok, is tasked with taming the wildest cow-town in the west. While delivering his own brand of frontier justice, the infamous gunfighter's reputation as the fastest draw in the west is put to the test.

Review 4K Movie

Wild Bill Hickok (Luke Helmsworth) comes to Abilene, a western cow town that needs taming and Mayor Knox (Kris Kristofferson) makes him the Marshall.

This is somewhat disappointing because there are good acting scenes and poorly acted scenes. You decide how correct I am. The scenes with Hickok and Dr. O'Rourke ( Bruce Dern) were very good; and also the dialogues between Hickok and Mayor Knox were spot on; and I even liked the banter between Hickok and John Wesley Hardin (Kaiwi Lyman-Mersereau). All the rest of the scenes and dialogues were not as good, but the talks between Hickok and Mattie (Cameron Richardson) his love interest were okay. Trace Atkins is okay as Poe, the owner of the saloon. He originally likes Hickok, but after Hickok affects his business by not allowing guns in town, he does everything to have his boys kill Hickok.

Was I looking for a shoot-out between Hickok and John Wesley Hardin? Of course. Checking with Wikipedia we see that Hickok and John Wesley Hardin did know each other and when Hickok told Hardin to turn in his guns, he did. But in the movie he didn't. In the movie, Hickok made him a Deputy Marshall.

Yes, Hickok does pretend that John Wesley Hardin is not John Wesley Harden for if he was, then Hickok would have to arrest him because Hardin is a wanted man. Interesting take here.

Was this a really good western? No. A lot of stuff needed work, mostly quicker responses from the players at times. Let me say this: if the bad guys were better bad guys, then this may have saved the movie. Didn't happen. For example, the bad guys shoot into a cabin where Hickok and Mattie are and throw a stick of dynamite into the cabin. Hickok tosses it outside, but the bad guys think they killed Hickok and didn't check. See? This was just one small example.

Also I kept hearing that this was Drover town, but I didn't see one cow. A Drover is someone who drives cows to market. We should have seen at least one cow. Bummer.

A sort of interesting aside: I noticed most players wore their guns in not the usual place on their hips.

All in all this was watchable, and yes, somewhat disappointing, too, and we wished it was better. (5/10)

Violence: Yes. Sex: No. Nudity: Yes, almost when Hickok and Mattie get together. Language: Small stuff and not much of it.

Mediainfo

movie BDRemux Video
ID : 1
Format : HEVC
Format/Info : High Efficiency Video Coding
Format profile : Main 10@L5.1@High
Codec ID : V_MPEGH/ISO/HEVC
Duration : 1 h 28 min
Bit rate : 76.2 Mb/s
Width : 3 840 pixels
Height : 2 160 pixels
Display aspect ratio : 16:9
Frame rate mode : Constant
Frame rate : 23.976 (24000/1001) FPS
Color space : YUV
Chroma subsampling : 4:2:0
Bit depth : 10 bits
Bits/(Pixel*Frame) : 0.383
Stream size : 47.0 GiB (94%)
Title : Hickok.2017.2160p.BluRay.REMUX.HEVC.DTS-HD.MA.5.1
Default : Yes
Forced : No
Color range : Limited
Color primaries : BT.709
Transfer characteristics : BT.709
Matrix coefficients : BT.709

Audio
ID : 2
Format : DTS
Format/Info : Digital Theater Systems
Format profile : MA / Core
Mode : 16
Format settings, Endianness : Big
Codec ID : A_DTS
Duration : 1 h 28 min
Bit rate mode : Variable / Constant
Bit rate : 4 516 kb/s / 1 509 kb/s
Channel(s) : 6 channels
Channel positions : Front: L C R, Side: L R, LFE
Sampling rate : 48.0 kHz
Frame rate : 93.750 FPS (512 spf)
Bit depth : 24 bits
Compression mode : Lossless / Lossy
Stream size : 2.79 GiB (6%)
Title : Hickok.2017.2160p.BluRay.REMUX.HEVC.DTS-HD.MA.5.1
Language : English
Default : Yes
Forced : No

Text
ID : 3
Format : PGS
Muxing mode : zlib
Codec ID : S_HDMV/PGS
Codec ID/Info : Picture based subtitle format used on BDs/HD-DVDs
Duration : 1 h 27 min
Bit rate : 41.4 kb/s
Count of elements : 2637
Stream size : 25.8 MiB (0%)
Title : English-PGS
Language : English
Default : Yes
Forced : No

Menu
00:00:00.000 : en:Chapter 1
00:11:43.577 : en:Chapter 2
00:23:52.681 : en:Chapter 3
00:32:37.121 : en:Chapter 4
00:45:34.565 : en:Chapter 5
00:57:54.429 : en:Chapter 6
01:11:23.696 : en:Chapter 7
01:23:59.909 : en:Chapter 8

Download

download 4k hdr movies

You bought a premium on Takefile. Contact the TakeFile support team, they will increase your traffic up to 512 gb every 48 hours.

Hickok 4K 2017 Ultra HD 2160p


Watch a movie trailer - Hickok 4K 2017 Ultra HD 2160p
Comments and Feedback
Add your comment:
Your name:
Your E-Mail:
Enter the two words shown in the image: *