Select movie Search movie Close search My Account

Christine 4K 1983 Ultra HD 2160p

Christine 4K 1983 Ultra HD 2160p
BDRemux / BDRip
Country: USA
Time: 1h 50min
IMDB: 6.7
Director: John Carpenter
Actors: Keith Gordon, John Stockwell, Alexandra Paul, Robert Prosky, Harry Dean Stanton, Christine Belford, Roberts Blossom, William Ostrander, David Spielberg, Malcolm Danare, Steven Tash, Stuart Charno, Kelly Preston, Marc Poppel, Robert Darnell.

Story Movie

Christine 4K 1983 Ultra HD 2160p
A young girl named Christina 4k movie download website seduces a young guy without problems and makes him his obedient servant. She is not afraid of anything and does not tolerate enemies. If someone gets in the way, she will deal with any obstacle. But the whole secret is that she is a car and therefore she has an iron heart, and the next victim should be her young man.

Review 4K Movie

The youth horror film "Christine" 4k movie download website was doomed to success in the target audience. After all, he acted according to the story of the great and terrible Stephen King, the master of the genre of the thriller and horror, and John Carpenter was engaged in directing, which is worth stopping for a bit longer, because now far from everyone knows who this director was and what he actually did for the cinema .

John Carpenter was not particularly praised by critics, calling his paintings an operational mainstream designed for commercial success, while that these films have no artistic value. However, critics in the 70's and 80's of the last century were mistaken about Carpenter's works: such tapes as "Assault on the 13th plot", "Halloween", "Escape from New York" and "Something" were already recognized as examples of their genres of genre, which opened new horizons. For example, "Halloween" is considered the ancestor of the subgenre "youth slash horror", which gave way to many other franchises, including for the well-known franchise "Nightmare on Elm Street". This is the director, John Carpenter.

Let's return to Christina. Stephen King's adaptation of the story was hired by a certain Bill Phillips, for whom the film became the debut in feature-length cinema, and to this day the reviewers are considered his best work. Bill Phillips has somewhat changed the storyline prescribed by Stephen King, but, in general, adaptation can be considered successful, if, of course, read the story itself (although this opinion is ambiguous).

In the film version of "Christina" everything is built around a vintage car, which was acquired by a schoolboy Ernie (Keith Gordon), considered a loser there. He has only one friend - Dennis (John Stockwell), who seemed to subconsciously felt that Ernie should not buy a piece of scrap metal. But Ernie was literally obsessed with this car, calling him the female name "Christine" UHD. In addition, Ernie himself began to change, his character was manifested with great force of cynicism and aggression, which did not pass unnoticed for Dennis. But events soon begin to happen that, except as mystical, can not be called (what did you expect from Stephen King?) And "Christine" 4k begins to represent a mortal danger!

Mediainfo

movie BDRemux Video
ID : 1
Format : HEVC
Format/Info : High Efficiency Video Coding
Commercial name : HDR10
Format profile : Main 10@L5.1@High
Codec ID : V_MPEGH/ISO/HEVC
Duration : 1 h 50 min
Bit rate : 53.7 Mb/s
Width : 3 840 pixels
Height : 2 160 pixels
Display aspect ratio : 16:9
Frame rate mode : Constant
Frame rate : 23.976 (24000/1001) FPS
Color space : YUV
Chroma subsampling : 4:2:0 (Type 2)
Bit depth : 10 bits
Bits/(Pixel*Frame) : 0.270
Stream size : 41.3 GiB (78%)
Title : Christine.1983.2160p.BluRay.REMUX.HEVC.DTS-HD.MA.TrueHD.7.1.Atmos
Default : Yes
Forced : No
Color range : Limited
Color primaries : BT.2020
Transfer characteristics : PQ
Matrix coefficients : BT.2020 non-constant
Mastering display color primaries : Display P3
Mastering display luminance : min: 0.0050 cd/m2, max: 4000 cd/m2
Maximum Content Light Level : 1951 cd/m2
Maximum Frame-Average Light Level : 701 cd/m2

Audio #1
ID : 2
Format : TrueHD
Format profile : TrueHD+Atmos / TrueHD
Codec ID : A_TRUEHD
Duration : 1 h 50 min
Bit rate mode : Variable
Bit rate : 3 362 kb/s
Maximum bit rate : 5 004 kb/s
Channel(s) : Object Based / 8 channels
Channel positions : Object Based / Front: L C R, Side: L R, Back: L R, LFE
Sampling rate : / 48.0 kHz
Frame rate : 1 200.000 FPS (40 SPF)
Compression mode : Lossless
Stream size : 2.58 GiB (5%)
Title : Christine.1983.2160p.BluRay.REMUX.HEVC.DTS-HD.MA.TrueHD.7.1.Atmos
Language : English
Default : Yes
Forced : No

Audio #2
ID : 3
Format : DTS
Format/Info : Digital Theater Systems
Format profile : MA / Core
Codec ID : A_DTS
Duration : 1 h 50 min
Bit rate mode : Variable / Constant
Bit rate : 4 298 kb/s / 1 509 kb/s
Channel(s) : 8 channels / 6 channels
Channel positions : Front: L C R, Side: L R, Back: L R, LFE / Front: L C R, Side: L R, LFE
Sampling rate : 48.0 kHz
Frame rate : 93.750 FPS (512 SPF)
Bit depth : 24 bits
Compression mode : Lossless / Lossy
Stream size : 3.30 GiB (6%)
Title : Christine.1983.2160p.BluRay.REMUX.HEVC.DTS-HD.MA.TrueHD.7.1.Atmos
Language : English
Default : No
Forced : No

Audio #3
ID : 4
Format : AC-3
Format/Info : Audio Coding 3
Codec ID : A_AC3
Duration : 1 h 50 min
Bit rate mode : Constant
Bit rate : 640 kb/s
Channel(s) : 6 channels
Channel positions : Front: L C R, Side: L R, LFE
Sampling rate : 48.0 kHz
Frame rate : 31.250 FPS (1536 SPF)
Bit depth : 16 bits
Compression mode : Lossy
Stream size : 504 MiB (1%)
Title : Christine.1983.2160p.BluRay.REMUX.HEVC.DTS-HD.MA.TrueHD.7.1.Atmos
Language : English
Service kind : Complete Main
Default : No
Forced : No

Audio #4
ID : 5
Format : DTS
Format/Info : Digital Theater Systems
Format profile : MA / Core
Codec ID : A_DTS
Duration : 1 h 50 min
Bit rate mode : Variable / Constant
Bit rate : 1 726 kb/s / 1 509 kb/s
Channel(s) : 2 channels
Channel positions : / Front: L R
Sampling rate : 48.0 kHz
Frame rate : 93.750 FPS (512 SPF)
Bit depth : 16 bits
Compression mode : Lossless / Lossy
Stream size : 1.33 GiB (3%)
Title : Christine.1983.2160p.BluRay.REMUX.HEVC.DTS-HD.MA.TrueHD.7.1.Atmos
Language : English
Default : No
Forced : No

Audio #5
ID : 6
Format : DTS
Format/Info : Digital Theater Systems
Format profile : MA / Core
Codec ID : A_DTS
Duration : 1 h 50 min
Bit rate mode : Variable / Constant
Bit rate : 1 536 kb/s / 1 509 kb/s
Channel(s) : 2 channels
Channel positions : Front: L R
Sampling rate : 48.0 kHz
Frame rate : 93.750 FPS (512 SPF)
Bit depth : 16 bits
Compression mode : Lossless / Lossy
Stream size : 1.20 GiB (2%)
Title : Christine.1983.2160p.BluRay.REMUX.HEVC.DTS-HD.MA.TrueHD.7.1.Atmos
Language : French
Default : No
Forced : No

Audio #6
ID : 7
Format : DTS
Format/Info : Digital Theater Systems
Format profile : MA / Core
Codec ID : A_DTS
Duration : 1 h 50 min
Bit rate mode : Variable / Constant
Bit rate : 1 536 kb/s / 1 509 kb/s
Channel(s) : 2 channels
Channel positions : Front: L R
Sampling rate : 48.0 kHz
Frame rate : 93.750 FPS (512 SPF)
Bit depth : 16 bits
Compression mode : Lossless / Lossy
Stream size : 1.20 GiB (2%)
Title : Christine.1983.2160p.BluRay.REMUX.HEVC.DTS-HD.MA.TrueHD.7.1.Atmos
Language : German
Default : No
Forced : No

Audio #7
ID : 8
Format : AC-3
Format/Info : Audio Coding 3
Codec ID : A_AC3
Duration : 1 h 50 min
Bit rate mode : Constant
Bit rate : 256 kb/s
Channel(s) : 2 channels
Channel positions : Front: L R
Sampling rate : 48.0 kHz
Frame rate : 31.250 FPS (1536 SPF)
Bit depth : 16 bits
Compression mode : Lossy
Stream size : 201 MiB (0%)
Title : Christine.1983.2160p.BluRay.REMUX.HEVC.DTS-HD.MA.TrueHD.7.1.Atmos
Language : Italian
Service kind : Complete Main
Default : No
Forced : No

Audio #8
ID : 9
Format : AC-3
Format/Info : Audio Coding 3
Codec ID : A_AC3
Duration : 1 h 50 min
Bit rate mode : Constant
Bit rate : 256 kb/s
Channel(s) : 2 channels
Channel positions : Front: L R
Sampling rate : 48.0 kHz
Frame rate : 31.250 FPS (1536 SPF)
Bit depth : 16 bits
Compression mode : Lossy
Stream size : 201 MiB (0%)
Title : Christine.1983.2160p.BluRay.REMUX.HEVC.DTS-HD.MA.TrueHD.7.1.Atmos
Language : Japanese
Service kind : Complete Main
Default : No
Forced : No

Audio #9
ID : 10
Format : AC-3
Format/Info : Audio Coding 3
Codec ID : A_AC3
Duration : 1 h 50 min
Bit rate mode : Constant
Bit rate : 256 kb/s
Channel(s) : 2 channels
Channel positions : Front: L R
Sampling rate : 48.0 kHz
Frame rate : 31.250 FPS (1536 SPF)
Bit depth : 16 bits
Compression mode : Lossy
Stream size : 201 MiB (0%)
Title : Christine.1983.2160p.BluRay.REMUX.HEVC.DTS-HD.MA.TrueHD.7.1.Atmos
Language : Korean
Service kind : Complete Main
Default : No
Forced : No

Audio #10
ID : 11
Format : AC-3
Format/Info : Audio Coding 3
Codec ID : A_AC3
Duration : 1 h 50 min
Bit rate mode : Constant
Bit rate : 256 kb/s
Channel(s) : 2 channels
Channel positions : Front: L R
Sampling rate : 48.0 kHz
Frame rate : 31.250 FPS (1536 SPF)
Bit depth : 16 bits
Compression mode : Lossy
Stream size : 201 MiB (0%)
Title : Christine.1983.2160p.BluRay.REMUX.HEVC.DTS-HD.MA.TrueHD.7.1.Atmos
Language : Portuguese
Service kind : Complete Main
Default : No
Forced : No

Audio #11
ID : 12
Format : AC-3
Format/Info : Audio Coding 3
Codec ID : A_AC3
Duration : 1 h 50 min
Bit rate mode : Constant
Bit rate : 256 kb/s
Channel(s) : 2 channels
Channel positions : Front: L R
Sampling rate : 48.0 kHz
Frame rate : 31.250 FPS (1536 SPF)
Bit depth : 16 bits
Compression mode : Lossy
Stream size : 201 MiB (0%)
Title : Christine.1983.2160p.BluRay.REMUX.HEVC.DTS-HD.MA.TrueHD.7.1.Atmos
Language : Russian
Service kind : Complete Main
Default : No
Forced : No

Audio #12
ID : 13
Format : AC-3
Format/Info : Audio Coding 3
Codec ID : A_AC3
Duration : 1 h 50 min
Bit rate mode : Constant
Bit rate : 256 kb/s
Channel(s) : 2 channels
Channel positions : Front: L R
Sampling rate : 48.0 kHz
Frame rate : 31.250 FPS (1536 SPF)
Bit depth : 16 bits
Compression mode : Lossy
Stream size : 201 MiB (0%)
Title : Christine.1983.2160p.BluRay.REMUX.HEVC.DTS-HD.MA.TrueHD.7.1.Atmos
Language : Spanish
Service kind : Complete Main
Default : No
Forced : No

Audio #13
ID : 14
Format : AC-3
Format/Info : Audio Coding 3
Codec ID : A_AC3
Duration : 1 h 50 min
Bit rate mode : Constant
Bit rate : 256 kb/s
Channel(s) : 2 channels
Channel positions : Front: L R
Sampling rate : 48.0 kHz
Frame rate : 31.250 FPS (1536 SPF)
Bit depth : 16 bits
Compression mode : Lossy
Stream size : 201 MiB (0%)
Title : Christine.1983.2160p.BluRay.REMUX.HEVC.DTS-HD.MA.TrueHD.7.1.Atmos
Language : Spanish
Service kind : Complete Main
Default : No
Forced : No

Text #1
ID : 15
Format : PGS
Muxing mode : zlib
Codec ID : S_HDMV/PGS
Codec ID/Info : Picture based subtitle format used on BDs/HD-DVDs
Duration : 1 h 41 min
Bit rate : 21.2 kb/s
Count of elements : 1655
Stream size : 15.3 MiB (0%)
Title : English-PGS
Language : English
Default : Yes
Forced : No

Text #2
ID : 16
Format : PGS
Muxing mode : zlib
Codec ID : S_HDMV/PGS
Codec ID/Info : Picture based subtitle format used on BDs/HD-DVDs
Duration : 1 h 49 min
Bit rate : 26.7 kb/s
Count of elements : 2299
Stream size : 20.8 MiB (0%)
Title : English-SDH-PGS
Language : English
Default : No
Forced : No

Text #3
ID : 17
Format : PGS
Muxing mode : zlib
Codec ID : S_HDMV/PGS
Codec ID/Info : Picture based subtitle format used on BDs/HD-DVDs
Duration : 1 h 41 min
Bit rate : 21.2 kb/s
Count of elements : 1661
Stream size : 15.3 MiB (0%)
Title : English-PGS
Language : English
Default : No
Forced : No

Text #4
ID : 18
Format : PGS
Muxing mode : zlib
Codec ID : S_HDMV/PGS
Codec ID/Info : Picture based subtitle format used on BDs/HD-DVDs
Duration : 1 h 49 min
Bit rate : 26.7 kb/s
Count of elements : 2299
Stream size : 20.8 MiB (0%)
Title : English-SDH-PGS
Language : English
Default : No
Forced : No

Text #5
ID : 19
Format : PGS
Muxing mode : zlib
Codec ID : S_HDMV/PGS
Codec ID/Info : Picture based subtitle format used on BDs/HD-DVDs
Duration : 1 h 49 min
Bit rate : 16.5 kb/s
Count of elements : 1689
Stream size : 12.9 MiB (0%)
Title : Chinese-PGS
Language : Chinese
Default : No
Forced : No

Text #6
ID : 20
Format : PGS
Muxing mode : zlib
Codec ID : S_HDMV/PGS
Codec ID/Info : Picture based subtitle format used on BDs/HD-DVDs
Duration : 1 h 45 min
Bit rate : 17.9 kb/s
Count of elements : 1437
Stream size : 13.5 MiB (0%)
Title : Dutch-PGS
Language : Dutch
Default : No
Forced : No

Text #7
ID : 21
Format : PGS
Muxing mode : zlib
Codec ID : S_HDMV/PGS
Codec ID/Info : Picture based subtitle format used on BDs/HD-DVDs
Duration : 1 h 45 min
Bit rate : 19.5 kb/s
Count of elements : 1557
Stream size : 14.6 MiB (0%)
Title : Finnish-PGS
Language : Finnish
Default : No
Forced : No

Text #8
ID : 22
Format : PGS
Muxing mode : zlib
Codec ID : S_HDMV/PGS
Codec ID/Info : Picture based subtitle format used on BDs/HD-DVDs
Duration : 1 h 45 min
Bit rate : 21.3 kb/s
Count of elements : 1871
Stream size : 16.0 MiB (0%)
Title : French-PGS
Language : French
Default : No
Forced : No

Text #9
ID : 23
Format : PGS
Muxing mode : zlib
Codec ID : S_HDMV/PGS
Codec ID/Info : Picture based subtitle format used on BDs/HD-DVDs
Duration : 1 h 45 min
Bit rate : 22.6 kb/s
Count of elements : 1715
Stream size : 16.9 MiB (0%)
Title : German-PGS
Language : German
Default : No
Forced : No

Text #10
ID : 24
Format : PGS
Muxing mode : zlib
Codec ID : S_HDMV/PGS
Codec ID/Info : Picture based subtitle format used on BDs/HD-DVDs
Duration : 1 h 48 min
Bit rate : 16.1 kb/s
Count of elements : 1691
Stream size : 12.4 MiB (0%)
Title : Hebrew-PGS
Language : Hebrew
Default : No
Forced : No

Text #11
ID : 25
Format : PGS
Muxing mode : zlib
Codec ID : S_HDMV/PGS
Codec ID/Info : Picture based subtitle format used on BDs/HD-DVDs
Duration : 1 h 48 min
Bit rate : 17.8 kb/s
Count of elements : 2191
Stream size : 13.8 MiB (0%)
Title : Hindi-PGS
Language : Hindi
Default : No
Forced : No

Text #12
ID : 26
Format : PGS
Muxing mode : zlib
Codec ID : S_HDMV/PGS
Codec ID/Info : Picture based subtitle format used on BDs/HD-DVDs
Duration : 1 h 45 min
Bit rate : 21.0 kb/s
Count of elements : 1703
Stream size : 15.7 MiB (0%)
Title : Italian-PGS
Language : Italian
Default : No
Forced : No

Text #13
ID : 27
Format : PGS
Muxing mode : zlib
Codec ID : S_HDMV/PGS
Codec ID/Info : Picture based subtitle format used on BDs/HD-DVDs
Duration : 1 h 44 min
Bit rate : 13.8 kb/s
Count of elements : 1483
Stream size : 10.3 MiB (0%)
Title : Japanese-PGS
Language : Japanese
Default : No
Forced : No

Text #14
ID : 28
Format : PGS
Muxing mode : zlib
Codec ID : S_HDMV/PGS
Codec ID/Info : Picture based subtitle format used on BDs/HD-DVDs
Duration : 1 h 45 min
Bit rate : 15.8 kb/s
Count of elements : 1661
Stream size : 12.0 MiB (0%)
Title : Korean-PGS
Language : Korean
Default : No
Forced : No

Text #15
ID : 29
Format : PGS
Muxing mode : zlib
Codec ID : S_HDMV/PGS
Codec ID/Info : Picture based subtitle format used on BDs/HD-DVDs
Duration : 1 h 45 min
Bit rate : 19.6 kb/s
Count of elements : 1697
Stream size : 14.8 MiB (0%)
Title : Spanish-PGS
Language : Spanish
Default : No
Forced : No

Text #16
ID : 30
Format : PGS
Muxing mode : zlib
Codec ID : S_HDMV/PGS
Codec ID/Info : Picture based subtitle format used on BDs/HD-DVDs
Duration : 1 h 45 min
Bit rate : 21.4 kb/s
Count of elements : 1809
Stream size : 16.1 MiB (0%)
Title : Swedish-PGS
Language : Swedish
Default : No
Forced : No

Text #17
ID : 31
Format : PGS
Muxing mode : zlib
Codec ID : S_HDMV/PGS
Codec ID/Info : Picture based subtitle format used on BDs/HD-DVDs
Duration : 1 h 48 min
Bit rate : 18.3 kb/s
Count of elements : 1687
Stream size : 14.1 MiB (0%)
Title : Thai-PGS
Language : Thai
Default : No
Forced : No

Text #18
ID : 32
Format : PGS
Muxing mode : zlib
Codec ID : S_HDMV/PGS
Codec ID/Info : Picture based subtitle format used on BDs/HD-DVDs
Duration : 1 h 31 min
Bit rate : 248 b/s
Count of elements : 24
Stream size : 166 KiB (0%)
Title : Japanese-FORCED-PGS
Language : Japanese
Default : No
Forced : No

Text #19
ID : 33
Format : PGS
Muxing mode : zlib
Codec ID : S_HDMV/PGS
Codec ID/Info : Picture based subtitle format used on BDs/HD-DVDs
Duration : 1 h 13 min
Bit rate : 166 b/s
Count of elements : 8
Stream size : 90.0 KiB (0%)
Title : Russian-FORCED-PGS
Language : Russian
Default : No
Forced : No

Menu
00:00:00.000 : :Chapter 1
00:07:54.807 : :Chapter 2
00:15:00.733 : :Chapter 3
00:20:12.085 : :Chapter 4
00:25:41.456 : :Chapter 5
00:34:02.165 : :Chapter 6
00:41:55.930 : :Chapter 7
00:49:12.199 : :Chapter 8
00:55:11.391 : :Chapter 9
01:01:33.106 : :Chapter 10
01:05:57.787 : :Chapter 11
01:12:49.406 : :Chapter 12
01:17:59.341 : :Chapter 13
01:28:31.264 : :Chapter 14
01:36:52.223 : :Chapter 15
01:45:19.229 : :Chapter 16
movie BDRip Video
ID : 1
Format : HEVC
Format/Info : High Efficiency Video Coding
Commercial name : HDR10
Format profile : Main 10@L5.1@High
Codec ID : V_MPEGH/ISO/HEVC
Duration : 1 h 50 min
Bit rate : 24.5 Mb/s
Width : 3 840 pixels
Height : 1 608 pixels
Display aspect ratio : 2.40:1
Frame rate mode : Constant
Frame rate : 23.976 (24000/1001) FPS
Color space : YUV
Chroma subsampling : 4:2:0 (Type 2)
Bit depth : 10 bits
Bits/(Pixel*Frame) : 0.166
Stream size : 18.8 GiB (79%)
Writing library : x265 2.8+10-703eade86b53:[Windows][MSVC 1914][64 bit] 10bit
Encoding settings : cpuid=1111039 / frame-threads=4 / numa-pools=20 / wpp / no-pmode / no-pme / no-psnr / no-ssim / log-level=2 / input-csp=1 / input-res=3840x1608 / interlace=0 / total-frames=158256 / level-idc=51 / high-tier=1 / uhd-bd=0 / ref=4 / no-allow-non-conformance / repeat-headers / annexb / aud / hrd / info / hash=0 / no-temporal-layers / no-open-gop / min-keyint=1 / keyint=24 / gop-lookahead=0 / bframes=4 / b-adapt=2 / b-pyramid / bframe-bias=0 / rc-lookahead=25 / lookahead-slices=4 / scenecut=40 / radl=0 / no-intra-refresh / ctu=64 / min-cu-size=8 / rect / no-amp / max-tu-size=32 / tu-inter-depth=1 / tu-intra-depth=1 / limit-tu=0 / rdoq-level=2 / dynamic-rd=0.00 / no-ssim-rd / signhide / no-tskip / nr-intra=0 / nr-inter=0 / no-constrained-intra / no-strong-intra-smoothing / max-merge=3 / limit-refs=3 / limit-modes / me=3 / subme=3 / merange=57 / temporal-mvp / weightp / no-weightb / no-analyze-src-pics / deblock=-3:-3 / no-sao / no-sao-non-deblock / rd=4 / no-early-skip / rskip / no-fast-intra / no-tskip-fast / no-cu-lossless / no-b-intra / no-splitrd-skip / rdpenalty=0 / psy-rd=2.00 / psy-rdoq=1.00 / no-rd-refine / no-lossless / cbqpoffs=0 / crqpoffs=0 / rc=crf / crf=18.0 / qcomp=0.60 / qpstep=4 / stats-write=0 / stats-read=0 / vbv-maxrate=160000 / vbv-bufsize=160000 / vbv-init=0.9 / crf-max=0.0 / crf-min=0.0 / ipratio=1.40 / pbratio=1.30 / aq-mode=1 / aq-strength=1.00 / cutree / zone-count=0 / no-strict-cbr / qg-size=32 / no-rc-grain / qpmax=69 / qpmin=0 / no-const-vbv / sar=1 / overscan=0 / videoformat=5 / range=0 / colorprim=9 / transfer=16 / colormatrix=9 / chromaloc=1 / chromaloc-top=2 / chromaloc-bottom=2 / display-window=0 / master-display=G(13250,34500)B(7500,3000)R(34000,16000)WP(15635,16450)L(40000000,50) / max-cll=1951,701 / min-luma=0 / max-luma=1023 / log2-max-poc-lsb=8 / vui-timing-info / vui-hrd-info / slices=1 / no-opt-qp-pps / no-opt-ref-list-length-pps / no-multi-pass-opt-rps / scenecut-bias=0.05 / no-opt-cu-delta-qp / no-aq-motion / hdr / hdr-opt / no-dhdr10-opt / no-idr-recovery-sei / analysis-reuse-level=5 / scale-factor=0 / refine-intra=0 / refine-inter=0 / refine-mv=0 / no-limit-sao / ctu-info=0 / no-lowpass-dct / refine-mv-type=0 / copy-pic=1 / max-ausize-factor=1.0 / no-dynamic-refine / no-single-sei
Default : Yes
Forced : No
Color range : Limited
Color primaries : BT.2020
Transfer characteristics : PQ
Matrix coefficients : BT.2020 non-constant
Mastering display color primaries : Display P3
Mastering display luminance : min: 0.0050 cd/m2, max: 4000 cd/m2
Maximum Content Light Level : 1951 cd/m2
Maximum Frame-Average Light Level : 701 cd/m2

Audio #1
ID : 2
Format : TrueHD
Format profile : TrueHD+Atmos / TrueHD
Codec ID : A_TRUEHD
Duration : 1 h 50 min
Bit rate mode : Variable
Bit rate : 3 362 kb/s
Maximum bit rate : 5 004 kb/s
Channel(s) : Object Based / 8 channels
Channel positions : Object Based / Front: L C R, Side: L R, Back: L R, LFE
Sampling rate : / 48.0 kHz
Frame rate : 1 200.000 FPS (40 SPF)
Compression mode : Lossless
Stream size : 2.58 GiB (11%)
Language : English
Default : Yes
Forced : No

Audio #2
ID : 3
Format : AC-3
Format/Info : Audio Coding 3
Codec ID : A_AC3
Duration : 1 h 50 min
Bit rate mode : Constant
Bit rate : 640 kb/s
Channel(s) : 6 channels
Channel positions : Front: L C R, Side: L R, LFE
Sampling rate : 48.0 kHz
Frame rate : 31.250 FPS (1536 SPF)
Bit depth : 16 bits
Compression mode : Lossy
Stream size : 504 MiB (2%)
Language : English
Service kind : Complete Main
Default : No
Forced : No

Audio #3
ID : 4
Format : DTS
Format/Info : Digital Theater Systems
Format profile : MA / Core
Codec ID : A_DTS
Duration : 1 h 50 min
Bit rate mode : Variable / Constant
Bit rate : 2 203 kb/s / 1 509 kb/s
Channel(s) : 6 channels
Channel positions : Front: L C R, Side: L R, LFE
Sampling rate : 48.0 kHz
Frame rate : 93.750 FPS (512 SPF)
Bit depth : 16 bits
Compression mode : Lossless / Lossy
Stream size : 1.69 GiB (7%)
Language : English
Default : No
Forced : No

Text #1
ID : 5
Format : PGS
Muxing mode : zlib
Codec ID : S_HDMV/PGS
Codec ID/Info : Picture based subtitle format used on BDs/HD-DVDs
Duration : 1 h 49 min
Bit rate : 26.7 kb/s
Count of elements : 2299
Stream size : 20.8 MiB (0%)
Language : English
Default : No
Forced : No

Text #2
ID : 6
Format : PGS
Muxing mode : zlib
Codec ID : S_HDMV/PGS
Codec ID/Info : Picture based subtitle format used on BDs/HD-DVDs
Duration : 1 h 41 min
Bit rate : 21.2 kb/s
Count of elements : 1655
Stream size : 15.3 MiB (0%)
Language : English
Default : No
Forced : No

Text #3
ID : 7
Format : PGS
Muxing mode : zlib
Codec ID : S_HDMV/PGS
Codec ID/Info : Picture based subtitle format used on BDs/HD-DVDs
Duration : 1 h 49 min
Bit rate : 26.7 kb/s
Count of elements : 2299
Stream size : 20.8 MiB (0%)
Language : English
Default : No
Forced : No

Text #4
ID : 8
Format : PGS
Muxing mode : zlib
Codec ID : S_HDMV/PGS
Codec ID/Info : Picture based subtitle format used on BDs/HD-DVDs
Duration : 1 h 41 min
Bit rate : 21.2 kb/s
Count of elements : 1661
Stream size : 15.3 MiB (0%)
Language : English
Default : No
Forced : No

Text #5
ID : 9
Format : PGS
Muxing mode : zlib
Codec ID : S_HDMV/PGS
Codec ID/Info : Picture based subtitle format used on BDs/HD-DVDs
Duration : 1 h 49 min
Bit rate : 16.5 kb/s
Count of elements : 1689
Stream size : 12.9 MiB (0%)
Language : Chinese
Default : No
Forced : No

Text #6
ID : 10
Format : PGS
Muxing mode : zlib
Codec ID : S_HDMV/PGS
Codec ID/Info : Picture based subtitle format used on BDs/HD-DVDs
Duration : 1 h 45 min
Bit rate : 17.9 kb/s
Count of elements : 1437
Stream size : 13.5 MiB (0%)
Language : Dutch
Default : No
Forced : No

Text #7
ID : 11
Format : PGS
Muxing mode : zlib
Codec ID : S_HDMV/PGS
Codec ID/Info : Picture based subtitle format used on BDs/HD-DVDs
Duration : 1 h 45 min
Bit rate : 19.5 kb/s
Count of elements : 1557
Stream size : 14.6 MiB (0%)
Language : Finnish
Default : No
Forced : No

Text #8
ID : 12
Format : PGS
Muxing mode : zlib
Codec ID : S_HDMV/PGS
Codec ID/Info : Picture based subtitle format used on BDs/HD-DVDs
Duration : 1 h 45 min
Bit rate : 21.3 kb/s
Count of elements : 1871
Stream size : 16.0 MiB (0%)
Language : French
Default : No
Forced : No

Text #9
ID : 13
Format : PGS
Muxing mode : zlib
Codec ID : S_HDMV/PGS
Codec ID/Info : Picture based subtitle format used on BDs/HD-DVDs
Duration : 1 h 45 min
Bit rate : 22.6 kb/s
Count of elements : 1715
Stream size : 16.9 MiB (0%)
Language : German
Default : No
Forced : No

Text #10
ID : 14
Format : PGS
Muxing mode : zlib
Codec ID : S_HDMV/PGS
Codec ID/Info : Picture based subtitle format used on BDs/HD-DVDs
Duration : 1 h 48 min
Bit rate : 16.1 kb/s
Count of elements : 1691
Stream size : 12.4 MiB (0%)
Language : Hebrew
Default : No
Forced : No

Text #11
ID : 15
Format : PGS
Muxing mode : zlib
Codec ID : S_HDMV/PGS
Codec ID/Info : Picture based subtitle format used on BDs/HD-DVDs
Duration : 1 h 48 min
Bit rate : 17.8 kb/s
Count of elements : 2191
Stream size : 13.8 MiB (0%)
Language : Hindi
Default : No
Forced : No

Text #12
ID : 16
Format : PGS
Muxing mode : zlib
Codec ID : S_HDMV/PGS
Codec ID/Info : Picture based subtitle format used on BDs/HD-DVDs
Duration : 1 h 45 min
Bit rate : 21.0 kb/s
Count of elements : 1703
Stream size : 15.7 MiB (0%)
Language : Italian
Default : No
Forced : No

Text #13
ID : 17
Format : PGS
Muxing mode : zlib
Codec ID : S_HDMV/PGS
Codec ID/Info : Picture based subtitle format used on BDs/HD-DVDs
Duration : 1 h 44 min
Bit rate : 13.8 kb/s
Count of elements : 1483
Stream size : 10.3 MiB (0%)
Language : Japanese
Default : No
Forced : No

Text #14
ID : 18
Format : PGS
Muxing mode : zlib
Codec ID : S_HDMV/PGS
Codec ID/Info : Picture based subtitle format used on BDs/HD-DVDs
Duration : 1 h 31 min
Bit rate : 248 b/s
Count of elements : 24
Stream size : 166 KiB (0%)
Language : Japanese
Default : No
Forced : No

Text #15
ID : 19
Format : PGS
Muxing mode : zlib
Codec ID : S_HDMV/PGS
Codec ID/Info : Picture based subtitle format used on BDs/HD-DVDs
Duration : 1 h 45 min
Bit rate : 15.8 kb/s
Count of elements : 1661
Stream size : 12.0 MiB (0%)
Language : Korean
Default : No
Forced : No

Text #16
ID : 20
Format : PGS
Muxing mode : zlib
Codec ID : S_HDMV/PGS
Codec ID/Info : Picture based subtitle format used on BDs/HD-DVDs
Duration : 1 h 45 min
Bit rate : 19.6 kb/s
Count of elements : 1697
Stream size : 14.8 MiB (0%)
Language : Spanish
Default : No
Forced : No

Text #17
ID : 21
Format : PGS
Muxing mode : zlib
Codec ID : S_HDMV/PGS
Codec ID/Info : Picture based subtitle format used on BDs/HD-DVDs
Duration : 1 h 45 min
Bit rate : 21.4 kb/s
Count of elements : 1809
Stream size : 16.1 MiB (0%)
Language : Swedish
Default : No
Forced : No

Text #18
ID : 22
Format : PGS
Muxing mode : zlib
Codec ID : S_HDMV/PGS
Codec ID/Info : Picture based subtitle format used on BDs/HD-DVDs
Duration : 1 h 48 min
Bit rate : 18.3 kb/s
Count of elements : 1687
Stream size : 14.1 MiB (0%)
Language : Thai
Default : No
Forced : No

Text #19
ID : 23
Format : PGS
Muxing mode : zlib
Codec ID : S_HDMV/PGS
Codec ID/Info : Picture based subtitle format used on BDs/HD-DVDs
Duration : 1 h 13 min
Bit rate : 166 b/s
Count of elements : 8
Stream size : 90.0 KiB (0%)
Language : Russian
Default : No
Forced : No

Menu
00:00:00.000 : en:00:00:00.000
00:07:54.808 : en:00:07:54.808
00:15:00.733 : en:00:15:00.733
00:20:12.086 : en:00:20:12.086
00:25:41.457 : en:00:25:41.457
00:34:02.165 : en:00:34:02.165
00:41:55.930 : en:00:41:55.930
00:49:12.199 : en:00:49:12.199
00:55:11.391 : en:00:55:11.391
01:01:33.106 : en:01:01:33.106
01:05:57.787 : en:01:05:57.787
01:12:49.407 : en:01:12:49.407
01:17:59.341 : en:01:17:59.341
01:28:31.264 : en:01:28:31.264
01:36:52.223 : en:01:36:52.223
01:45:19.230 : en:01:45:19.230

Download

download 4k hdr movies download 4k hdr movies

Watch a movie trailer - Christine 4K 1983 Ultra HD 2160p
Comments and Feedback
  1. - 0 +
    jim_501970  пишет:
    19 October 2018 07:35
    this movie is awesome and the quality even better
Add your comment:
Your name:
Your E-Mail:
Code:
reload, if the code cannot be seen
Enter code: