Select movie Search movie Close search My Account

The Witch 4K 2015 Ultra HD 2160p

The Witch 4K 2015 Ultra HD 2160p
BDRemux / BDRip
Country: UK | Canada | USA
Time: 1h 32min
IMDB: 6.8
Director: Robert Eggers
Actors: Anya Taylor-Joy, Ralph Ineson, Kate Dickie, Harvey Scrimshaw, Ellie Grainger, Lucas Dawson, Julian Richings, Bathsheba Garnett, Sarah Stephens, Daniel Chaudhry, Axtun Henry Dube, Athan Conrad Dube, Viv Moore,Karen Kaeja, Brandy Leary.

Story Movie

The Witch 4K 2015 Ultra HD 2160p

The Witch 4K - New England, 1630 William and Catherine lead a godly Christian life, keep the household on the edge of an impassable forest, and raise five children. When their newborn son mysteriously disappears, and then crop failure comprehends them, the family begins to take up arms against each other. Their fears and anxieties are constantly growing, until one day they find a way out in media 4k The Witch.

Review 4K Movie

The film is set in New England in 1630. William and his large Christian family, far from society, live a peaceful life on their own farm, located near a huge and dense forest. Labor days and family rest days do not go without frequent prayers. Katerina, wife of William, gives birth to a son, by the account of the fifth child already. The newborn is called Samuel. Tomasin, the young daughter of William and Katerina, nursing with Samuel, being with him closer to more often, does not notice how the child disappears from her nose in just a second. Tomasin goes to look for the missing brother, but all is unsuccessful. At the same time, it is shown how a witch runs through the forest with Samuel. The witch brings Samuel to her hut and uses it in her bloody ritual, after which the child does not survive. It takes several days, Katerina fell into a deep depression, now she almost constantly prays and sobs, forgetting about sleep.

Caleb, the young son of William and Catherine, is sometimes busy searching for the missing Samuel. William does not see the point of continuing the search, and asks his son to stop them, because he thinks that Samuel has either already been eaten up by a wolf, or he has died of starvation. William calls Caleb into the forest to hunt, because before this healthy field of corn, after the disappearance of Samuel, began to rot. Earlier, William and Katerina forbade the children to go to the forest, but according to William himself, told to Caleb, now there is simply no other way out. As a result, in secret from Katerina, the father and son go for the game.

In the case of an animal search, father and son talk on religious topics, touching on the sins of a person. Putting a trap, Caleb asks William if Samuel was a sinner, the father replies that he was, Caleb wonders how the newborn Samuel could sin that he, as William himself says, can not be allowed into Paradise. William advises Caleb not to mention his brother again, convincing him that God will help them in everything, if you believe in him, however, Caleb is panicked, and he, in raised voices, makes it clear to William that he is afraid to go to Hell because of that which considers itself a sinner. William tries to reassure Caleb by telling him that he does not know which people are destined to go to Paradise and who to Hell, for only God himself knows such things.

Reassured, Caleb asks William where he took the hunting supplies, William tells him that he sold Catherine's silver cup, inherited from her father. After William told his son about the cup, he asks him not to tell his mother anything, since he will tell everything when the right moment comes for that. The dog of the heroes that went hunting with them notices the hare, William in a hurry tries to aim at the suspiciously seated animal, but the gun fails, and William makes a non-profitable shot, after which the hare runs away. Father and son are returning home from an unsuccessful hunt, they see how the twins Jonas and Mercy play with the goat, nicknamed Black Phillip, driving him around the yard. William doesn’t like what the children do, and with great difficulty he drives the goat into the livestock pen.

Katerina, for various reasons, begins to quarrel with her family, so Tomasin blames her for irresponsibility, and her husband and son are severely reprimanded for not having warned anyone, they left the house in an unknown direction. In order to calm Catherine, Caleb is lying to her saying that they went with their father to look for an apple tree, but did not find anything, but the gun was taken with them for security reasons. Katerina tells her son that she does not want him to leave the farm.

William sends Caleb to the creek for water, and he goes to chop wood. At the creek, Tomasin washes his father's things, and Mercy soon comes in there, taking to fooling around and saying that she is a forest witch 4k. Tomasin is angry at the naughty sister, because of which she washes her father’s things, Mercy tells Tomasin that Black Phillip, that is, a goat, allows her to do anything, Mercy is also angry with Tomasin even more, believing that she gave Samuel to the witch Ultra HD. Caleb says that the wolf took the child away, but Mercy tries to convince him that it was the witch media 4k she personally saw next to the forest, Mercy even describes how she looked. Tomasin decides to scare Mercy, telling her that she is the true witch UHD who stole Samuel for the Devil, her sovereign, who needed the flesh of an unbaptized newborn. Tomasin gets her way and says to Mercy, if she tells about her “secret” to her mother, she will regret it greatly.

In the evening, at the dinner table, Katerina asks Tomasin where she is taking the silver cup. Katerina suspects her daughter for the reason that she played with the cup. Tomasin is trying to justify himself, stupidly stating his mother that she has nothing to do with the disappearance of the cup. William, realizing his guilt, nevertheless, is not in a hurry to tell his wife the truth, but then, as he can, he protects her daughter from an unjustified accusation. Katerina asks Tomasin to lock the unclosed livestock enclosure containing goats. Going to the corral, Tomasin sees that the hare is sitting near the goats, the same hare that William wanted to shoot.

Mediainfo

movie BDRemux Video #1
ID : 1
Format : HEVC
Format/Info : High Efficiency Video Coding
Commercial name : HDR10
Format profile : Main 10@L5.1@High
Codec ID : V_MPEGH/ISO/HEVC
Duration : 1 h 32 min
Bit rate : 57.2 Mb/s
Width : 3 840 pixels
Height : 2 160 pixels
Display aspect ratio : 16:9
Frame rate mode : Constant
Frame rate : 23.976 (24000/1001) FPS
Color space : YUV
Chroma subsampling : 4:2:0 (Type 2)
Bit depth : 10 bits
Bits/(Pixel*Frame) : 0.288
Stream size : 36.9 GiB (82%)
Title : The.Witch.2015.2160p.BluRay.REMUX.HEVC.DTS-HD.MA.5.1
Language : English
Default : Yes
Forced : No
Color range : Limited
Color primaries : BT.2020
Transfer characteristics : PQ
Matrix coefficients : BT.2020 non-constant
Mastering display color primaries : Display P3
Mastering display luminance : min: 0.0001 cd/m2, max: 1000 cd/m2
Maximum Content Light Level : 347 cd/m2
Maximum Frame-Average Light Level : 50 cd/m2

Video #2
ID : 2
Format : HEVC
Format/Info : High Efficiency Video Coding
Commercial name : HDR10
Format profile : Main 10@L5.1@High
Codec ID : V_MPEGH/ISO/HEVC
Duration : 1 h 32 min
Bit rate : 7 506 kb/s
Width : 1 920 pixels
Height : 1 080 pixels
Display aspect ratio : 16:9
Frame rate mode : Constant
Frame rate : 23.976 (24000/1001) FPS
Color space : YUV
Chroma subsampling : 4:2:0 (Type 2)
Bit depth : 10 bits
Bits/(Pixel*Frame) : 0.151
Stream size : 4.84 GiB (11%)
Title : The.Witch.2015.2160p.BluRay.REMUX.HEVC.DTS-HD.MA.5.1
Language : English
Default : No
Forced : No
Color range : Limited
Color primaries : BT.2020
Transfer characteristics : PQ
Matrix coefficients : BT.2020 non-constant
Mastering display color primaries : Display P3
Mastering display luminance : min: 0.0001 cd/m2, max: 1000 cd/m2

Audio #1
ID : 3
Format : DTS XLL
Format/Info : Digital Theater Systems
Commercial name : DTS-HD Master Audio
Codec ID : A_DTS
Duration : 1 h 32 min
Bit rate mode : Variable
Bit rate : 3 415 kb/s
Channel(s) : 6 channels
Channel layout : C L R Ls Rs LFE
Sampling rate : 48.0 kHz
Frame rate : 93.750 FPS (512 SPF)
Bit depth : 24 bits
Compression mode : Lossless
Stream size : 2.20 GiB (5%)
Title : The.Witch.2015.2160p.BluRay.REMUX.HEVC.DTS-HD.MA.5.1
Language : English
Default : Yes
Forced : No

Audio #2
ID : 4
Format : DTS
Format/Info : Digital Theater Systems
Codec ID : A_DTS
Duration : 1 h 32 min
Bit rate mode : Constant
Bit rate : 1 509 kb/s
Channel(s) : 6 channels
Channel layout : C L R Ls Rs LFE
Sampling rate : 48.0 kHz
Frame rate : 93.750 FPS (512 SPF)
Bit depth : 24 bits
Compression mode : Lossy
Stream size : 996 MiB (2%)
Title : The.Witch.2015.2160p.BluRay.REMUX.HEVC.DTS-HD.MA.5.1
Language : English
Default : No
Forced : No

Audio #3
ID : 5
Format : AC-3
Format/Info : Audio Coding 3
Commercial name : Dolby Digital
Codec ID : A_AC3
Duration : 1 h 32 min
Bit rate mode : Constant
Bit rate : 224 kb/s
Channel(s) : 2 channels
Channel layout : L R
Sampling rate : 48.0 kHz
Frame rate : 31.250 FPS (1536 SPF)
Bit depth : 16 bits
Compression mode : Lossy
Stream size : 148 MiB (0%)
Title : The.Witch.2015.2160p.BluRay.REMUX.HEVC.DTS-HD.MA.5.1
Language : English
Service kind : Complete Main
Default : No
Forced : No

Text #1
ID : 6
Format : UTF-8
Codec ID : S_TEXT/UTF8
Codec ID/Info : UTF-8 Plain Text
Duration : 1 h 27 min
Bit rate : 39 b/s
Count of elements : 819
Stream size : 25.0 KiB (0%)
Title : English-SRT
Language : English
Default : Yes
Forced : No

Text #2
ID : 7
Format : UTF-8
Codec ID : S_TEXT/UTF8
Codec ID/Info : UTF-8 Plain Text
Duration : 1 h 27 min
Bit rate : 43 b/s
Count of elements : 956
Stream size : 27.6 KiB (0%)
Title : English-SDH-SRT
Language : English
Default : No
Forced : No

Text #3
ID : 8
Format : PGS
Muxing mode : zlib
Codec ID : S_HDMV/PGS
Codec ID/Info : Picture based subtitle format used on BDs/HD-DVDs
Duration : 1 h 27 min
Bit rate : 27.4 kb/s
Count of elements : 1912
Stream size : 17.1 MiB (0%)
Title : English-PGS
Language : English
Default : No
Forced : No

Text #4
ID : 9
Format : PGS
Muxing mode : zlib
Codec ID : S_HDMV/PGS
Codec ID/Info : Picture based subtitle format used on BDs/HD-DVDs
Duration : 1 h 27 min
Bit rate : 24.4 kb/s
Count of elements : 1582
Stream size : 15.2 MiB (0%)
Title : Spanish-PGS
Language : Spanish
Default : No
Forced : No

Menu
00:00:00.000 : en:Chapter 01
00:04:44.200 : en:Chapter 02
00:13:12.374 : en:Chapter 03
00:18:51.713 : en:Chapter 04
00:26:40.223 : en:Chapter 05
00:29:47.911 : en:Chapter 06
00:37:11.187 : en:Chapter 07
00:42:08.943 : en:Chapter 08
00:48:23.650 : en:Chapter 09
00:53:23.909 : en:Chapter 10
01:00:36.090 : en:Chapter 11
01:04:13.599 : en:Chapter 12
01:10:27.181 : en:Chapter 13
01:13:55.472 : en:Chapter 14
01:20:42.087 : en:Chapter 15
01:25:14.943 : en:Chapter 16
movie BDRip Video
ID : 1
Format : HEVC
Format/Info : High Efficiency Video Coding
Commercial name : HDR10
Format profile : Main 10@L5.1@High
Codec ID : V_MPEGH/ISO/HEVC
Duration : 1 h 32 min
Bit rate : 15.7 Mb/s
Width : 3 600 pixels
Height : 2 160 pixels
Display aspect ratio : 5:3
Frame rate mode : Constant
Frame rate : 23.976 (24000/1001) FPS
Color space : YUV
Chroma subsampling : 4:2:0 (Type 2)
Bit depth : 10 bits
Bits/(Pixel*Frame) : 0.084
Stream size : 10.1 GiB (81%)
Writing library : x265 3.0_Au+14-c7e5878bdd31:[Windows][GCC 6.3.0][64 bit] 10bit
Encoding settings : cpuid=1111039 / frame-threads=4 / numa-pools=20 / wpp / no-pmode / no-pme / no-psnr / no-ssim / log-level=2 / input-csp=1 / input-res=3600x2160 / interlace=0 / total-frames=132768 / level-idc=51 / high-tier=1 / uhd-bd=0 / ref=4 / no-allow-non-conformance / repeat-headers / annexb / aud / hrd / info / hash=0 / no-temporal-layers / no-open-gop / min-keyint=1 / keyint=24 / gop-lookahead=0 / bframes=4 / b-adapt=2 / b-pyramid / bframe-bias=0 / rc-lookahead=25 / lookahead-slices=4 / scenecut=40 / radl=0 / no-splice / no-intra-refresh / ctu=64 / min-cu-size=8 / rect / no-amp / max-tu-size=32 / tu-inter-depth=1 / tu-intra-depth=1 / limit-tu=0 / rdoq-level=2 / dynamic-rd=0.00 / no-ssim-rd / signhide / no-tskip / nr-intra=0 / nr-inter=0 / no-constrained-intra / no-strong-intra-smoothing / max-merge=3 / limit-refs=3 / limit-modes / me=3 / subme=3 / merange=57 / temporal-mvp / weightp / no-weightb / no-analyze-src-pics / deblock=-3:-3 / no-sao / no-sao-non-deblock / rd=4 / no-early-skip / rskip / no-fast-intra / no-tskip-fast / no-cu-lossless / no-b-intra / no-splitrd-skip / rdpenalty=0 / psy-rd=2.00 / psy-rdoq=1.00 / no-rd-refine / no-lossless / cbqpoffs=0 / crqpoffs=0 / rc=crf / crf=17.0 / qcomp=0.60 / qpstep=4 / stats-write=0 / stats-read=0 / vbv-maxrate=160000 / vbv-bufsize=160000 / vbv-init=0.9 / crf-max=0.0 / crf-min=0.0 / ipratio=1.40 / pbratio=1.30 / aq-mode=2 / aq-strength=1.00 / cutree / zone-count=0 / no-strict-cbr / qg-size=32 / no-rc-grain / qpmax=69 / qpmin=0 / no-const-vbv / sar=1 / overscan=0 / videoformat=5 / range=0 / colorprim=9 / transfer=16 / colormatrix=9 / chromaloc=1 / chromaloc-top=2 / chromaloc-bottom=2 / display-window=0 / master-display=G(13250,34500)B(7500,3000)R(34000,16000)WP(15635,16450)L(10000000,1) / max-cll=347,50 / min-luma=0 / max-luma=1023 / log2-max-poc-lsb=8 / vui-timing-info / vui-hrd-info / slices=1 / no-opt-qp-pps / no-opt-ref-list-length-pps / no-multi-pass-opt-rps / scenecut-bias=0.05 / no-opt-cu-delta-qp / no-aq-motion / hdr / hdr-opt / no-dhdr10-opt / no-idr-recovery-sei / analysis-reuse-level=5 / scale-factor=0 / refine-intra=0 / refine-inter=0 / refine-mv=0 / refine-ctu-distortion=0 / no-limit-sao / ctu-info=0 / no-lowpass-dct / refine-analysis-type=0 / copy-pic=1 / max-ausize-factor=1.0 / no-dynamic-refine / no-single-sei / no-hevc-aq / no-svt / qp-adaptation-range=1.00
Default : Yes
Forced : No
Color range : Limited
Color primaries : BT.2020
Transfer characteristics : PQ
Matrix coefficients : BT.2020 non-constant
Mastering display color primaries : Display P3
Mastering display luminance : min: 0.0001 cd/m2, max: 1000 cd/m2
Maximum Content Light Level : 347 cd/m2
Maximum Frame-Average Light Level : 50 cd/m2

Audio #1
ID : 2
Format : DTS XLL
Format/Info : Digital Theater Systems
Commercial name : DTS-HD Master Audio
Codec ID : A_DTS
Duration : 1 h 32 min
Bit rate mode : Variable
Bit rate : 3 415 kb/s
Channel(s) : 6 channels
Channel layout : C L R Ls Rs LFE
Sampling rate : 48.0 kHz
Frame rate : 93.750 FPS (512 SPF)
Bit depth : 24 bits
Compression mode : Lossless
Stream size : 2.20 GiB (18%)
Language : English
Default : Yes
Forced : No

Audio #2
ID : 3
Format : AC-3
Format/Info : Audio Coding 3
Commercial name : Dolby Digital
Codec ID : A_AC3
Duration : 1 h 32 min
Bit rate mode : Constant
Bit rate : 224 kb/s
Channel(s) : 2 channels
Channel layout : L R
Sampling rate : 48.0 kHz
Frame rate : 31.250 FPS (1536 SPF)
Bit depth : 16 bits
Compression mode : Lossy
Stream size : 148 MiB (1%)
Title : Commentary
Language : English
Service kind : Complete Main
Default : No
Forced : No

Text #1
ID : 4
Format : PGS
Muxing mode : zlib
Codec ID : S_HDMV/PGS
Codec ID/Info : Picture based subtitle format used on BDs/HD-DVDs
Duration : 1 h 27 min
Bit rate : 27.4 kb/s
Count of elements : 1912
Stream size : 17.1 MiB (0%)
Language : English
Default : No
Forced : No

Text #2
ID : 5
Format : PGS
Muxing mode : zlib
Codec ID : S_HDMV/PGS
Codec ID/Info : Picture based subtitle format used on BDs/HD-DVDs
Duration : 1 h 27 min
Bit rate : 24.4 kb/s
Count of elements : 1582
Stream size : 15.2 MiB (0%)
Language : Spanish
Default : No
Forced : No

Menu
00:00:00.000 : :Chapter 01
00:04:44.159 : :Chapter 02
00:13:12.333 : :Chapter 03
00:18:51.672 : :Chapter 04
00:26:40.432 : :Chapter 05
00:29:47.869 : :Chapter 06
00:37:11.146 : :Chapter 07
00:42:09.068 : :Chapter 08
00:48:23.609 : :Chapter 09
00:53:23.867 : :Chapter 10
01:00:36.049 : :Chapter 11
01:04:13.558 : :Chapter 12
01:10:27.432 : :Chapter 13
01:13:55.431 : :Chapter 14
01:20:42.046 : :Chapter 15
01:25:14.901 : :Chapter 16

Download

download 4k hdr movies download 4k hdr movies

Watch a movie trailer - The Witch 4K 2015 Ultra HD 2160p
Comments and Feedback
Add your comment:
Your name:
Your E-Mail:
Code:
reload, if the code cannot be seen
Enter code: