Select movie Search movie Close search My Account

Mission Impossible - Rogue Nation 4K 2015 Ultra HD 2160p

Mission Impossible - Rogue Nation 4K 2015 Ultra HD 2160p
BDRemux / BDRip
Country: China | Hong Kong | USA Movies
Time: 2h 11min
IMDB: 7.40
Director: Christopher McQuarrie
Actors: Tom Cruise, Jeremy Renner, Simon Pegg, Rebecca Ferguson, Ving Rhames, Sean Harris, Simon McBurney, Jingchu Zhang, Tom Hollander, Jens Hultn, Alec Baldwin, Mateo Rufino, Fernando Abadie, Alec Utgoff, Hermione Corfield

Story Movie

Mission Impossible - Rogue Nation 4K 2015 Ultra HD 2160p poster
Even when the team of Eaton Hunt is dismissed, and it seems they are out of work, their professional sense that was worked out over the years of service at the CIA suggests that there is a branched criminal organization in the world. To leave such information without attention Eaton is not going to, and even acting behind the scenes, in the movie Mission Impossible - Rogue Nation 4k movie collection download, he will be able to put an end to the.
After watching this 4k movie, be sure to look Mission Impossible - Rogue Nation 4K 2015.

Review 4K Movie

I will say so. After the new Mission is Impossible, Bondianu next can not be let out even. The details are below.

What is already, the fifth part of the series with Tom Cruise, which has become a worthy alternative to the boring, pretentious and terribly uninteresting series about James Bond? It would seem, well, all probably ideas have already ended, they will start repeating. Well, just like in James Bond in recent years: cool cars, trivial tricks and special effects, boobs and beautiful girls, a boring plot. And then again - and broken stereotypes. To call Rebecca Ferguson the sex symbol of the year? Excuse me. Cute woman, of course, but no WOW-effect. And not 18 years old, too, clearly already (31 in secret). Therefore, immediately disappoint: there are no boobs in the film. Absolutely. Once only a view from the back, and that is not visible. And not a single sex scene ... It's more interesting, right? Maybe expensive cars? Nuuu, again by. So, solid BMW, premium, but quite a serial. Well, then what will the viewer expect in anticipation? And the answer is: an excellent script and a strong plot, dynamic scenes chase and fights, a good intrigue ... Double, triple agents, and at once you will not say "yes no, everything is clear: this one for these, this one for those, and these two are not in the subject at all" . At some point in the film, you catch yourself thinking that you really plunged into the plot, and it becomes interesting what will happen next. Incidentally, this in the previous 4 parts of the militants with Tom Cruise, even not particularly observed. That is, tried, it became more interesting! The new part is better than the previous ones, more sudden plot twists and intrigues. Spy tricks, stunts - everything is in place, but in a moderate amount and without the bends of the stick. Scenes chase dynamic, exciting and interesting. And, what is the most beautiful in comparison with Bondiana - in this part, the Mission is Impossible 4k movie collection download to have humor. Good, healthy and funny humor. Comparable to the recent film-surprise Spy, from which no one expected anything, and he suddenly just turned out to be a sweet.

Bondiana, coming out this autumn, is in a notoriously losing situation. Her plot suddenly turns out to be secondary. A trailer - boring to the impossibility. Compare the official announcements of films. In one film - the Syndicate, in the other - Spectrum. And in fact, the same thing. And compare the trailers! If from Tom Cruise we get a very bright action movie with dashing plot twists, then from Daniel Craig, it feels like we'll get a joke with politics and diplomacy. Although someone like that, of course. And, most importantly, already a secondary plot. But surely there will be a beautiful girl and tits. And according to the story - who first got up - and that sneakers.

Total, from the Mission: Impossible - Rogue Nation UHD we get flashing humor (in moderate amounts and where necessary), an interesting story with sudden turns, dynamic action scenes, common spy subversive things are not forgotten - in general, such a good militant. Do you like such films? Then run to the cinemas! In Russia, the shows began a week before the official premiere in our country! And what will Mr. Bond say in November ...

Mediainfo

movie BDRemux Video #1
ID : 1
Format : HEVC
Format/Info : High Efficiency Video Coding
Commercial name : HDR10
Format profile : Main 10@L5.1@High
Codec ID : V_MPEGH/ISO/HEVC
Duration : 2 h 11 min
Bit rate : 42.8 Mb/s
Width : 3 840 pixels
Height : 2 160 pixels
Display aspect ratio : 16:9
Frame rate mode : Constant
Frame rate : 23.976 (24000/1001) FPS
Color space : YUV
Chroma subsampling : 4:2:0 (Type 2)
Bit depth : 10 bits
Bits/(Pixel*Frame) : 0.215
Stream size : 39.4 GiB (68%)
Title : Mission.Impossible.Rogue.Nation.2015.2160p.BluRay.REMUX.HEVC.DTS-HD.MA.TrueHD.7.1.Atmos
Default : Yes
Forced : No
Color range : Limited
Color primaries : BT.2020
Transfer characteristics : PQ
Matrix coefficients : BT.2020 non-constant
Mastering display color primaries : Display P3
Mastering display luminance : min: 0.0001 cd/m2, max: 1000 cd/m2

Video #2
ID : 2
Format : HEVC
Format/Info : High Efficiency Video Coding
Commercial name : HDR10
Format profile : Main 10@L5.1@High
Codec ID : V_MPEGH/ISO/HEVC
Duration : 2 h 11 min
Bit rate : 4 835 kb/s
Width : 1 920 pixels
Height : 1 080 pixels
Display aspect ratio : 16:9
Frame rate mode : Constant
Frame rate : 23.976 (24000/1001) FPS
Color space : YUV
Chroma subsampling : 4:2:0 (Type 2)
Bit depth : 10 bits
Bits/(Pixel*Frame) : 0.097
Stream size : 4.44 GiB (8%)
Title : Mission.Impossible.Rogue.Nation.2015.2160p.BluRay.REMUX.HEVC.DTS-HD.MA.TrueHD.7.1.Atmos
Default : No
Forced : No
Color range : Limited
Color primaries : BT.2020
Transfer characteristics : PQ
Matrix coefficients : BT.2020 non-constant
Mastering display color primaries : Display P3
Mastering display luminance : min: 0.0001 cd/m2, max: 1000 cd/m2

Audio #1
ID : 3
Format : TrueHD
Format profile : TrueHD+Atmos / TrueHD
Codec ID : A_TRUEHD
Duration : 2 h 11 min
Bit rate mode : Variable
Bit rate : 4 895 kb/s
Maximum bit rate : 8 736 kb/s
Channel(s) : Object Based / 8 channels
Channel positions : Object Based / Front: L C R, Side: L R, Back: L R, LFE
Sampling rate : / 48.0 kHz
Frame rate : 1 200.000 FPS (40 SPF)
Compression mode : Lossless
Stream size : 4.50 GiB (8%)
Title : Mission.Impossible.Rogue.Nation.2015.2160p.BluRay.REMUX.HEVC.DTS-HD.MA.TrueHD.7.1.Atmos
Language : English
Default : Yes
Forced : No

Audio #2
ID : 4
Format : DTS
Format/Info : Digital Theater Systems
Format profile : MA / Core
Codec ID : A_DTS
Duration : 2 h 11 min
Bit rate mode : Variable / Constant
Bit rate : 4 266 kb/s / 1 509 kb/s
Channel(s) : 8 channels / 6 channels
Channel positions : Front: L C R, Side: L R, Back: L R, LFE / Front: L C R, Side: L R, LFE
Sampling rate : 48.0 kHz
Frame rate : 93.750 FPS (512 SPF)
Bit depth : 24 bits
Compression mode : Lossless / Lossy
Stream size : 3.92 GiB (7%)
Title : Mission.Impossible.Rogue.Nation.2015.2160p.BluRay.REMUX.HEVC.DTS-HD.MA.TrueHD.7.1.Atmos
Language : English
Default : No
Forced : No

Audio #3
ID : 5
Format : AC-3
Format/Info : Audio Coding 3
Codec ID : A_AC3
Duration : 2 h 11 min
Bit rate mode : Constant
Bit rate : 640 kb/s
Channel(s) : 6 channels
Channel positions : Front: L C R, Side: L R, LFE
Sampling rate : 48.0 kHz
Frame rate : 31.250 FPS (1536 SPF)
Bit depth : 16 bits
Compression mode : Lossy
Stream size : 602 MiB (1%)
Title : Mission.Impossible.Rogue.Nation.2015.2160p.BluRay.REMUX.HEVC.DTS-HD.MA.TrueHD.7.1.Atmos
Language : English
Service kind : Complete Main
Default : No
Forced : No

Audio #4
ID : 6
Format : AC-3
Format/Info : Audio Coding 3
Codec ID : A_AC3
Duration : 2 h 11 min
Bit rate mode : Constant
Bit rate : 640 kb/s
Channel(s) : 6 channels
Channel positions : Front: L C R, Side: L R, LFE
Sampling rate : 48.0 kHz
Frame rate : 31.250 FPS (1536 SPF)
Bit depth : 16 bits
Compression mode : Lossy
Stream size : 602 MiB (1%)
Title : Mission.Impossible.Rogue.Nation.2015.2160p.BluRay.REMUX.HEVC.DTS-HD.MA.TrueHD.7.1.Atmos
Language : English
Service kind : Complete Main
Default : No
Forced : No

Audio #5
ID : 7
Format : AC-3
Format/Info : Audio Coding 3
Codec ID : A_AC3
Duration : 2 h 11 min
Bit rate mode : Constant
Bit rate : 640 kb/s
Channel(s) : 6 channels
Channel positions : Front: L C R, Side: L R, LFE
Sampling rate : 48.0 kHz
Frame rate : 31.250 FPS (1536 SPF)
Bit depth : 16 bits
Compression mode : Lossy
Stream size : 602 MiB (1%)
Title : Mission.Impossible.Rogue.Nation.2015.2160p.BluRay.REMUX.HEVC.DTS-HD.MA.TrueHD.7.1.Atmos
Language : German
Service kind : Complete Main
Default : No
Forced : No

Audio #6
ID : 8
Format : AC-3
Format/Info : Audio Coding 3
Codec ID : A_AC3
Duration : 2 h 11 min
Bit rate mode : Constant
Bit rate : 640 kb/s
Channel(s) : 6 channels
Channel positions : Front: L C R, Side: L R, LFE
Sampling rate : 48.0 kHz
Frame rate : 31.250 FPS (1536 SPF)
Bit depth : 16 bits
Compression mode : Lossy
Stream size : 602 MiB (1%)
Title : Mission.Impossible.Rogue.Nation.2015.2160p.BluRay.REMUX.HEVC.DTS-HD.MA.TrueHD.7.1.Atmos
Language : Spanish
Service kind : Complete Main
Default : No
Forced : No

Audio #7
ID : 9
Format : AC-3
Format/Info : Audio Coding 3
Codec ID : A_AC3
Duration : 2 h 11 min
Bit rate mode : Constant
Bit rate : 640 kb/s
Channel(s) : 6 channels
Channel positions : Front: L C R, Side: L R, LFE
Sampling rate : 48.0 kHz
Frame rate : 31.250 FPS (1536 SPF)
Bit depth : 16 bits
Compression mode : Lossy
Stream size : 602 MiB (1%)
Title : Mission.Impossible.Rogue.Nation.2015.2160p.BluRay.REMUX.HEVC.DTS-HD.MA.TrueHD.7.1.Atmos
Language : Spanish
Service kind : Complete Main
Default : No
Forced : No

Audio #8
ID : 10
Format : AC-3
Format/Info : Audio Coding 3
Codec ID : A_AC3
Duration : 2 h 11 min
Bit rate mode : Constant
Bit rate : 640 kb/s
Channel(s) : 6 channels
Channel positions : Front: L C R, Side: L R, LFE
Sampling rate : 48.0 kHz
Frame rate : 31.250 FPS (1536 SPF)
Bit depth : 16 bits
Compression mode : Lossy
Stream size : 602 MiB (1%)
Title : Mission.Impossible.Rogue.Nation.2015.2160p.BluRay.REMUX.HEVC.DTS-HD.MA.TrueHD.7.1.Atmos
Language : French
Service kind : Complete Main
Default : No
Forced : No

Audio #9
ID : 11
Format : AC-3
Format/Info : Audio Coding 3
Codec ID : A_AC3
Duration : 2 h 11 min
Bit rate mode : Constant
Bit rate : 640 kb/s
Channel(s) : 6 channels
Channel positions : Front: L C R, Side: L R, LFE
Sampling rate : 48.0 kHz
Frame rate : 31.250 FPS (1536 SPF)
Bit depth : 16 bits
Compression mode : Lossy
Stream size : 602 MiB (1%)
Title : Mission.Impossible.Rogue.Nation.2015.2160p.BluRay.REMUX.HEVC.DTS-HD.MA.TrueHD.7.1.Atmos
Language : French
Service kind : Complete Main
Default : No
Forced : No

Audio #10
ID : 12
Format : AC-3
Format/Info : Audio Coding 3
Codec ID : A_AC3
Duration : 2 h 11 min
Bit rate mode : Constant
Bit rate : 640 kb/s
Channel(s) : 6 channels
Channel positions : Front: L C R, Side: L R, LFE
Sampling rate : 48.0 kHz
Frame rate : 31.250 FPS (1536 SPF)
Bit depth : 16 bits
Compression mode : Lossy
Stream size : 602 MiB (1%)
Title : Mission.Impossible.Rogue.Nation.2015.2160p.BluRay.REMUX.HEVC.DTS-HD.MA.TrueHD.7.1.Atmos
Language : Italian
Service kind : Complete Main
Default : No
Forced : No

Audio #11
ID : 13
Format : AC-3
Format/Info : Audio Coding 3
Codec ID : A_AC3
Duration : 2 h 11 min
Bit rate mode : Constant
Bit rate : 640 kb/s
Channel(s) : 6 channels
Channel positions : Front: L C R, Side: L R, LFE
Sampling rate : 48.0 kHz
Frame rate : 31.250 FPS (1536 SPF)
Bit depth : 16 bits
Compression mode : Lossy
Stream size : 602 MiB (1%)
Title : Mission.Impossible.Rogue.Nation.2015.2160p.BluRay.REMUX.HEVC.DTS-HD.MA.TrueHD.7.1.Atmos
Language : Portuguese
Service kind : Complete Main
Default : No
Forced : No

Audio #12
ID : 14
Format : AC-3
Format/Info : Audio Coding 3
Codec ID : A_AC3
Duration : 2 h 11 min
Bit rate mode : Constant
Bit rate : 224 kb/s
Channel(s) : 2 channels
Channel positions : Front: L R
Sampling rate : 48.0 kHz
Frame rate : 31.250 FPS (1536 SPF)
Bit depth : 16 bits
Compression mode : Lossy
Stream size : 211 MiB (0%)
Title : Mission.Impossible.Rogue.Nation.2015.2160p.BluRay.REMUX.HEVC.DTS-HD.MA.TrueHD.7.1.Atmos
Language : English
Service kind : Complete Main
Default : No
Forced : No

Text #1
ID : 15
Format : PGS
Muxing mode : zlib
Codec ID : S_HDMV/PGS
Codec ID/Info : Picture based subtitle format used on BDs/HD-DVDs
Duration : 2 h 3 min
Bit rate : 26.0 kb/s
Count of elements : 2413
Stream size : 22.9 MiB (0%)
Title : English-PGS
Language : English
Default : Yes
Forced : No

Text #2
ID : 16
Format : PGS
Muxing mode : zlib
Codec ID : S_HDMV/PGS
Codec ID/Info : Picture based subtitle format used on BDs/HD-DVDs
Duration : 2 h 3 min
Bit rate : 29.2 kb/s
Count of elements : 2817
Stream size : 25.8 MiB (0%)
Title : English-SDH-PGS
Language : English
Default : No
Forced : No

Text #3
ID : 17
Format : PGS
Muxing mode : zlib
Codec ID : S_HDMV/PGS
Codec ID/Info : Picture based subtitle format used on BDs/HD-DVDs
Duration : 2 h 10 min
Bit rate : 21.5 kb/s
Count of elements : 1962
Stream size : 20.0 MiB (0%)
Title : Danish-PGS
Language : Danish
Default : No
Forced : No

Text #4
ID : 18
Format : PGS
Muxing mode : zlib
Codec ID : S_HDMV/PGS
Codec ID/Info : Picture based subtitle format used on BDs/HD-DVDs
Duration : 2 h 10 min
Bit rate : 24.2 kb/s
Count of elements : 2409
Stream size : 22.6 MiB (0%)
Title : German-PGS
Language : German
Default : No
Forced : No

Text #5
ID : 19
Format : PGS
Muxing mode : zlib
Codec ID : S_HDMV/PGS
Codec ID/Info : Picture based subtitle format used on BDs/HD-DVDs
Duration : 2 h 10 min
Bit rate : 24.5 kb/s
Count of elements : 2481
Stream size : 22.8 MiB (0%)
Title : Spanish-PGS
Language : Spanish
Default : No
Forced : No

Text #6
ID : 20
Format : PGS
Muxing mode : zlib
Codec ID : S_HDMV/PGS
Codec ID/Info : Picture based subtitle format used on BDs/HD-DVDs
Duration : 2 h 4 min
Bit rate : 24.5 kb/s
Count of elements : 2433
Stream size : 21.8 MiB (0%)
Title : Spanish-PGS
Language : Spanish
Default : No
Forced : No

Text #7
ID : 21
Format : PGS
Muxing mode : zlib
Codec ID : S_HDMV/PGS
Codec ID/Info : Picture based subtitle format used on BDs/HD-DVDs
Duration : 2 h 4 min
Bit rate : 25.1 kb/s
Count of elements : 2879
Stream size : 22.3 MiB (0%)
Title : French-PGS
Language : French
Default : No
Forced : No

Text #8
ID : 22
Format : PGS
Muxing mode : zlib
Codec ID : S_HDMV/PGS
Codec ID/Info : Picture based subtitle format used on BDs/HD-DVDs
Duration : 2 h 10 min
Bit rate : 20.2 kb/s
Count of elements : 2565
Stream size : 18.8 MiB (0%)
Title : French-PGS
Language : French
Default : No
Forced : No

Text #9
ID : 23
Format : PGS
Muxing mode : zlib
Codec ID : S_HDMV/PGS
Codec ID/Info : Picture based subtitle format used on BDs/HD-DVDs
Duration : 2 h 10 min
Bit rate : 22.6 kb/s
Count of elements : 2413
Stream size : 21.1 MiB (0%)
Title : Italian-PGS
Language : Italian
Default : No
Forced : No

Text #10
ID : 24
Format : PGS
Muxing mode : zlib
Codec ID : S_HDMV/PGS
Codec ID/Info : Picture based subtitle format used on BDs/HD-DVDs
Duration : 2 h 10 min
Bit rate : 22.8 kb/s
Count of elements : 2049
Stream size : 21.3 MiB (0%)
Title : Dutch-PGS
Language : Dutch
Default : No
Forced : No

Text #11
ID : 25
Format : PGS
Muxing mode : zlib
Codec ID : S_HDMV/PGS
Codec ID/Info : Picture based subtitle format used on BDs/HD-DVDs
Duration : 2 h 10 min
Bit rate : 21.9 kb/s
Count of elements : 2421
Stream size : 20.4 MiB (0%)
Title : Norwegian-PGS
Language : Norwegian
Default : No
Forced : No

Text #12
ID : 26
Format : PGS
Muxing mode : zlib
Codec ID : S_HDMV/PGS
Codec ID/Info : Picture based subtitle format used on BDs/HD-DVDs
Duration : 2 h 3 min
Bit rate : 21.7 kb/s
Count of elements : 2421
Stream size : 19.1 MiB (0%)
Title : Portuguese-PGS
Language : Portuguese
Default : No
Forced : No

Text #13
ID : 27
Format : PGS
Muxing mode : zlib
Codec ID : S_HDMV/PGS
Codec ID/Info : Picture based subtitle format used on BDs/HD-DVDs
Duration : 2 h 10 min
Bit rate : 23.2 kb/s
Count of elements : 2495
Stream size : 21.6 MiB (0%)
Title : Finnish-PGS
Language : Finnish
Default : No
Forced : No

Text #14
ID : 28
Format : PGS
Muxing mode : zlib
Codec ID : S_HDMV/PGS
Codec ID/Info : Picture based subtitle format used on BDs/HD-DVDs
Duration : 2 h 10 min
Bit rate : 22.4 kb/s
Count of elements : 2382
Stream size : 20.9 MiB (0%)
Title : Swedish-PGS
Language : Swedish
Default : No
Forced : No

Text #15
ID : 29
Format : PGS
Muxing mode : zlib
Codec ID : S_HDMV/PGS
Codec ID/Info : Picture based subtitle format used on BDs/HD-DVDs
Duration : 2 h 10 min
Bit rate : 76.6 kb/s
Count of elements : 5594
Stream size : 71.8 MiB (0%)
Title : English-COMMENTARY-PGS
Language : English
Default : No
Forced : No

Text #16
ID : 30
Format : PGS
Muxing mode : zlib
Codec ID : S_HDMV/PGS
Codec ID/Info : Picture based subtitle format used on BDs/HD-DVDs
Duration : 2 h 11 min
Bit rate : 67.6 kb/s
Count of elements : 5598
Stream size : 63.6 MiB (0%)
Title : German-COMMENTARY-PGS
Language : German
Default : No
Forced : No

Text #17
ID : 31
Format : PGS
Muxing mode : zlib
Codec ID : S_HDMV/PGS
Codec ID/Info : Picture based subtitle format used on BDs/HD-DVDs
Duration : 2 h 11 min
Bit rate : 66.0 kb/s
Count of elements : 5596
Stream size : 62.0 MiB (0%)
Title : Spanish-COMMENTARY-PGS
Language : Spanish
Default : No
Forced : No

Text #18
ID : 32
Format : PGS
Muxing mode : zlib
Codec ID : S_HDMV/PGS
Codec ID/Info : Picture based subtitle format used on BDs/HD-DVDs
Duration : 2 h 11 min
Bit rate : 64.9 kb/s
Count of elements : 5644
Stream size : 61.0 MiB (0%)
Title : Spanish-COMMENTARY-PGS
Language : Spanish
Default : No
Forced : No

Text #19
ID : 33
Format : PGS
Muxing mode : zlib
Codec ID : S_HDMV/PGS
Codec ID/Info : Picture based subtitle format used on BDs/HD-DVDs
Duration : 2 h 11 min
Bit rate : 66.6 kb/s
Count of elements : 5596
Stream size : 62.6 MiB (0%)
Title : French-COMMENTARY-PGS
Language : French
Default : No
Forced : No

Text #20
ID : 34
Format : PGS
Muxing mode : zlib
Codec ID : S_HDMV/PGS
Codec ID/Info : Picture based subtitle format used on BDs/HD-DVDs
Duration : 2 h 11 min
Bit rate : 64.1 kb/s
Count of elements : 5598
Stream size : 60.2 MiB (0%)
Title : French-COMMENTARY-PGS
Language : French
Default : No
Forced : No

Text #21
ID : 35
Format : PGS
Muxing mode : zlib
Codec ID : S_HDMV/PGS
Codec ID/Info : Picture based subtitle format used on BDs/HD-DVDs
Duration : 2 h 11 min
Bit rate : 61.8 kb/s
Count of elements : 5596
Stream size : 58.1 MiB (0%)
Title : Italian-COMMENTARY-PGS
Language : Italian
Default : No
Forced : No

Text #22
ID : 36
Format : PGS
Muxing mode : zlib
Codec ID : S_HDMV/PGS
Codec ID/Info : Picture based subtitle format used on BDs/HD-DVDs
Duration : 2 h 11 min
Bit rate : 68.7 kb/s
Count of elements : 5620
Stream size : 64.6 MiB (0%)
Title : Portuguese-COMMENTARY-PGS
Language : Portuguese
Default : No
Forced : No

Menu
00:00:00.000 : en:Chapter 1
00:09:53.092 : en:Chapter 2
00:20:45.702 : en:Chapter 3
00:25:32.072 : en:Chapter 4
00:32:00.668 : en:Chapter 5
00:40:03.442 : en:Chapter 6
00:49:35.555 : en:Chapter 7
01:01:01.157 : en:Chapter 8
01:09:51.687 : en:Chapter 9
01:20:20.857 : en:Chapter 10
01:29:29.322 : en:Chapter 11
01:38:32.823 : en:Chapter 12
01:48:19.409 : en:Chapter 13
01:57:13.943 : en:Chapter 14
02:03:02.708 : en:Chapter 15
movie BDRip Video
ID : 1
Format : HEVC
Format/Info : High Efficiency Video Coding
Commercial name : HDR10
Format profile : Main 10@L5.1@High
Codec ID : V_MPEGH/ISO/HEVC
Duration : 2 h 11 min
Width : 3 840 pixels
Height : 1 600 pixels
Display aspect ratio : 2.40:1
Frame rate mode : Constant
Frame rate : 23.976 (24000/1001) FPS
Color space : YUV
Chroma subsampling : 4:2:0 (Type 2)
Bit depth : 10 bits
Writing library : x265 2.8+10-703eade86b53:[Windows][GCC 8.1.0][64 bit] 10bit
Encoding settings : cpuid=1176575 / frame-threads=5 / numa-pools=32 / wpp / no-pmode / no-pme / no-psnr / no-ssim / log-level=2 / input-csp=1 / input-res=3840x1600 / interlace=0 / total-frames=189263 / level-idc=51 / high-tier=1 / uhd-bd=0 / ref=4 / no-allow-non-conformance / repeat-headers / annexb / aud / hrd / info / hash=0 / no-temporal-layers / no-open-gop / min-keyint=24 / keyint=240 / gop-lookahead=0 / bframes=4 / b-adapt=2 / b-pyramid / bframe-bias=0 / rc-lookahead=25 / lookahead-slices=4 / scenecut=40 / radl=0 / no-intra-refresh / ctu=64 / min-cu-size=8 / rect / no-amp / max-tu-size=32 / tu-inter-depth=1 / tu-intra-depth=1 / limit-tu=0 / rdoq-level=2 / dynamic-rd=0.00 / no-ssim-rd / signhide / no-tskip / nr-intra=0 / nr-inter=0 / no-constrained-intra / no-strong-intra-smoothing / max-merge=3 / limit-refs=3 / limit-modes / me=3 / subme=3 / merange=57 / temporal-mvp / weightp / no-weightb / no-analyze-src-pics / deblock=-3:-3 / no-sao / no-sao-non-deblock / rd=4 / no-early-skip / rskip / no-fast-intra / no-tskip-fast / no-cu-lossless / no-b-intra / no-splitrd-skip / rdpenalty=0 / psy-rd=2.00 / psy-rdoq=1.00 / no-rd-refine / no-lossless / cbqpoffs=0 / crqpoffs=0 / rc=crf / crf=18.0 / qcomp=0.60 / qpstep=4 / stats-write=0 / stats-read=0 / vbv-maxrate=160000 / vbv-bufsize=160000 / vbv-init=0.9 / crf-max=0.0 / crf-min=0.0 / ipratio=1.40 / pbratio=1.30 / aq-mode=1 / aq-strength=1.00 / cutree / zone-count=0 / no-strict-cbr / qg-size=32 / no-rc-grain / qpmax=69 / qpmin=0 / no-const-vbv / sar=1 / overscan=0 / videoformat=5 / range=0 / colorprim=9 / transfer=16 / colormatrix=9 / chromaloc=1 / chromaloc-top=2 / chromaloc-bottom=2 / display-window=0 / master-display=G(13250,34500)B(7500,3000)R(34000,16000)WP(15635,16450)L(10000000,1) / max-cll=0,0 / min-luma=0 / max-luma=1023 / log2-max-poc-lsb=8 / vui-timing-info / vui-hrd-info / slices=1 / no-opt-qp-pps / no-opt-ref-list-length-pps / no-multi-pass-opt-rps / scenecut-bias=0.05 / no-opt-cu-delta-qp / no-aq-motion / hdr / hdr-opt / no-dhdr10-opt / no-idr-recovery-sei / analysis-reuse-level=5 / scale-factor=0 / refine-intra=0 / refine-inter=0 / refine-mv=0 / no-limit-sao / ctu-info=0 / no-lowpass-dct / refine-mv-type=0 / copy-pic=1 / max-ausize-factor=1.0 / no-dynamic-refine / no-single-sei
Default : Yes
Forced : No
Color range : Limited
Color primaries : BT.2020
Transfer characteristics : PQ
Matrix coefficients : BT.2020 non-constant
Statistics Tags Issue : no_variable_data 1970-01-01 00:00:00 / no_variable_data 2010-02-22 21:41:29
FromStats_BitRate : 27344420
FromStats_Duration : 02:11:33.845000000
FromStats_FrameCount : 189263
FromStats_StreamSize : 26981577398
Mastering display color primaries : Display P3
Mastering display luminance : min: 0.0001 cd/m2, max: 1000 cd/m2

Audio #1
ID : 2
Format : TrueHD
Format profile : TrueHD+Atmos / TrueHD
Codec ID : A_TRUEHD
Bit rate mode : Variable
Maximum bit rate : 8 736 kb/s
Channel(s) : Object Based / 8 channels
Channel positions : Object Based / Front: L C R, Side: L R, Back: L R, LFE
Sampling rate : / 48.0 kHz
Frame rate : 1 200.000 FPS (40 SPF)
Compression mode : Lossless
Language : English
Default : Yes
Forced : No
Statistics Tags Issue : no_variable_data 1970-01-01 00:00:00 / no_variable_data 2010-02-22 21:41:29
FromStats_BitRate : 4895333
FromStats_Duration : 02:11:33.845000000
FromStats_FrameCount : 9472614
FromStats_StreamSize : 4830375038

Audio #2
ID : 3
Format : AC-3
Format/Info : Audio Coding 3
Codec ID : A_AC3
Duration : 2 h 11 min
Bit rate mode : Constant
Bit rate : 640 kb/s
Channel(s) : 6 channels
Channel positions : Front: L C R, Side: L R, LFE
Sampling rate : 48.0 kHz
Frame rate : 31.250 FPS (1536 SPF)
Bit depth : 16 bits
Compression mode : Lossy
Stream size : 602 MiB (2%)
Language : English
Service kind : Complete Main
Default : No
Forced : No
Statistics Tags Issue : no_variable_data 1970-01-01 00:00:00 / no_variable_data 2010-02-22 21:41:29
FromStats_BitRate : 640000
FromStats_Duration : 02:11:33.856000000
FromStats_FrameCount : 246683
FromStats_StreamSize : 631508480

Audio #3
ID : 4
Format : AC-3
Format/Info : Audio Coding 3
Codec ID : A_AC3
Duration : 2 h 11 min
Bit rate mode : Constant
Bit rate : 224 kb/s
Channel(s) : 2 channels
Channel positions : Front: L R
Sampling rate : 48.0 kHz
Frame rate : 31.250 FPS (1536 SPF)
Bit depth : 16 bits
Compression mode : Lossy
Stream size : 211 MiB (1%)
Language : English
Service kind : Complete Main
Default : No
Forced : No
Statistics Tags Issue : no_variable_data 1970-01-01 00:00:00 / no_variable_data 2010-02-22 21:41:29
FromStats_BitRate : 224000
FromStats_Duration : 02:11:33.856000000
FromStats_FrameCount : 246683
FromStats_StreamSize : 221027968

Text #1
ID : 5
Format : UTF-8
Codec ID : S_TEXT/UTF8
Codec ID/Info : UTF-8 Plain Text
Title : Forced SRT
Language : English
Default : Yes
Forced : Yes
Statistics Tags Issue : no_variable_data 1970-01-01 00:00:00 / no_variable_data 2010-02-22 21:41:29
FromStats_BitRate : 0
FromStats_Duration : 01:53:30.053000000
FromStats_FrameCount : 23
FromStats_StreamSize : 640

Text #2
ID : 6
Format : PGS
Muxing mode : zlib
Codec ID : S_HDMV/PGS
Codec ID/Info : Picture based subtitle format used on BDs/HD-DVDs
Title : Forced
Language : English
Default : No
Forced : No
Statistics Tags Issue : no_variable_data 1970-01-01 00:00:00 / no_variable_data 2010-02-22 21:41:29
FromStats_BitRate : 220
FromStats_Duration : 01:53:30.053000000
FromStats_FrameCount : 43
FromStats_StreamSize : 187461

Text #3
ID : 7
Format : UTF-8
Codec ID : S_TEXT/UTF8
Codec ID/Info : UTF-8 Plain Text
Title : Stripped SRT
Language : English
Default : No
Forced : No
Statistics Tags Issue : no_variable_data 1970-01-01 00:00:00 / no_variable_data 2010-02-22 21:41:29
FromStats_BitRate : 49
FromStats_Duration : 02:03:24.272000000
FromStats_FrameCount : 1233
FromStats_StreamSize : 45800

Text #4
ID : 8
Format : UTF-8
Codec ID : S_TEXT/UTF8
Codec ID/Info : UTF-8 Plain Text
Title : Full SRT
Language : English
Default : No
Forced : No
Statistics Tags Issue : no_variable_data 1970-01-01 00:00:00 / no_variable_data 2010-02-22 21:41:29
FromStats_BitRate : 49
FromStats_Duration : 02:03:24.272000000
FromStats_FrameCount : 1208
FromStats_StreamSize : 45526

Text #5
ID : 9
Format : PGS
Muxing mode : zlib
Codec ID : S_HDMV/PGS
Codec ID/Info : Picture based subtitle format used on BDs/HD-DVDs
Title : Full
Language : English
Default : No
Forced : No
Statistics Tags Issue : no_variable_data 1970-01-01 00:00:00 / no_variable_data 2010-02-22 21:41:29
FromStats_BitRate : 25955
FromStats_Duration : 02:03:24.272000000
FromStats_FrameCount : 2413
FromStats_StreamSize : 24022964

Text #6
ID : 10
Format : UTF-8
Codec ID : S_TEXT/UTF8
Codec ID/Info : UTF-8 Plain Text
Title : SDH SRT
Language : English
Default : No
Forced : No
Statistics Tags Issue : no_variable_data 1970-01-01 00:00:00 / no_variable_data 2010-02-22 21:41:29
FromStats_BitRate : 53
FromStats_Duration : 02:03:24.272000000
FromStats_FrameCount : 1410
FromStats_StreamSize : 49764

Text #7
ID : 11
Format : PGS
Muxing mode : zlib
Codec ID : S_HDMV/PGS
Codec ID/Info : Picture based subtitle format used on BDs/HD-DVDs
Title : SDH
Language : English
Default : No
Forced : No
Statistics Tags Issue : no_variable_data 1970-01-01 00:00:00 / no_variable_data 2010-02-22 21:41:29
FromStats_BitRate : 29223
FromStats_Duration : 02:03:24.272000000
FromStats_FrameCount : 2817
FromStats_StreamSize : 27046914

Text #8
ID : 12
Format : PGS
Muxing mode : zlib
Codec ID : S_HDMV/PGS
Codec ID/Info : Picture based subtitle format used on BDs/HD-DVDs
Title : Commentary with actor Tom Cruise and director Christopher McQuarrie
Language : English
Default : No
Forced : No
Statistics Tags Issue : no_variable_data 1970-01-01 00:00:00 / no_variable_data 2010-02-22 21:41:29
FromStats_BitRate : 76631
FromStats_Duration : 02:10:55.348000000
FromStats_FrameCount : 5594
FromStats_StreamSize : 75245797

Text #9
ID : 13
Format : PGS
Muxing mode : zlib
Codec ID : S_HDMV/PGS
Codec ID/Info : Picture based subtitle format used on BDs/HD-DVDs
Title : EU
Language : French
Default : No
Forced : No
Statistics Tags Issue : no_variable_data 1970-01-01 00:00:00 / no_variable_data 2010-02-22 21:41:29
FromStats_BitRate : 20191
FromStats_Duration : 02:10:24.150000000
FromStats_FrameCount : 2565
FromStats_StreamSize : 19747485

Text #10
ID : 14
Format : PGS
Muxing mode : zlib
Codec ID : S_HDMV/PGS
Codec ID/Info : Picture based subtitle format used on BDs/HD-DVDs
Title : Commentary with actor Tom Cruise and director Christopher McQuarrie (EU)
Language : French
Default : No
Forced : No
Statistics Tags Issue : no_variable_data 1970-01-01 00:00:00 / no_variable_data 2010-02-22 21:41:29
FromStats_BitRate : 64056
FromStats_Duration : 02:11:28.339000000
FromStats_FrameCount : 5598
FromStats_StreamSize : 63162084

Text #11
ID : 15
Format : PGS
Muxing mode : zlib
Codec ID : S_HDMV/PGS
Codec ID/Info : Picture based subtitle format used on BDs/HD-DVDs
Title : CA
Language : French
Default : No
Forced : No
Statistics Tags Issue : no_variable_data 1970-01-01 00:00:00 / no_variable_data 2010-02-22 21:41:29
FromStats_BitRate : 25085
FromStats_Duration : 02:04:18.618000000
FromStats_FrameCount : 2879
FromStats_StreamSize : 23388060

Text #12
ID : 16
Format : PGS
Muxing mode : zlib
Codec ID : S_HDMV/PGS
Codec ID/Info : Picture based subtitle format used on BDs/HD-DVDs
Title : Commentary with actor Tom Cruise and director Christopher McQuarrie (CA)
Language : French
Default : No
Forced : No
Statistics Tags Issue : no_variable_data 1970-01-01 00:00:00 / no_variable_data 2010-02-22 21:41:29
FromStats_BitRate : 66615
FromStats_Duration : 02:11:28.339000000
FromStats_FrameCount : 5596
FromStats_StreamSize : 65685787

Text #13
ID : 17
Format : PGS
Muxing mode : zlib
Codec ID : S_HDMV/PGS
Codec ID/Info : Picture based subtitle format used on BDs/HD-DVDs
Title : EU
Language : Spanish
Default : No
Forced : No
Statistics Tags Issue : no_variable_data 1970-01-01 00:00:00 / no_variable_data 2010-02-22 21:41:29
FromStats_BitRate : 24490
FromStats_Duration : 02:10:24.150000000
FromStats_FrameCount : 2481
FromStats_StreamSize : 23951824

Text #14
ID : 18
Format : PGS
Muxing mode : zlib
Codec ID : S_HDMV/PGS
Codec ID/Info : Picture based subtitle format used on BDs/HD-DVDs
Title : Commentary with actor Tom Cruise and director Christopher McQuarrie (EU)
Language : Spanish
Default : No
Forced : No
Statistics Tags Issue : no_variable_data 1970-01-01 00:00:00 / no_variable_data 2010-02-22 21:41:29
FromStats_BitRate : 65981
FromStats_Duration : 02:11:28.339000000
FromStats_FrameCount : 5596
FromStats_StreamSize : 65060583

Text #15
ID : 19
Format : PGS
Muxing mode : zlib
Codec ID : S_HDMV/PGS
Codec ID/Info : Picture based subtitle format used on BDs/HD-DVDs
Title : Latin
Language : Spanish
Default : No
Forced : No
Statistics Tags Issue : no_variable_data 1970-01-01 00:00:00 / no_variable_data 2010-02-22 21:41:29
FromStats_BitRate : 24529
FromStats_Duration : 02:04:19.035000000
FromStats_FrameCount : 2433
FromStats_StreamSize : 22870866

Text #16
ID : 20
Format : PGS
Muxing mode : zlib
Codec ID : S_HDMV/PGS
Codec ID/Info : Picture based subtitle format used on BDs/HD-DVDs
Title : Commentary with actor Tom Cruise and director Christopher McQuarrie (Latin)
Language : Spanish
Default : No
Forced : No
Statistics Tags Issue : no_variable_data 1970-01-01 00:00:00 / no_variable_data 2010-02-22 21:41:29
FromStats_BitRate : 64879
FromStats_Duration : 02:11:28.214000000
FromStats_FrameCount : 5644
FromStats_StreamSize : 63972598

Text #17
ID : 21
Format : PGS
Muxing mode : zlib
Codec ID : S_HDMV/PGS
Codec ID/Info : Picture based subtitle format used on BDs/HD-DVDs
Language : Portuguese
Default : No
Forced : No
Statistics Tags Issue : no_variable_data 1970-01-01 00:00:00 / no_variable_data 2010-02-22 21:41:29
FromStats_BitRate : 21652
FromStats_Duration : 02:03:31.613000000
FromStats_FrameCount : 2421
FromStats_StreamSize : 20060184

Text #18
ID : 22
Format : PGS
Muxing mode : zlib
Codec ID : S_HDMV/PGS
Codec ID/Info : Picture based subtitle format used on BDs/HD-DVDs
Title : Commentary with actor Tom Cruise and director Christopher McQuarrie
Language : Portuguese
Default : No
Forced : No
Statistics Tags Issue : no_variable_data 1970-01-01 00:00:00 / no_variable_data 2010-02-22 21:41:29
FromStats_BitRate : 68689
FromStats_Duration : 02:11:28.214000000
FromStats_FrameCount : 5620
FromStats_StreamSize : 67730105

Text #19
ID : 23
Format : PGS
Muxing mode : zlib
Codec ID : S_HDMV/PGS
Codec ID/Info : Picture based subtitle format used on BDs/HD-DVDs
Language : Italian
Default : No
Forced : No
Statistics Tags Issue : no_variable_data 1970-01-01 00:00:00 / no_variable_data 2010-02-22 21:41:29
FromStats_BitRate : 22609
FromStats_Duration : 02:10:23.816000000
FromStats_FrameCount : 2413
FromStats_StreamSize : 22111861

Text #20
ID : 24
Format : PGS
Muxing mode : zlib
Codec ID : S_HDMV/PGS
Codec ID/Info : Picture based subtitle format used on BDs/HD-DVDs
Title : Commentary with actor Tom Cruise and director Christopher McQuarrie
Language : Italian
Default : No
Forced : No
Statistics Tags Issue : no_variable_data 1970-01-01 00:00:00 / no_variable_data 2010-02-22 21:41:29
FromStats_BitRate : 61794
FromStats_Duration : 02:11:28.339000000
FromStats_FrameCount : 5596
FromStats_StreamSize : 60932341

Text #21
ID : 25
Format : PGS
Muxing mode : zlib
Codec ID : S_HDMV/PGS
Codec ID/Info : Picture based subtitle format used on BDs/HD-DVDs
Language : German
Default : No
Forced : No
Statistics Tags Issue : no_variable_data 1970-01-01 00:00:00 / no_variable_data 2010-02-22 21:41:29
FromStats_BitRate : 24249
FromStats_Duration : 02:10:23.816000000
FromStats_FrameCount : 2409
FromStats_StreamSize : 23715933

Text #22
ID : 26
Format : PGS
Muxing mode : zlib
Codec ID : S_HDMV/PGS
Codec ID/Info : Picture based subtitle format used on BDs/HD-DVDs
Title : Commentary with actor Tom Cruise and director Christopher McQuarrie
Language : German
Default : No
Forced : No
Statistics Tags Issue : no_variable_data 1970-01-01 00:00:00 / no_variable_data 2010-02-22 21:41:29
FromStats_BitRate : 67600
FromStats_Duration : 02:11:28.339000000
FromStats_FrameCount : 5598
FromStats_StreamSize : 66656780

Text #23
ID : 27
Format : PGS
Muxing mode : zlib
Codec ID : S_HDMV/PGS
Codec ID/Info : Picture based subtitle format used on BDs/HD-DVDs
Language : Dutch
Default : No
Forced : No
Statistics Tags Issue : no_variable_data 1970-01-01 00:00:00 / no_variable_data 2010-02-22 21:41:29
FromStats_BitRate : 22831
FromStats_Duration : 02:10:17.018000000
FromStats_FrameCount : 2049
FromStats_StreamSize : 22309683

Text #24
ID : 28
Format : PGS
Muxing mode : zlib
Codec ID : S_HDMV/PGS
Codec ID/Info : Picture based subtitle format used on BDs/HD-DVDs
Language : Swedish
Default : No
Forced : No
Statistics Tags Issue : no_variable_data 1970-01-01 00:00:00 / no_variable_data 2010-02-22 21:41:29
FromStats_BitRate : 22372
FromStats_Duration : 02:10:23.816000000
FromStats_FrameCount : 2382
FromStats_StreamSize : 21879521

Text #25
ID : 29
Format : PGS
Muxing mode : zlib
Codec ID : S_HDMV/PGS
Codec ID/Info : Picture based subtitle format used on BDs/HD-DVDs
Language : Norwegian
Default : No
Forced : No
Statistics Tags Issue : no_variable_data 1970-01-01 00:00:00 / no_variable_data 2010-02-22 21:41:29
FromStats_BitRate : 21923
FromStats_Duration : 02:10:23.816000000
FromStats_FrameCount : 2421
FromStats_StreamSize : 21440881

Text #26
ID : 30
Format : PGS
Muxing mode : zlib
Codec ID : S_HDMV/PGS
Codec ID/Info : Picture based subtitle format used on BDs/HD-DVDs
Language : Danish
Default : No
Forced : No
Statistics Tags Issue : no_variable_data 1970-01-01 00:00:00 / no_variable_data 2010-02-22 21:41:29
FromStats_BitRate : 21485
FromStats_Duration : 02:10:24.484000000
FromStats_FrameCount : 1962
FromStats_StreamSize : 21014546

Text #27
ID : 31
Format : PGS
Muxing mode : zlib
Codec ID : S_HDMV/PGS
Codec ID/Info : Picture based subtitle format used on BDs/HD-DVDs
Language : Finnish
Default : No
Forced : No
Statistics Tags Issue : no_variable_data 1970-01-01 00:00:00 / no_variable_data 2010-02-22 21:41:29
FromStats_BitRate : 23163
FromStats_Duration : 02:10:24.150000000
FromStats_FrameCount : 2495
FromStats_StreamSize : 22653891

Menu
00:00:00.000 : en:00:00:00.000
00:09:53.092 : en:00:09:53.092
00:20:45.703 : en:00:20:45.703
00:25:32.072 : en:00:25:32.072
00:32:00.669 : en:00:32:00.669
00:40:03.443 : en:00:40:03.443
00:49:35.556 : en:00:49:35.556
01:01:01.157 : en:01:01:01.157
01:09:51.687 : en:01:09:51.687
01:20:20.858 : en:01:20:20.858
01:29:29.322 : en:01:29:29.322
01:38:32.824 : en:01:38:32.824
01:48:19.410 : en:01:48:19.410
01:57:13.944 : en:01:57:13.944
02:03:02.709 : en:02:03:02.709

Download

download 4k hdr movies download 4k hdr movies

Watch a movie trailer - Mission Impossible - Rogue Nation 4K 2015 Ultra HD 2160p
Comments and Feedback
  1. - 0 +
    Charlesemorn  пишет:
    9 August 2019 22:32
    Nicely put. Kudos. cheap drugs online canadian pharmacies canadian pharmacy online canadianpharmacy canadian prescription - https://www.canadianpharmacycom.com/ best canadian online pharmacy Pi e5694_f
  2. - 0 +
    Ronaldged  пишет:
    10 August 2019 07:00
    Wow plenty of good material! canadian pharmaceuticals online medical information online - https://www.canadianonlinepharmacytrust.com/ rx pharmacy hew 90_54dc
  3. - 0 +
    DeshawnGed  пишет:
    10 August 2019 11:51
    With thanks. A lot of stuff! canadian pharmacy viagra brandcanadian pharmaceuticals online canadianpharmacyservice.com pharmacy price compare london drugs canada canadian drugstore - https://www.trustedwebpharmacy.com/ canada pharmacy online orders pa 75e93f0
  4. - 0 +
    EdwardKam  пишет:
    11 August 2019 01:12
    This is nicely said. ! canadian pharmacies northwest pharmacy - https://www.pharmacyonline-canadian.com/ us pharmacy no prior prescription gob 3f02d64
  5. - 0 +
    RobertMor  пишет:
    12 August 2019 03:05
    Thanks! Very good information! pharmacy northwest canada canadian prescription - https://www.safeonlinecanadian.com/ aarp approved canadian online pharmacies Pa f02d646
  6. - 0 +
    Michaelsweno  пишет:
    16 August 2019 16:39
    Thank you! Great stuff! canadian drugs legal canadian prescription drugs online prescription cost canadian pharmacy drugs online walmart pharmacy price check - https://www.safeonlinecanadian.com/ londondrugs vet d646b30
  7. - 0 +
    KennethBut  пишет:
    21 August 2019 02:37
    Thanks! Fantastic information! viagra without a doctor prescription viagra nz - https://genericviagrantx.com/ discount generic viagra online viagra boring edinburgh pages site KennethMet 46554c9
  8. - 0 +
    LelandSaw  пишет:
    21 August 2019 07:21
    Very good info. Thanks! viagra 100mg generic viagra online cashiers check - https://genericviagramsl.com/ viagra ad in magazine viagra and hard erection Lelandduh 94e5695
  9. - 0 +
    JoshuaParma  пишет:
    21 August 2019 12:50
    With thanks, Numerous material! viagra without a doctor prescription effects viagra - https://www.genericonlineviagrarx.com/viagra-generic/ low priced viagra chain store lisonpril viagra Joshuametly 93f02d6
  10. - 0 +
    Patrickkeype  пишет:
    22 August 2019 01:01
    Really quite a lot of very good knowledge! buy generic viagra to buy viagra - https://www.viagraonlinemsn.com/ viagra 500mg viagra and heart problems Patrickapefs 6b30d46
  11. - 0 +
    EdwardGok  пишет:
    22 August 2019 02:57
    Amazing information. Regards! viagra 100mg viagra cialis buying guide - https://genericviagrantx.com/ pharmacies that deliver viagra to missouri viagra drug zenegra EdwardAnecy d646b30
  12. - 0 +
    JasonTerne  пишет:
    22 August 2019 03:03
    You mentioned this well. viagra without a doctor prescription viagra and cialis expiry notice spam - https://www.viagraforsalemsn.com/ cheap generic substitute viagra viagra como se toma JasonHam 5e93f02
  13. - 0 +
    canadian pharmacy  пишет:
    10 October 2019 18:24
  14. - 0 +
    online pharmacy canada  пишет:
    10 October 2019 21:04
  15. - 0 +
    14 October 2019 07:08
  16. - 0 +
    14 October 2019 21:47
  17. - 0 +
    canadian online pharmacy  пишет:
    15 October 2019 04:42
  18. - 0 +
    online drugstore  пишет:
    15 October 2019 08:34
Add your comment:
Your name:
Your E-Mail:
Code:
reload, if the code cannot be seen
Enter code: