Select movie Search movie Close search My Account

Red Sparrow 4K 2018 Ultra HD 2160p

Red Sparrow 4K 2018 Ultra HD 2160p
BDRemux / BDRip
Country: USA
Time: 2h 20min
IMDB: 6.7
Director: Francis Lawrence
Actors: Jennifer Lawrence, Joel Edgerton, Matthias Schoenaerts, Charlotte Rampling, Mary-Louise Parker, Ciar?n Hinds, Joely Richardson, Bill Camp, Jeremy Irons, Thekla Reuten, Douglas Hodge, Sakina Jaffrey, Sergei Polunin, Sasha Frolova, Sebastian

Story Movie

Red Sparrow 4K 2018 Ultra HD 2160p
Red Sparrow where to buy 4k movies tells how the former ballerina becomes one of the best agents of secret intelligence. she had to end her creative career due to injury, and instead she tries to realize herself in everyday life. It is by accident that she gets to the school of sparrows. and it is there that it becomes the best. Therefore, it is she who is trusted with the most dangerous task.

Review 4K Movie

They did not have time to digest the "Explosive Blonde" with Charlize Theron, as the "Red Sparrow" where to buy 4k movies burst into the screens - the creation of Francis Lawrence with the same name of Jennifer Lawrence in the title role.

The idea is that the Russian girl should win all of them, in fact - she seduces, loves and kills everyone.

The film "The Red Sparrow" Ultra HD watched three days. For one sitting my psyche "such" did not master. But she did! So the film has an intrigue, and for me there were many. The plot itself is interesting, and the final is unpredictable, but why so much dirt, lust? Was it necessary to highlight the original topic of the special services in an original way? It turned out so-so ...

I do not understand for which audience this film was shot? Children clearly can not be watched, women are unlikely to like it - too much violence and blood (it seems that blood was not only in the episode when one of the main characters skinned) ... Men? - those who are at least a little bit versed in military affairs, laugh and turn out after 15 minutes. For modern youth, the film is too "old-fashioned", for the older generation - too "dirty."

I do not understand the choice of appearance of the hero, who played the role of the uncle of the main character, Matthias Shornaths. Everyone noticed the similarity, few people understood Why?

Nestovikov mass: the main character of the "ballerina" is still ... Not only is she physically larger than most of the peasants involved in the film, so also the "best dancer" of the Bolshoi Theater is represented by a beggar without means of subsistence. In addition, when viewing, I could not catch the time of what was happening. Modern cars and an electronic ticket in Vienna can be purchased through a terminal with a "touchscreen", and all that concerns Russia - the apartment of the main heroine, the school for training "sparrows", the style of clothing for the heroes - everything seems to have frozen in the 1960s, th century.

The only one for whom it was interesting to watch - Joel Edgerton, perfectly worked role, "a ray of light" in a gloomy kingdom.

In general, the film is "muddy". It is strange that he was generally duplicated in Russian. If you cut out all the scenes of violence, we'll meet in 25 minutes of an intriguing, exciting plot about special agents.

Mediainfo

movie BDRemux Video
ID : 1
Format : HEVC
Format/Info : High Efficiency Video Coding
Commercial name : HDR10
Format profile : Main 10@L5.1@High
Codec ID : V_MPEGH/ISO/HEVC
Duration : 2 h 20 min
Bit rate : 42.6 Mb/s
Width : 3 840 pixels
Height : 2 160 pixels
Display aspect ratio : 16:9
Frame rate mode : Constant
Frame rate : 23.976 (24000/1001) FPS
Color space : YUV
Chroma subsampling : 4:2:0 (Type 2)
Bit depth : 10 bits
Bits/(Pixel*Frame) : 0.214
Stream size : 41.7 GiB (75%)
Title : Red.Sparrow.2018.2160p.BluRay.REMUX.HEVC.DTS-HD.MA.TrueHD.7.1.Atmos
Writing library : ATEME Titan File 3.8.14 (4.8.14.0)
Default : Yes
Forced : No
Color range : Limited
Color primaries : BT.2020
Transfer characteristics : PQ
Matrix coefficients : BT.2020 non-constant
Mastering display color primaries : Display P3
Mastering display luminance : min: 0.0050 cd/m2, max: 1000 cd/m2

Audio #1
ID : 2
Format : TrueHD
Format profile : TrueHD+Atmos / TrueHD
Codec ID : A_TRUEHD
Duration : 2 h 20 min
Bit rate mode : Variable
Bit rate : 4 094 kb/s
Maximum bit rate : 9 006 kb/s
Channel(s) : Object Based / 8 channels
Channel positions : Object Based / Front: L C R, Side: L R, Back: L R, LFE
Sampling rate : / 48.0 kHz
Frame rate : 1 200.000 FPS (40 SPF)
Compression mode : Lossless
Delay relative to video : 32 ms
Stream size : 4.01 GiB (7%)
Title : Red.Sparrow.2018.2160p.BluRay.REMUX.HEVC.DTS-HD.MA.TrueHD.7.1.Atmos
Language : English
Default : Yes
Forced : No

Audio #2
ID : 3
Format : DTS
Format/Info : Digital Theater Systems
Format profile : MA / Core
Codec ID : A_DTS
Duration : 2 h 20 min
Bit rate mode : Variable / Constant
Bit rate : 3 763 kb/s / 1 509 kb/s
Channel(s) : 8 channels / 6 channels
Channel positions : Front: L C R, Side: L R, Back: L R, LFE / Front: L C R, Side: L R, LFE
Sampling rate : 48.0 kHz
Frame rate : 93.750 FPS (512 SPF)
Bit depth : 24 bits
Compression mode : Lossless / Lossy
Stream size : 3.69 GiB (7%)
Title : Red.Sparrow.2018.2160p.BluRay.REMUX.HEVC.DTS-HD.MA.TrueHD.7.1.Atmos
Language : English
Default : No
Forced : No

Audio #3
ID : 4
Format : AC-3
Format/Info : Audio Coding 3
Codec ID : A_AC3
Duration : 2 h 20 min
Bit rate mode : Constant
Bit rate : 640 kb/s
Channel(s) : 6 channels
Channel positions : Front: L C R, Side: L R, LFE
Sampling rate : 48.0 kHz
Frame rate : 31.250 FPS (1536 SPF)
Bit depth : 16 bits
Compression mode : Lossy
Delay relative to video : 31 ms
Stream size : 642 MiB (1%)
Title : Red.Sparrow.2018.2160p.BluRay.REMUX.HEVC.DTS-HD.MA.TrueHD.7.1.Atmos
Language : English
Service kind : Complete Main
Default : No
Forced : No

Audio #4
ID : 5
Format : AC-3
Format/Info : Audio Coding 3
Codec ID : A_AC3
Duration : 2 h 20 min
Bit rate mode : Constant
Bit rate : 448 kb/s
Channel(s) : 6 channels
Channel positions : Front: L C R, Side: L R, LFE
Sampling rate : 48.0 kHz
Frame rate : 31.250 FPS (1536 SPF)
Bit depth : 16 bits
Compression mode : Lossy
Stream size : 449 MiB (1%)
Title : Red.Sparrow.2018.2160p.BluRay.REMUX.HEVC.DTS-HD.MA.TrueHD.7.1.Atmos
Language : English
Service kind : Complete Main
Default : No
Forced : No

Audio #5
ID : 6
Format : AC-3
Format/Info : Audio Coding 3
Codec ID : A_AC3
Duration : 2 h 20 min
Bit rate mode : Constant
Bit rate : 448 kb/s
Channel(s) : 6 channels
Channel positions : Front: L C R, Side: L R, LFE
Sampling rate : 48.0 kHz
Frame rate : 31.250 FPS (1536 SPF)
Bit depth : 16 bits
Compression mode : Lossy
Stream size : 449 MiB (1%)
Title : Red.Sparrow.2018.2160p.BluRay.REMUX.HEVC.DTS-HD.MA.TrueHD.7.1.Atmos
Language : Spanish
Service kind : Complete Main
Default : No
Forced : No

Audio #6
ID : 7
Format : DTS
Format/Info : Digital Theater Systems
Codec ID : A_DTS
Duration : 2 h 20 min
Bit rate mode : Constant
Bit rate : 768 kb/s
Channel(s) : 6 channels
Channel positions : Front: L C R, Side: L R, LFE
Sampling rate : 48.0 kHz
Frame rate : 93.750 FPS (512 SPF)
Bit depth : 24 bits
Compression mode : Lossy
Stream size : 770 MiB (1%)
Title : Red.Sparrow.2018.2160p.BluRay.REMUX.HEVC.DTS-HD.MA.TrueHD.7.1.Atmos
Language : French
Default : No
Forced : No

Audio #7
ID : 8
Format : DTS
Format/Info : Digital Theater Systems
Codec ID : A_DTS
Duration : 2 h 20 min
Bit rate mode : Constant
Bit rate : 768 kb/s
Channel(s) : 6 channels
Channel positions : Front: L C R, Side: L R, LFE
Sampling rate : 48.0 kHz
Frame rate : 93.750 FPS (512 SPF)
Bit depth : 24 bits
Compression mode : Lossy
Stream size : 770 MiB (1%)
Title : Red.Sparrow.2018.2160p.BluRay.REMUX.HEVC.DTS-HD.MA.TrueHD.7.1.Atmos
Language : Spanish
Default : No
Forced : No

Audio #8
ID : 9
Format : DTS
Format/Info : Digital Theater Systems
Codec ID : A_DTS
Duration : 2 h 20 min
Bit rate mode : Constant
Bit rate : 768 kb/s
Channel(s) : 6 channels
Channel positions : Front: L C R, Side: L R, LFE
Sampling rate : 48.0 kHz
Frame rate : 93.750 FPS (512 SPF)
Bit depth : 24 bits
Compression mode : Lossy
Stream size : 770 MiB (1%)
Title : Red.Sparrow.2018.2160p.BluRay.REMUX.HEVC.DTS-HD.MA.TrueHD.7.1.Atmos
Language : German
Default : No
Forced : No

Audio #9
ID : 10
Format : DTS
Format/Info : Digital Theater Systems
Codec ID : A_DTS
Duration : 2 h 20 min
Bit rate mode : Constant
Bit rate : 768 kb/s
Channel(s) : 6 channels
Channel positions : Front: L C R, Side: L R, LFE
Sampling rate : 48.0 kHz
Frame rate : 93.750 FPS (512 SPF)
Bit depth : 24 bits
Compression mode : Lossy
Stream size : 770 MiB (1%)
Title : Red.Sparrow.2018.2160p.BluRay.REMUX.HEVC.DTS-HD.MA.TrueHD.7.1.Atmos
Language : Italian
Default : No
Forced : No

Audio #10
ID : 11
Format : AC-3
Format/Info : Audio Coding 3
Codec ID : A_AC3
Duration : 2 h 20 min
Bit rate mode : Constant
Bit rate : 448 kb/s
Channel(s) : 6 channels
Channel positions : Front: L C R, Side: L R, LFE
Sampling rate : 48.0 kHz
Frame rate : 31.250 FPS (1536 SPF)
Bit depth : 16 bits
Compression mode : Lossy
Stream size : 449 MiB (1%)
Title : Red.Sparrow.2018.2160p.BluRay.REMUX.HEVC.DTS-HD.MA.TrueHD.7.1.Atmos
Language : Czech
Service kind : Complete Main
Default : No
Forced : No

Audio #11
ID : 12
Format : AC-3
Format/Info : Audio Coding 3
Codec ID : A_AC3
Duration : 2 h 20 min
Bit rate mode : Constant
Bit rate : 448 kb/s
Channel(s) : 6 channels
Channel positions : Front: L C R, Side: L R, LFE
Sampling rate : 48.0 kHz
Frame rate : 31.250 FPS (1536 SPF)
Bit depth : 16 bits
Compression mode : Lossy
Stream size : 449 MiB (1%)
Title : Red.Sparrow.2018.2160p.BluRay.REMUX.HEVC.DTS-HD.MA.TrueHD.7.1.Atmos
Language : Polish
Service kind : Complete Main
Default : No
Forced : No

Audio #12
ID : 13
Format : AC-3
Format/Info : Audio Coding 3
Codec ID : A_AC3
Duration : 2 h 20 min
Bit rate mode : Constant
Bit rate : 224 kb/s
Channel(s) : 2 channels
Channel positions : Front: L R
Sampling rate : 48.0 kHz
Frame rate : 31.250 FPS (1536 SPF)
Bit depth : 16 bits
Compression mode : Lossy
Stream size : 225 MiB (0%)
Title : Red.Sparrow.2018.2160p.BluRay.REMUX.HEVC.DTS-HD.MA.TrueHD.7.1.Atmos
Language : English
Service kind : Complete Main
Default : No
Forced : No

Text #1
ID : 14
Format : PGS
Muxing mode : zlib
Codec ID : S_HDMV/PGS
Codec ID/Info : Picture based subtitle format used on BDs/HD-DVDs
Duration : 2 h 12 min
Bit rate : 34.6 kb/s
Count of elements : 3554
Stream size : 32.8 MiB (0%)
Title : English-PGS
Language : English
Default : Yes
Forced : No

Text #2
ID : 15
Format : PGS
Muxing mode : zlib
Codec ID : S_HDMV/PGS
Codec ID/Info : Picture based subtitle format used on BDs/HD-DVDs
Duration : 2 h 18 min
Bit rate : 27.7 kb/s
Count of elements : 2926
Stream size : 27.5 MiB (0%)
Title : Spanish-PGS
Language : Spanish
Default : No
Forced : No

Text #3
ID : 16
Format : PGS
Muxing mode : zlib
Codec ID : S_HDMV/PGS
Codec ID/Info : Picture based subtitle format used on BDs/HD-DVDs
Duration : 2 h 18 min
Bit rate : 24.5 kb/s
Count of elements : 2918
Stream size : 24.3 MiB (0%)
Title : French-PGS
Language : French
Default : No
Forced : No

Text #4
ID : 17
Format : PGS
Muxing mode : zlib
Codec ID : S_HDMV/PGS
Codec ID/Info : Picture based subtitle format used on BDs/HD-DVDs
Duration : 2 h 18 min
Bit rate : 25.7 kb/s
Count of elements : 2916
Stream size : 25.5 MiB (0%)
Title : Spanish-PGS
Language : Spanish
Default : No
Forced : No

Text #5
ID : 18
Format : PGS
Muxing mode : zlib
Codec ID : S_HDMV/PGS
Codec ID/Info : Picture based subtitle format used on BDs/HD-DVDs
Duration : 2 h 18 min
Bit rate : 25.0 kb/s
Count of elements : 2260
Stream size : 24.8 MiB (0%)
Title : Danish-PGS
Language : Danish
Default : No
Forced : No

Text #6
ID : 19
Format : PGS
Muxing mode : zlib
Codec ID : S_HDMV/PGS
Codec ID/Info : Picture based subtitle format used on BDs/HD-DVDs
Duration : 2 h 18 min
Bit rate : 23.8 kb/s
Count of elements : 2426
Stream size : 23.6 MiB (0%)
Title : Dutch-PGS
Language : Dutch
Default : No
Forced : No

Text #7
ID : 20
Format : PGS
Muxing mode : zlib
Codec ID : S_HDMV/PGS
Codec ID/Info : Picture based subtitle format used on BDs/HD-DVDs
Duration : 2 h 18 min
Bit rate : 25.4 kb/s
Count of elements : 2906
Stream size : 25.1 MiB (0%)
Title : Finnish-PGS
Language : Finnish
Default : No
Forced : No

Text #8
ID : 21
Format : PGS
Muxing mode : zlib
Codec ID : S_HDMV/PGS
Codec ID/Info : Picture based subtitle format used on BDs/HD-DVDs
Duration : 2 h 18 min
Bit rate : 31.2 kb/s
Count of elements : 2862
Stream size : 31.0 MiB (0%)
Title : German-PGS
Language : German
Default : No
Forced : No

Text #9
ID : 22
Format : PGS
Muxing mode : zlib
Codec ID : S_HDMV/PGS
Codec ID/Info : Picture based subtitle format used on BDs/HD-DVDs
Duration : 2 h 18 min
Bit rate : 27.6 kb/s
Count of elements : 2920
Stream size : 27.4 MiB (0%)
Title : Italian-PGS
Language : Italian
Default : No
Forced : No

Text #10
ID : 23
Format : PGS
Muxing mode : zlib
Codec ID : S_HDMV/PGS
Codec ID/Info : Picture based subtitle format used on BDs/HD-DVDs
Duration : 2 h 18 min
Bit rate : 26.1 kb/s
Count of elements : 2928
Stream size : 25.9 MiB (0%)
Title : Norwegian-PGS
Language : Norwegian
Default : No
Forced : No

Text #11
ID : 24
Format : PGS
Muxing mode : zlib
Codec ID : S_HDMV/PGS
Codec ID/Info : Picture based subtitle format used on BDs/HD-DVDs
Duration : 2 h 18 min
Bit rate : 26.7 kb/s
Count of elements : 2924
Stream size : 26.5 MiB (0%)
Title : Swedish-PGS
Language : Swedish
Default : No
Forced : No

Text #12
ID : 25
Format : PGS
Muxing mode : zlib
Codec ID : S_HDMV/PGS
Codec ID/Info : Picture based subtitle format used on BDs/HD-DVDs
Duration : 2 h 18 min
Bit rate : 21.8 kb/s
Count of elements : 2980
Stream size : 21.6 MiB (0%)
Title : Chinese-PGS
Language : Chinese
Default : No
Forced : No

Text #13
ID : 26
Format : PGS
Muxing mode : zlib
Codec ID : S_HDMV/PGS
Codec ID/Info : Picture based subtitle format used on BDs/HD-DVDs
Duration : 2 h 18 min
Bit rate : 24.8 kb/s
Count of elements : 2934
Stream size : 24.6 MiB (0%)
Title : Czech-PGS
Language : Czech
Default : No
Forced : No

Text #14
ID : 27
Format : PGS
Muxing mode : zlib
Codec ID : S_HDMV/PGS
Codec ID/Info : Picture based subtitle format used on BDs/HD-DVDs
Duration : 2 h 18 min
Bit rate : 21.1 kb/s
Count of elements : 2936
Stream size : 20.9 MiB (0%)
Title : Chinese-PGS
Language : Chinese
Default : No
Forced : No

Text #15
ID : 28
Format : PGS
Muxing mode : zlib
Codec ID : S_HDMV/PGS
Codec ID/Info : Picture based subtitle format used on BDs/HD-DVDs
Duration : 2 h 18 min
Bit rate : 23.8 kb/s
Count of elements : 2906
Stream size : 23.6 MiB (0%)
Title : Polish-PGS
Language : Polish
Default : No
Forced : No

Text #16
ID : 29
Format : PGS
Muxing mode : zlib
Codec ID : S_HDMV/PGS
Codec ID/Info : Picture based subtitle format used on BDs/HD-DVDs
Duration : 2 h 13 min
Bit rate : 76.3 kb/s
Count of elements : 4912
Stream size : 72.8 MiB (0%)
Title : English-COMMENTARY-PGS
Language : English
Default : No
Forced : No

Text #17
ID : 30
Format : PGS
Muxing mode : zlib
Codec ID : S_HDMV/PGS
Codec ID/Info : Picture based subtitle format used on BDs/HD-DVDs
Duration : 2 h 19 min
Bit rate : 64.8 kb/s
Count of elements : 4840
Stream size : 64.9 MiB (0%)
Title : Spanish-COMMENTARY-PGS
Language : Spanish
Default : No
Forced : No

Text #18
ID : 31
Format : PGS
Muxing mode : zlib
Codec ID : S_HDMV/PGS
Codec ID/Info : Picture based subtitle format used on BDs/HD-DVDs
Duration : 2 h 19 min
Bit rate : 59.9 kb/s
Count of elements : 4814
Stream size : 59.9 MiB (0%)
Title : French-COMMENTARY-PGS
Language : French
Default : No
Forced : No

Text #19
ID : 32
Format : PGS
Muxing mode : zlib
Codec ID : S_HDMV/PGS
Codec ID/Info : Picture based subtitle format used on BDs/HD-DVDs
Duration : 2 h 19 min
Bit rate : 63.5 kb/s
Count of elements : 4840
Stream size : 63.5 MiB (0%)
Title : Spanish-COMMENTARY-PGS
Language : Spanish
Default : No
Forced : No

Text #20
ID : 33
Format : PGS
Muxing mode : zlib
Codec ID : S_HDMV/PGS
Codec ID/Info : Picture based subtitle format used on BDs/HD-DVDs
Duration : 2 h 19 min
Bit rate : 63.0 kb/s
Count of elements : 4830
Stream size : 63.0 MiB (0%)
Title : Danish-COMMENTARY-PGS
Language : Danish
Default : No
Forced : No

Text #21
ID : 34
Format : PGS
Muxing mode : zlib
Codec ID : S_HDMV/PGS
Codec ID/Info : Picture based subtitle format used on BDs/HD-DVDs
Duration : 2 h 19 min
Bit rate : 62.4 kb/s
Count of elements : 4822
Stream size : 62.4 MiB (0%)
Title : Dutch-COMMENTARY-PGS
Language : Dutch
Default : No
Forced : No

Text #22
ID : 35
Format : PGS
Muxing mode : zlib
Codec ID : S_HDMV/PGS
Codec ID/Info : Picture based subtitle format used on BDs/HD-DVDs
Duration : 2 h 19 min
Bit rate : 62.5 kb/s
Count of elements : 4840
Stream size : 62.5 MiB (0%)
Title : Finnish-COMMENTARY-PGS
Language : Finnish
Default : No
Forced : No

Text #23
ID : 36
Format : PGS
Muxing mode : zlib
Codec ID : S_HDMV/PGS
Codec ID/Info : Picture based subtitle format used on BDs/HD-DVDs
Duration : 2 h 19 min
Bit rate : 67.8 kb/s
Count of elements : 4840
Stream size : 67.8 MiB (0%)
Title : German-COMMENTARY-PGS
Language : German
Default : No
Forced : No

Text #24
ID : 37
Format : PGS
Muxing mode : zlib
Codec ID : S_HDMV/PGS
Codec ID/Info : Picture based subtitle format used on BDs/HD-DVDs
Duration : 2 h 19 min
Bit rate : 69.2 kb/s
Count of elements : 4840
Stream size : 69.2 MiB (0%)
Title : Italian-COMMENTARY-PGS
Language : Italian
Default : No
Forced : No

Text #25
ID : 38
Format : PGS
Muxing mode : zlib
Codec ID : S_HDMV/PGS
Codec ID/Info : Picture based subtitle format used on BDs/HD-DVDs
Duration : 2 h 19 min
Bit rate : 62.0 kb/s
Count of elements : 4840
Stream size : 62.0 MiB (0%)
Title : Norwegian-commentary-PGS
Language : Norwegian
Default : No
Forced : No

Text #26
ID : 39
Format : PGS
Muxing mode : zlib
Codec ID : S_HDMV/PGS
Codec ID/Info : Picture based subtitle format used on BDs/HD-DVDs
Duration : 2 h 19 min
Bit rate : 62.1 kb/s
Count of elements : 4840
Stream size : 62.1 MiB (0%)
Title : Swedish-COMMENTARY-PGS
Language : Swedish
Default : No
Forced : No

Text #27
ID : 40
Format : PGS
Muxing mode : zlib
Codec ID : S_HDMV/PGS
Codec ID/Info : Picture based subtitle format used on BDs/HD-DVDs
Duration : 6 s 173 ms
Bit rate : 40.3 kb/s
Count of elements : 4
Stream size : 30.4 KiB (0%)
Title : English-FORCED-PGS
Language : English
Default : No
Forced : No

Menu
00:00:00.000 : en:Chapter 1
00:08:00.104 : en:Chapter 2
00:11:31.982 : en:Chapter 3
00:16:57.182 : en:Chapter 4
00:21:09.643 : en:Chapter 5
00:27:21.264 : en:Chapter 6
00:33:03.356 : en:Chapter 7
00:38:09.245 : en:Chapter 8
00:42:29.129 : en:Chapter 9
00:46:41.799 : en:Chapter 10
00:54:14.334 : en:Chapter 11
00:58:45.480 : en:Chapter 12
01:04:55.266 : en:Chapter 13
01:10:26.138 : en:Chapter 14
01:16:28.250 : en:Chapter 15
01:26:44.699 : en:Chapter 16
01:32:06.938 : en:Chapter 17
01:36:22.443 : en:Chapter 18
01:41:53.148 : en:Chapter 19
01:49:48.415 : en:Chapter 20
01:53:45.610 : en:Chapter 21
01:58:52.083 : en:Chapter 22
02:07:20.132 : en:Chapter 23
02:13:40.095 : en:Chapter 24
movie BDRip Video
ID : 1
Format : HEVC
Format/Info : High Efficiency Video Coding
Commercial name : HDR10
Format profile : Main 10@L5.1@High
Codec ID : V_MPEGH/ISO/HEVC
Duration : 2 h 20 min
Bit rate : 9 029 kb/s
Width : 3 840 pixels
Height : 1 600 pixels
Display aspect ratio : 2.40:1
Frame rate mode : Constant
Frame rate : 23.976 (24000/1001) FPS
Color space : YUV
Chroma subsampling : 4:2:0 (Type 2)
Bit depth : 10 bits
Bits/(Pixel*Frame) : 0.061
Stream size : 8.84 GiB (63%)
Writing library : x265 2.7+338-147b7dcee675:[Windows][GCC 6.3.0][64 bit] 10bit
Encoding settings : cpuid=1111039 / frame-threads=5 / numa-pools=36 / wpp / no-pmode / no-pme / no-psnr / no-ssim / log-level=2 / input-csp=1 / input-res=3840x1600 / interlace=0 / total-frames=201740 / level-idc=51 / high-tier=1 / uhd-bd=0 / ref=4 / no-allow-non-conformance / repeat-headers / annexb / aud / hrd / info / hash=0 / no-temporal-layers / no-open-gop / min-keyint=1 / keyint=24 / gop-lookahead=0 / bframes=4 / b-adapt=2 / b-pyramid / bframe-bias=0 / rc-lookahead=25 / lookahead-slices=4 / scenecut=40 / radl=0 / no-intra-refresh / ctu=64 / min-cu-size=8 / rect / no-amp / max-tu-size=32 / tu-inter-depth=1 / tu-intra-depth=1 / limit-tu=0 / rdoq-level=2 / dynamic-rd=0.00 / no-ssim-rd / signhide / no-tskip / nr-intra=0 / nr-inter=0 / no-constrained-intra / no-strong-intra-smoothing / max-merge=3 / limit-refs=3 / limit-modes / me=3 / subme=3 / merange=57 / temporal-mvp / weightp / no-weightb / no-analyze-src-pics / deblock=-3:-3 / no-sao / no-sao-non-deblock / rd=4 / no-early-skip / rskip / no-fast-intra / no-tskip-fast / no-cu-lossless / no-b-intra / no-splitrd-skip / rdpenalty=0 / psy-rd=2.00 / psy-rdoq=1.00 / no-rd-refine / no-lossless / cbqpoffs=0 / crqpoffs=0 / rc=crf / crf=17.0 / qcomp=0.60 / qpstep=4 / stats-write=0 / stats-read=0 / vbv-maxrate=160000 / vbv-bufsize=160000 / vbv-init=0.9 / crf-max=0.0 / crf-min=0.0 / ipratio=1.40 / pbratio=1.30 / aq-mode=1 / aq-strength=1.00 / cutree / zone-count=0 / no-strict-cbr / qg-size=32 / no-rc-grain / qpmax=69 / qpmin=0 / no-const-vbv / sar=1 / overscan=0 / videoformat=5 / range=0 / colorprim=9 / transfer=16 / colormatrix=9 / chromaloc=1 / chromaloc-top=2 / chromaloc-bottom=2 / display-window=0 / master-display=G(13250,34500)B(7500,3000)R(34000,16000)WP(15635,16450)L(10000000,50) / max-cll=0,0 / min-luma=0 / max-luma=1023 / log2-max-poc-lsb=8 / vui-timing-info / vui-hrd-info / slices=1 / no-opt-qp-pps / no-opt-ref-list-length-pps / no-multi-pass-opt-rps / scenecut-bias=0.05 / no-opt-cu-delta-qp / no-aq-motion / hdr / hdr-opt / no-dhdr10-opt / no-idr-recovery-sei / analysis-reuse-level=5 / scale-factor=0 / refine-intra=0 / refine-inter=0 / refine-mv=0 / no-limit-sao / ctu-info=0 / no-lowpass-dct / refine-mv-type=0 / copy-pic=1 / max-ausize-factor=1.0 / no-dynamic-refine / no-single-sei
Default : Yes
Forced : No
Color range : Limited
Color primaries : BT.2020
Transfer characteristics : PQ
Matrix coefficients : BT.2020 non-constant
Mastering display color primaries : Display P3
Mastering display luminance : min: 0.0050 cd/m2, max: 1000 cd/m2

Audio #1
ID : 2
Format : TrueHD
Format profile : TrueHD+Atmos / TrueHD
Codec ID : A_TRUEHD
Duration : 2 h 20 min
Bit rate mode : Variable
Bit rate : 4 094 kb/s
Maximum bit rate : 9 006 kb/s
Channel(s) : Object Based / 8 channels
Channel positions : Object Based / Front: L C R, Side: L R, Back: L R, LFE
Sampling rate : / 48.0 kHz
Frame rate : 1 200.000 FPS (40 SPF)
Compression mode : Lossless
Stream size : 4.01 GiB (28%)
Language : English
Default : Yes
Forced : No

Audio #2
ID : 3
Format : AC-3
Format/Info : Audio Coding 3
Codec ID : A_AC3
Duration : 2 h 20 min
Bit rate mode : Constant
Bit rate : 640 kb/s
Channel(s) : 6 channels
Channel positions : Front: L C R, Side: L R, LFE
Sampling rate : 48.0 kHz
Frame rate : 31.250 FPS (1536 SPF)
Bit depth : 16 bits
Compression mode : Lossy
Stream size : 642 MiB (4%)
Language : English
Service kind : Complete Main
Default : No
Forced : No

Audio #3
ID : 4
Format : AC-3
Format/Info : Audio Coding 3
Codec ID : A_AC3
Duration : 2 h 20 min
Bit rate mode : Constant
Bit rate : 224 kb/s
Channel(s) : 2 channels
Channel positions : Front: L R
Sampling rate : 48.0 kHz
Frame rate : 31.250 FPS (1536 SPF)
Bit depth : 16 bits
Compression mode : Lossy
Stream size : 225 MiB (2%)
Title : Commentary with director Francis Lawrence
Language : English
Service kind : Complete Main
Default : No
Forced : No

Text #1
ID : 5
Format : PGS
Muxing mode : zlib
Codec ID : S_HDMV/PGS
Codec ID/Info : Picture based subtitle format used on BDs/HD-DVDs
Duration : 6 s 173 ms
Bit rate : 40.3 kb/s
Count of elements : 4
Stream size : 30.4 KiB (0%)
Title : Forced
Language : English
Default : Yes
Forced : No

Text #2
ID : 6
Format : PGS
Muxing mode : zlib
Codec ID : S_HDMV/PGS
Codec ID/Info : Picture based subtitle format used on BDs/HD-DVDs
Duration : 2 h 12 min
Bit rate : 34.6 kb/s
Count of elements : 3554
Stream size : 32.8 MiB (0%)
Title : SDH
Language : English
Default : No
Forced : No

Text #3
ID : 7
Format : PGS
Muxing mode : zlib
Codec ID : S_HDMV/PGS
Codec ID/Info : Picture based subtitle format used on BDs/HD-DVDs
Duration : 2 h 18 min
Bit rate : 27.7 kb/s
Count of elements : 2926
Stream size : 27.5 MiB (0%)
Language : Spanish
Default : No
Forced : No

Text #4
ID : 8
Format : PGS
Muxing mode : zlib
Codec ID : S_HDMV/PGS
Codec ID/Info : Picture based subtitle format used on BDs/HD-DVDs
Duration : 2 h 18 min
Bit rate : 24.5 kb/s
Count of elements : 2918
Stream size : 24.3 MiB (0%)
Language : French
Default : No
Forced : No

Text #5
ID : 9
Format : PGS
Muxing mode : zlib
Codec ID : S_HDMV/PGS
Codec ID/Info : Picture based subtitle format used on BDs/HD-DVDs
Duration : 2 h 18 min
Bit rate : 25.7 kb/s
Count of elements : 2916
Stream size : 25.5 MiB (0%)
Language : Spanish
Default : No
Forced : No

Text #6
ID : 10
Format : PGS
Muxing mode : zlib
Codec ID : S_HDMV/PGS
Codec ID/Info : Picture based subtitle format used on BDs/HD-DVDs
Duration : 2 h 18 min
Bit rate : 25.0 kb/s
Count of elements : 2260
Stream size : 24.8 MiB (0%)
Language : Danish
Default : No
Forced : No

Text #7
ID : 11
Format : PGS
Muxing mode : zlib
Codec ID : S_HDMV/PGS
Codec ID/Info : Picture based subtitle format used on BDs/HD-DVDs
Duration : 2 h 18 min
Bit rate : 23.8 kb/s
Count of elements : 2426
Stream size : 23.6 MiB (0%)
Language : Dutch
Default : No
Forced : No

Text #8
ID : 12
Format : PGS
Muxing mode : zlib
Codec ID : S_HDMV/PGS
Codec ID/Info : Picture based subtitle format used on BDs/HD-DVDs
Duration : 2 h 18 min
Bit rate : 25.4 kb/s
Count of elements : 2906
Stream size : 25.1 MiB (0%)
Language : Finnish
Default : No
Forced : No

Text #9
ID : 13
Format : PGS
Muxing mode : zlib
Codec ID : S_HDMV/PGS
Codec ID/Info : Picture based subtitle format used on BDs/HD-DVDs
Duration : 2 h 18 min
Bit rate : 31.2 kb/s
Count of elements : 2862
Stream size : 31.0 MiB (0%)
Language : German
Default : No
Forced : No

Text #10
ID : 14
Format : PGS
Muxing mode : zlib
Codec ID : S_HDMV/PGS
Codec ID/Info : Picture based subtitle format used on BDs/HD-DVDs
Duration : 2 h 18 min
Bit rate : 27.6 kb/s
Count of elements : 2920
Stream size : 27.4 MiB (0%)
Language : Italian
Default : No
Forced : No

Text #11
ID : 15
Format : PGS
Muxing mode : zlib
Codec ID : S_HDMV/PGS
Codec ID/Info : Picture based subtitle format used on BDs/HD-DVDs
Duration : 2 h 18 min
Bit rate : 26.1 kb/s
Count of elements : 2928
Stream size : 25.9 MiB (0%)
Language : Norwegian
Default : No
Forced : No

Text #12
ID : 16
Format : PGS
Muxing mode : zlib
Codec ID : S_HDMV/PGS
Codec ID/Info : Picture based subtitle format used on BDs/HD-DVDs
Duration : 2 h 18 min
Bit rate : 26.7 kb/s
Count of elements : 2924
Stream size : 26.5 MiB (0%)
Language : Swedish
Default : No
Forced : No

Text #13
ID : 17
Format : PGS
Muxing mode : zlib
Codec ID : S_HDMV/PGS
Codec ID/Info : Picture based subtitle format used on BDs/HD-DVDs
Duration : 2 h 18 min
Bit rate : 21.8 kb/s
Count of elements : 2980
Stream size : 21.6 MiB (0%)
Language : Chinese
Default : No
Forced : No

Text #14
ID : 18
Format : PGS
Muxing mode : zlib
Codec ID : S_HDMV/PGS
Codec ID/Info : Picture based subtitle format used on BDs/HD-DVDs
Duration : 2 h 18 min
Bit rate : 24.8 kb/s
Count of elements : 2934
Stream size : 24.6 MiB (0%)
Language : Czech
Default : No
Forced : No

Text #15
ID : 19
Format : PGS
Muxing mode : zlib
Codec ID : S_HDMV/PGS
Codec ID/Info : Picture based subtitle format used on BDs/HD-DVDs
Duration : 2 h 18 min
Bit rate : 21.1 kb/s
Count of elements : 2936
Stream size : 20.9 MiB (0%)
Language : Chinese
Default : No
Forced : No

Text #16
ID : 20
Format : PGS
Muxing mode : zlib
Codec ID : S_HDMV/PGS
Codec ID/Info : Picture based subtitle format used on BDs/HD-DVDs
Duration : 2 h 18 min
Bit rate : 23.8 kb/s
Count of elements : 2906
Stream size : 23.6 MiB (0%)
Language : Polish
Default : No
Forced : No

Text #17
ID : 21
Format : PGS
Muxing mode : zlib
Codec ID : S_HDMV/PGS
Codec ID/Info : Picture based subtitle format used on BDs/HD-DVDs
Duration : 2 h 13 min
Bit rate : 76.3 kb/s
Count of elements : 4912
Stream size : 72.8 MiB (1%)
Title : Commentary
Language : English
Default : No
Forced : No

Text #18
ID : 22
Format : PGS
Muxing mode : zlib
Codec ID : S_HDMV/PGS
Codec ID/Info : Picture based subtitle format used on BDs/HD-DVDs
Duration : 2 h 19 min
Bit rate : 64.8 kb/s
Count of elements : 4840
Stream size : 64.9 MiB (0%)
Title : Commentary
Language : Spanish
Default : No
Forced : No

Text #19
ID : 23
Format : PGS
Muxing mode : zlib
Codec ID : S_HDMV/PGS
Codec ID/Info : Picture based subtitle format used on BDs/HD-DVDs
Duration : 2 h 19 min
Bit rate : 59.9 kb/s
Count of elements : 4814
Stream size : 59.9 MiB (0%)
Title : Commentary
Language : French
Default : No
Forced : No

Text #20
ID : 24
Format : PGS
Muxing mode : zlib
Codec ID : S_HDMV/PGS
Codec ID/Info : Picture based subtitle format used on BDs/HD-DVDs
Duration : 2 h 19 min
Bit rate : 63.5 kb/s
Count of elements : 4840
Stream size : 63.5 MiB (0%)
Title : Commentary
Language : Spanish
Default : No
Forced : No

Text #21
ID : 25
Format : PGS
Muxing mode : zlib
Codec ID : S_HDMV/PGS
Codec ID/Info : Picture based subtitle format used on BDs/HD-DVDs
Duration : 2 h 19 min
Bit rate : 63.0 kb/s
Count of elements : 4830
Stream size : 63.0 MiB (0%)
Title : Commentary
Language : Danish
Default : No
Forced : No

Text #22
ID : 26
Format : PGS
Muxing mode : zlib
Codec ID : S_HDMV/PGS
Codec ID/Info : Picture based subtitle format used on BDs/HD-DVDs
Duration : 2 h 19 min
Bit rate : 62.4 kb/s
Count of elements : 4822
Stream size : 62.4 MiB (0%)
Title : Commentary
Language : Dutch
Default : No
Forced : No

Text #23
ID : 27
Format : PGS
Muxing mode : zlib
Codec ID : S_HDMV/PGS
Codec ID/Info : Picture based subtitle format used on BDs/HD-DVDs
Duration : 2 h 19 min
Bit rate : 62.5 kb/s
Count of elements : 4840
Stream size : 62.5 MiB (0%)
Title : Commentary
Language : Finnish
Default : No
Forced : No

Text #24
ID : 28
Format : PGS
Muxing mode : zlib
Codec ID : S_HDMV/PGS
Codec ID/Info : Picture based subtitle format used on BDs/HD-DVDs
Duration : 2 h 19 min
Bit rate : 67.8 kb/s
Count of elements : 4840
Stream size : 67.8 MiB (0%)
Title : Commentary
Language : German
Default : No
Forced : No

Text #25
ID : 29
Format : PGS
Muxing mode : zlib
Codec ID : S_HDMV/PGS
Codec ID/Info : Picture based subtitle format used on BDs/HD-DVDs
Duration : 2 h 19 min
Bit rate : 69.2 kb/s
Count of elements : 4840
Stream size : 69.2 MiB (0%)
Title : Commentary
Language : Italian
Default : No
Forced : No

Text #26
ID : 30
Format : PGS
Muxing mode : zlib
Codec ID : S_HDMV/PGS
Codec ID/Info : Picture based subtitle format used on BDs/HD-DVDs
Duration : 2 h 19 min
Bit rate : 62.0 kb/s
Count of elements : 4840
Stream size : 62.0 MiB (0%)
Title : Commentary
Language : Norwegian
Default : No
Forced : No

Text #27
ID : 31
Format : PGS
Muxing mode : zlib
Codec ID : S_HDMV/PGS
Codec ID/Info : Picture based subtitle format used on BDs/HD-DVDs
Duration : 2 h 19 min
Bit rate : 62.1 kb/s
Count of elements : 4840
Stream size : 62.1 MiB (0%)
Title : Commentary
Language : Swedish
Default : No
Forced : No

Menu
00:00:00.000 : en:00:00:00.000
00:08:00.105 : en:00:08:00.105
00:11:31.983 : en:00:11:31.983
00:16:57.183 : en:00:16:57.183
00:21:09.643 : en:00:21:09.643
00:27:21.265 : en:00:27:21.265
00:33:03.356 : en:00:33:03.356
00:38:09.245 : en:00:38:09.245
00:42:29.130 : en:00:42:29.130
00:46:41.799 : en:00:46:41.799
00:54:14.334 : en:00:54:14.334
00:58:45.480 : en:00:58:45.480
01:04:55.266 : en:01:04:55.266
01:10:26.139 : en:01:10:26.139
01:16:28.250 : en:01:16:28.250
01:26:44.699 : en:01:26:44.699
01:32:06.938 : en:01:32:06.938
01:36:22.443 : en:01:36:22.443
01:41:53.149 : en:01:41:53.149
01:49:48.415 : en:01:49:48.415
01:53:45.610 : en:01:53:45.610
01:58:52.083 : en:01:58:52.083
02:07:20.132 : en:02:07:20.132
02:13:40.095 : en:02:13:40.095

Download

download 4k hdr movies download 4k hdr movies

Watch a movie trailer - Red Sparrow 4K 2018 Ultra HD 2160p
Comments and Feedback
  1. - 0 +
    Rakesh Bhaliya  пишет:
    12 October 2018 22:14
    B. I. U  $   = 
Add your comment:
Your name:
Your E-Mail:
Code:
reload, if the code cannot be seen
Enter code: