Select movie Search movie Close search My Account

The Bourne Ultimatum 4K 2007 Ultra HD 2160p

The Bourne Ultimatum 4K 2007 Ultra HD 2160p
BDRemux / BDRip
Country: USA | Germany | France | Spain
Time: 1h 55min
IMDB: 8.0
Director: Paul Greengrass
Actors: Matt Damon, Julia Stiles, David Strathairn, Scott Glenn, Paddy Considine, Edgar Ramrez, Albert Finney, Joan Allen, Tom Gallop, Corey Johnson, Daniel Brhl, Joey Ansah, Colin Stinton, Dan Fredenburgh, Lucy Liemann...

Story Movie

Jason Bourne dodges a ruthless CIA official and his agents from a new assassination program while searching for the origins of his life as a trained killer.

Bourne is once again brought out of hiding, this time inadvertently by London-based reporter Simon Ross who is trying to unveil Operation Blackbriar--an upgrade to Project Treadstone--in a series of newspaper columns. Bourne sets up a meeting with Ross and realizes instantly they're being scanned. Information from the reporter stirs a new set of memories, and Bourne must finally, ultimately, uncover his dark past whilst dodging The Company's best efforts in trying to eradicate him.

Review 4K Movie

Paul Greengrass definitely saved the best Bourne for last! I've heard a lot of people complain about they way he filmed this movie, and some have even compared the camera style to the Blair Witch Project. All I have to say to that is...are you kidding me? Come on it was not that bad at all. I think it helps the action scenes to feel more realistic, which I would prefer over highly stylized stunt choreography. As for the rest of the movie I really didn't even notice it.

You can tell that Damon has really gotten comfortable with the role of Jason Bourne. Sometimes that can be a bad thing, but in this case its a really good thing. He really becomes Jason Bourne in this installment. Damon also has a great supporting cast in Joan Allen, Ezra Kramer, and Julia Stiles. David Strathairn was a great addition to the cast, as he added more depth to the secret CIA organization.

Even though the movie is filled with great car chases and nonstop action, they managed to stick a fair amount of character development in their with all of that going on. This film stands far above the other two Bourne movies, and is definitely one of the best movies of the 2007 summer season!

Mediainfo

movie BDRemux Video
ID : 1
Format : HEVC
Format/Info : High Efficiency Video Coding
Format profile : Main 10@L5.1@High
Codec ID : V_MPEGH/ISO/HEVC
Duration : 1 h 55 min
Bit rate : 61.0 Mb/s
Width : 3 840 pixels
Height : 2 160 pixels
Display aspect ratio : 16:9
Frame rate mode : Constant
Frame rate : 23.976 (24000/1001) FPS
Color space : YUV
Chroma subsampling : 4:2:0 (Type 2)
Bit depth : 10 bits
Bits/(Pixel*Frame) : 0.307
Stream size : 49.1 GiB (88%)
Title : The.Bourne.Ultimatum.2007.2160p.BluRay.REMUX.HEVC.DTS-X.7.1-FGT
Writing library : ATEME Titan File 3.7.6 (4.7.6.101)
Default : Yes
Forced : No
Color range : Limited
Color primaries : BT.2020
Transfer characteristics : PQ
Matrix coefficients : BT.2020 non-constant
Mastering display color primaries : Display P3
Mastering display luminance : min: 0.0050 cd/m2, max: 1000 cd/m2
Maximum Content Light Level : 951 cd/m2
Maximum Frame-Average Light Level : 142 cd/m2

Audio #1
ID : 2
Format : DTS
Format/Info : Digital Theater Systems
Format profile : X / MA / Core
Codec ID : A_DTS
Duration : 1 h 55 min
Bit rate mode : Variable / Variable / Constant
Bit rate : 4 255 kb/s / 4 255 kb/s / 1 509 kb/s
Channel(s) : Object Based / 8 channels / 6 channels
Channel positions : Object Based / Front: L C R, Side: L R, Back: L R, LFE / Front: L C R, Side: L R, LFE
Sampling rate : / 48.0 kHz / 48.0 kHz
Frame rate : 93.750 FPS (512 SPF)
Bit depth : / 24 bits / 24 bits
Compression mode : / Lossless / Lossy
Stream size : 3.42 GiB (6%)
Title : The.Bourne.Ultimatum.2007.2160p.BluRay.REMUX.HEVC.DTS-X.7.1-FGT
Language : English
Default : Yes
Forced : No

Audio #2
ID : 3
Format : DTS
Format/Info : Digital Theater Systems
Codec ID : A_DTS
Duration : 1 h 55 min
Bit rate mode : Constant
Bit rate : 255 kb/s
Channel(s) : 2 channels
Channel positions : Front: L R
Sampling rate : 48.0 kHz
Frame rate : 93.750 FPS (512 SPF)
Bit depth : 24 bits
Compression mode : Lossy
Stream size : 210 MiB (0%)
Title : The.Bourne.Ultimatum.2007.2160p.BluRay.REMUX.HEVC.DTS-X.7.1-FGT
Language : English
Default : No
Forced : No

Audio #3
ID : 4
Format : DTS
Format/Info : Digital Theater Systems
Codec ID : A_DTS
Duration : 1 h 55 min
Bit rate mode : Constant
Bit rate : 768 kb/s
Channel(s) : 6 channels
Channel positions : Front: L C R, Side: L R, LFE
Sampling rate : 48.0 kHz
Frame rate : 93.750 FPS (512 SPF)
Bit depth : 24 bits
Compression mode : Lossy
Stream size : 633 MiB (1%)
Title : The.Bourne.Ultimatum.2007.2160p.BluRay.REMUX.HEVC.DTS-X.7.1-FGT
Language : French
Default : No
Forced : No

Audio #4
ID : 5
Format : DTS
Format/Info : Digital Theater Systems
Codec ID : A_DTS
Duration : 1 h 55 min
Bit rate mode : Constant
Bit rate : 768 kb/s
Channel(s) : 6 channels
Channel positions : Front: L C R, Side: L R, LFE
Sampling rate : 48.0 kHz
Frame rate : 93.750 FPS (512 SPF)
Bit depth : 24 bits
Compression mode : Lossy
Stream size : 633 MiB (1%)
Title : The.Bourne.Ultimatum.2007.2160p.BluRay.REMUX.HEVC.DTS-X.7.1-FGT
Language : Spanish
Default : No
Forced : No

Audio #5
ID : 6
Format : DTS
Format/Info : Digital Theater Systems
Codec ID : A_DTS
Duration : 1 h 55 min
Bit rate mode : Constant
Bit rate : 768 kb/s
Channel(s) : 6 channels
Channel positions : Front: L C R, Side: L R, LFE
Sampling rate : 48.0 kHz
Frame rate : 93.750 FPS (512 SPF)
Bit depth : 24 bits
Compression mode : Lossy
Stream size : 633 MiB (1%)
Title : The.Bourne.Ultimatum.2007.2160p.BluRay.REMUX.HEVC.DTS-X.7.1-FGT
Language : Portuguese
Default : No
Forced : No

Audio #6
ID : 7
Format : DTS
Format/Info : Digital Theater Systems
Codec ID : A_DTS
Duration : 1 h 55 min
Bit rate mode : Constant
Bit rate : 768 kb/s
Channel(s) : 6 channels
Channel positions : Front: L C R, Side: L R, LFE
Sampling rate : 48.0 kHz
Frame rate : 93.750 FPS (512 SPF)
Bit depth : 24 bits
Compression mode : Lossy
Stream size : 633 MiB (1%)
Title : The.Bourne.Ultimatum.2007.2160p.BluRay.REMUX.HEVC.DTS-X.7.1-FGT
Language : Czech
Default : No
Forced : No

Audio #7
ID : 8
Format : DTS
Format/Info : Digital Theater Systems
Codec ID : A_DTS
Duration : 1 h 55 min
Bit rate mode : Constant
Bit rate : 768 kb/s
Channel(s) : 6 channels
Channel positions : Front: L C R, Side: L R, LFE
Sampling rate : 48.0 kHz
Frame rate : 93.750 FPS (512 SPF)
Bit depth : 24 bits
Compression mode : Lossy
Stream size : 633 MiB (1%)
Title : The.Bourne.Ultimatum.2007.2160p.BluRay.REMUX.HEVC.DTS-X.7.1-FGT
Language : Polish
Default : No
Forced : No

Audio #8
ID : 9
Format : AC-3
Format/Info : Audio Coding 3
Codec ID : A_AC3
Duration : 1 h 55 min
Bit rate mode : Constant
Bit rate : 192 kb/s
Channel(s) : 2 channels
Channel positions : Front: L R
Sampling rate : 48.0 kHz
Frame rate : 31.250 FPS (1536 SPF)
Bit depth : 16 bits
Compression mode : Lossy
Stream size : 158 MiB (0%)
Title : The.Bourne.Ultimatum.2007.2160p.BluRay.REMUX.HEVC.DTS-X.7.1-FGT
Language : English
Service kind : Complete Main
Default : No
Forced : No

Text #1
ID : 10
Format : PGS
Muxing mode : zlib
Codec ID : S_HDMV/PGS
Codec ID/Info : Picture based subtitle format used on BDs/HD-DVDs
Duration : 1 h 45 min
Bit rate : 28.4 kb/s
Count of elements : 2034
Stream size : 21.4 MiB (0%)
Title : English-PGS
Language : English
Default : Yes
Forced : No

Text #2
ID : 11
Format : PGS
Muxing mode : zlib
Codec ID : S_HDMV/PGS
Codec ID/Info : Picture based subtitle format used on BDs/HD-DVDs
Duration : 1 h 54 min
Bit rate : 25.9 kb/s
Count of elements : 1796
Stream size : 21.3 MiB (0%)
Title : French-PGS
Language : French
Default : No
Forced : No

Text #3
ID : 12
Format : PGS
Muxing mode : zlib
Codec ID : S_HDMV/PGS
Codec ID/Info : Picture based subtitle format used on BDs/HD-DVDs
Duration : 1 h 54 min
Bit rate : 17.2 kb/s
Count of elements : 1792
Stream size : 14.1 MiB (0%)
Title : Dutch-PGS
Language : Dutch
Default : No
Forced : No

Text #4
ID : 13
Format : PGS
Muxing mode : zlib
Codec ID : S_HDMV/PGS
Codec ID/Info : Picture based subtitle format used on BDs/HD-DVDs
Duration : 1 h 54 min
Bit rate : 19.0 kb/s
Count of elements : 1746
Stream size : 15.6 MiB (0%)
Title : Danish-PGS
Language : Danish
Default : No
Forced : No

Text #5
ID : 14
Format : PGS
Muxing mode : zlib
Codec ID : S_HDMV/PGS
Codec ID/Info : Picture based subtitle format used on BDs/HD-DVDs
Duration : 1 h 54 min
Bit rate : 19.8 kb/s
Count of elements : 1914
Stream size : 16.2 MiB (0%)
Title : Finnish-PGS
Language : Finnish
Default : No
Forced : No

Text #6
ID : 15
Format : PGS
Muxing mode : zlib
Codec ID : S_HDMV/PGS
Codec ID/Info : Picture based subtitle format used on BDs/HD-DVDs
Duration : 1 h 54 min
Bit rate : 16.9 kb/s
Count of elements : 1780
Stream size : 13.9 MiB (0%)
Title : Norwegian-PGS
Language : Norwegian
Default : No
Forced : No

Text #7
ID : 16
Format : PGS
Muxing mode : zlib
Codec ID : S_HDMV/PGS
Codec ID/Info : Picture based subtitle format used on BDs/HD-DVDs
Duration : 1 h 54 min
Bit rate : 19.1 kb/s
Count of elements : 1776
Stream size : 15.7 MiB (0%)
Title : Swedish-PGS
Language : Swedish
Default : No
Forced : No

Text #8
ID : 17
Format : PGS
Muxing mode : zlib
Codec ID : S_HDMV/PGS
Codec ID/Info : Picture based subtitle format used on BDs/HD-DVDs
Duration : 1 h 45 min
Bit rate : 20.3 kb/s
Count of elements : 1784
Stream size : 15.3 MiB (0%)
Title : Spanish-PGS
Language : Spanish
Default : No
Forced : No

Text #9
ID : 18
Format : PGS
Muxing mode : zlib
Codec ID : S_HDMV/PGS
Codec ID/Info : Picture based subtitle format used on BDs/HD-DVDs
Duration : 1 h 54 min
Bit rate : 19.8 kb/s
Count of elements : 1794
Stream size : 16.2 MiB (0%)
Title : Portuguese-PGS
Language : Portuguese
Default : No
Forced : No

Text #10
ID : 19
Format : PGS
Muxing mode : zlib
Codec ID : S_HDMV/PGS
Codec ID/Info : Picture based subtitle format used on BDs/HD-DVDs
Duration : 1 h 54 min
Bit rate : 20.0 kb/s
Count of elements : 1894
Stream size : 16.4 MiB (0%)
Title : Czech-PGS
Language : Czech
Default : No
Forced : No

Text #11
ID : 20
Format : PGS
Muxing mode : zlib
Codec ID : S_HDMV/PGS
Codec ID/Info : Picture based subtitle format used on BDs/HD-DVDs
Duration : 1 h 54 min
Bit rate : 16.9 kb/s
Count of elements : 1806
Stream size : 13.9 MiB (0%)
Title : Polish-PGS
Language : Polish
Default : No
Forced : No

Text #12
ID : 21
Format : PGS
Muxing mode : zlib
Codec ID : S_HDMV/PGS
Codec ID/Info : Picture based subtitle format used on BDs/HD-DVDs
Duration : 1 h 54 min
Bit rate : 20.3 kb/s
Count of elements : 1808
Stream size : 16.7 MiB (0%)
Title : Greek-PGS
Language : Greek
Default : No
Forced : No

Text #13
ID : 22
Format : PGS
Muxing mode : zlib
Codec ID : S_HDMV/PGS
Codec ID/Info : Picture based subtitle format used on BDs/HD-DVDs
Duration : 1 h 46 min
Bit rate : 47.0 kb/s
Count of elements : 2620
Stream size : 35.7 MiB (0%)
Title : English-COMMENTARY-PGS
Language : English
Default : No
Forced : No

Text #14
ID : 23
Format : PGS
Muxing mode : zlib
Codec ID : S_HDMV/PGS
Codec ID/Info : Picture based subtitle format used on BDs/HD-DVDs
Duration : 1 h 46 min
Bit rate : 44.6 kb/s
Count of elements : 2638
Stream size : 33.9 MiB (0%)
Title : French-COMMENTARY-PGS
Language : French
Default : No
Forced : No

Text #15
ID : 24
Format : PGS
Muxing mode : zlib
Codec ID : S_HDMV/PGS
Codec ID/Info : Picture based subtitle format used on BDs/HD-DVDs
Duration : 1 h 15 min
Bit rate : 857 b/s
Count of elements : 56
Stream size : 471 KiB (0%)
Title : English-FORCED-PGS
Language : English
Default : No
Forced : No

Text #16
ID : 25
Format : PGS
Muxing mode : zlib
Codec ID : S_HDMV/PGS
Codec ID/Info : Picture based subtitle format used on BDs/HD-DVDs
Duration : 1 h 54 min
Bit rate : 966 b/s
Count of elements : 86
Stream size : 813 KiB (0%)
Title : French-FORCED-PGS
Language : French
Default : No
Forced : No

Text #17
ID : 26
Format : PGS
Muxing mode : zlib
Codec ID : S_HDMV/PGS
Codec ID/Info : Picture based subtitle format used on BDs/HD-DVDs
Duration : 1 h 44 min
Bit rate : 1 921 b/s
Count of elements : 170
Stream size : 1.44 MiB (0%)
Title : Spanish-FORCED-PGS
Language : Spanish
Default : No
Forced : No

Text #18
ID : 27
Format : PGS
Muxing mode : zlib
Codec ID : S_HDMV/PGS
Codec ID/Info : Picture based subtitle format used on BDs/HD-DVDs
Duration : 1 h 53 min
Bit rate : 1 178 b/s
Count of elements : 114
Stream size : 983 KiB (0%)
Title : Portuguese-FORCED-PGS
Language : Portuguese
Default : No
Forced : No

Text #19
ID : 28
Format : PGS
Muxing mode : zlib
Codec ID : S_HDMV/PGS
Codec ID/Info : Picture based subtitle format used on BDs/HD-DVDs
Duration : 1 h 54 min
Bit rate : 2 180 b/s
Count of elements : 204
Stream size : 1.79 MiB (0%)
Title : Czech-FORCED-PGS
Language : Czech
Default : No
Forced : No

Menu
00:00:00.000 : en:Chapter 1
00:04:02.242 : en:Chapter 2
00:09:46.127 : en:Chapter 3
00:13:57.211 : en:Chapter 4
00:21:01.843 : en:Chapter 5
00:27:52.045 : en:Chapter 6
00:31:46.863 : en:Chapter 7
00:38:44.447 : en:Chapter 8
00:43:51.754 : en:Chapter 9
00:50:02.916 : en:Chapter 10
00:58:12.780 : en:Chapter 11
01:05:35.765 : en:Chapter 12
01:10:35.898 : en:Chapter 13
01:15:49.586 : en:Chapter 14
01:20:36.957 : en:Chapter 15
01:25:08.269 : en:Chapter 16
01:31:34.780 : en:Chapter 17
01:35:58.294 : en:Chapter 18
01:42:11.834 : en:Chapter 19
01:46:07.361 : en:Chapter 20
movie BDRip Video
ID : 1
Format : HEVC
Format/Info : High Efficiency Video Coding
Format profile : Main 10@L5.1@High
Codec ID : V_MPEGH/ISO/HEVC
Duration : 1 h 55 min
Width : 3 840 pixels
Height : 1 600 pixels
Display aspect ratio : 2.40:1
Frame rate mode : Constant
Frame rate : 23.976 (24000/1001) FPS
Color space : YUV
Chroma subsampling : 4:2:0 (Type 2)
Bit depth : 10 bits
Writing library : x265 2.5+28-7aeabaa92b85:[Windows][GCC 6.2.1][64 bit] 10bit
Encoding settings : cpuid=1173503 / frame-threads=4 / numa-pools=16 / wpp / no-pmode / no-pme / no-psnr / no-ssim / log-level=2 / input-csp=1 / input-res=3840x1600 / interlace=0 / total-frames=165795 / level-idc=51 / high-tier=1 / uhd-bd=0 / ref=4 / no-allow-non-conformance / repeat-headers / annexb / aud / hrd / info / hash=0 / no-temporal-layers / no-open-gop / min-keyint=24 / keyint=240 / bframes=4 / b-adapt=2 / b-pyramid / bframe-bias=0 / rc-lookahead=25 / lookahead-slices=4 / scenecut=40 / no-intra-refresh / ctu=64 / min-cu-size=8 / rect / no-amp / max-tu-size=32 / tu-inter-depth=1 / tu-intra-depth=1 / limit-tu=0 / rdoq-level=2 / dynamic-rd=0.00 / no-ssim-rd / signhide / no-tskip / nr-intra=0 / nr-inter=0 / no-constrained-intra / no-strong-intra-smoothing / max-merge=3 / limit-refs=3 / limit-modes / me=3 / subme=3 / merange=57 / temporal-mvp / weightp / no-weightb / no-analyze-src-pics / deblock=-3:-3 / no-sao / no-sao-non-deblock / rd=4 / no-early-skip / rskip / no-fast-intra / no-tskip-fast / no-cu-lossless / no-b-intra / no-splitrd-skip / rdpenalty=0 / psy-rd=2.00 / psy-rdoq=1.00 / no-rd-refine / analysis-reuse-mode=0 / no-lossless / cbqpoffs=0 / crqpoffs=0 / rc=crf / crf=17.0 / qcomp=0.60 / qpstep=4 / stats-write=0 / stats-read=0 / vbv-maxrate=160000 / vbv-bufsize=160000 / vbv-init=0.9 / crf-max=0.0 / crf-min=0.0 / ipratio=1.40 / pbratio=1.30 / aq-mode=1 / aq-strength=1.00 / cutree / zone-count=0 / no-strict-cbr / qg-size=32 / no-rc-grain / qpmax=69 / qpmin=0 / no-const-vbv / sar=1 / overscan=0 / videoformat=5 / range=0 / colorprim=9 / transfer=16 / colormatrix=9 / chromaloc=1 / chromaloc-top=2 / chromaloc-bottom=2 / display-window=0 / master-display=G(13250,34500)B(7500,3000)R(34000,16000)WP(15635,16450)L(10000000,50) / max-cll=951,142 / min-luma=0 / max-luma=1023 / log2-max-poc-lsb=8 / vui-timing-info / vui-hrd-info / slices=1 / opt-qp-pps / opt-ref-list-length-pps / no-multi-pass-opt-rps / scenecut-bias=0.05 / no-opt-cu-delta-qp / no-aq-motion / hdr / hdr-opt / no-dhdr10-opt / analysis-reuse-level=5 / scale-factor=0 / refine-intra=0 / refine-inter=0 / refine-mv=0 / no-limit-sao / ctu-info=0
Language : English
Default : Yes
Forced : No
Color range : Limited
Color primaries : BT.2020
Transfer characteristics : PQ
Matrix coefficients : BT.2020 non-constant
Mastering display color primaries : Display P3
Mastering display luminance : min: 0.0050 cd/m2, max: 1000 cd/m2
Maximum Content Light Level : 951 cd/m2
Maximum Frame-Average Light Level : 142 cd/m2

Audio #1
ID : 2
Format : DTS
Format/Info : Digital Theater Systems
Format profile : X / MA / Core
Codec ID : A_DTS
Bit rate mode : Variable / Variable / Constant
Bit rate : Unknown / Unknown / 1 509 kb/s
Channel(s) : Object Based / 8 channels / 6 channels
Channel positions : Object Based / Front: L C R, Side: L R, Back: L R, LFE / Front: L C R, Side: L R, LFE
Sampling rate : / 48.0 kHz / 48.0 kHz
Frame rate : 93.750 FPS (512 SPF)
Bit depth : / 24 bits / 24 bits
Compression mode : / Lossless / Lossy
Language : English
Default : Yes
Forced : No

Audio #2
ID : 3
Format : AC-3
Format/Info : Audio Coding 3
Codec ID : A_AC3
Duration : 1 h 55 min
Bit rate mode : Constant
Bit rate : 192 kb/s
Channel(s) : 2 channels
Channel positions : Front: L R
Sampling rate : 48.0 kHz
Frame rate : 31.250 FPS (1536 SPF)
Bit depth : 16 bits
Compression mode : Lossy
Stream size : 158 MiB (1%)
Title : Commentary with Director Paul Greengrass
Language : English
Service kind : Complete Main
Default : No
Forced : No

Text #1
ID : 4
Format : UTF-8
Codec ID : S_TEXT/UTF8
Codec ID/Info : UTF-8 Plain Text
Title : English Forced (SRT)
Language : English
Default : No
Forced : Yes

Text #2
ID : 5
Format : UTF-8
Codec ID : S_TEXT/UTF8
Codec ID/Info : UTF-8 Plain Text
Title : English (SRT)
Language : English
Default : No
Forced : No

Text #3
ID : 6
Format : UTF-8
Codec ID : S_TEXT/UTF8
Codec ID/Info : UTF-8 Plain Text
Title : English SDH (SRT)
Language : English
Default : No
Forced : No

Text #4
ID : 7
Format : PGS
Codec ID : S_HDMV/PGS
Codec ID/Info : Picture based subtitle format used on BDs/HD-DVDs
Title : English Forced (SUP)
Language : English
Default : No
Forced : No

Text #5
ID : 8
Format : PGS
Codec ID : S_HDMV/PGS
Codec ID/Info : Picture based subtitle format used on BDs/HD-DVDs
Title : English SDH (SUP)
Language : English
Default : No
Forced : No

Text #6
ID : 9
Format : PGS
Codec ID : S_HDMV/PGS
Codec ID/Info : Picture based subtitle format used on BDs/HD-DVDs
Language : French
Default : No
Forced : No

Text #7
ID : 10
Format : PGS
Codec ID : S_HDMV/PGS
Codec ID/Info : Picture based subtitle format used on BDs/HD-DVDs
Language : Dutch
Default : No
Forced : No

Text #8
ID : 11
Format : PGS
Codec ID : S_HDMV/PGS
Codec ID/Info : Picture based subtitle format used on BDs/HD-DVDs
Language : Danish
Default : No
Forced : No

Text #9
ID : 12
Format : PGS
Codec ID : S_HDMV/PGS
Codec ID/Info : Picture based subtitle format used on BDs/HD-DVDs
Language : Finnish
Default : No
Forced : No

Text #10
ID : 13
Format : PGS
Codec ID : S_HDMV/PGS
Codec ID/Info : Picture based subtitle format used on BDs/HD-DVDs
Language : Norwegian
Default : No
Forced : No

Text #11
ID : 14
Format : PGS
Codec ID : S_HDMV/PGS
Codec ID/Info : Picture based subtitle format used on BDs/HD-DVDs
Language : Swedish
Default : No
Forced : No

Text #12
ID : 15
Format : PGS
Codec ID : S_HDMV/PGS
Codec ID/Info : Picture based subtitle format used on BDs/HD-DVDs
Language : Spanish
Default : No
Forced : No

Text #13
ID : 16
Format : PGS
Codec ID : S_HDMV/PGS
Codec ID/Info : Picture based subtitle format used on BDs/HD-DVDs
Language : Spanish
Default : No
Forced : No

Text #14
ID : 17
Format : PGS
Codec ID : S_HDMV/PGS
Codec ID/Info : Picture based subtitle format used on BDs/HD-DVDs
Language : Portuguese
Default : No
Forced : No

Text #15
ID : 18
Format : PGS
Codec ID : S_HDMV/PGS
Codec ID/Info : Picture based subtitle format used on BDs/HD-DVDs
Language : Czech
Default : No
Forced : No

Text #16
ID : 19
Format : PGS
Codec ID : S_HDMV/PGS
Codec ID/Info : Picture based subtitle format used on BDs/HD-DVDs
Language : Polish
Default : No
Forced : No

Text #17
ID : 20
Format : PGS
Codec ID : S_HDMV/PGS
Codec ID/Info : Picture based subtitle format used on BDs/HD-DVDs
Language : grc
Default : No
Forced : No

Text #18
ID : 21
Format : PGS
Codec ID : S_HDMV/PGS
Codec ID/Info : Picture based subtitle format used on BDs/HD-DVDs
Title : English Commentary
Language : English
Default : No
Forced : No

Text #19
ID : 22
Format : PGS
Codec ID : S_HDMV/PGS
Codec ID/Info : Picture based subtitle format used on BDs/HD-DVDs
Title : French Commentary
Language : English
Default : No
Forced : No

Menu
00:00:00.000 : en:00:00:00.000
00:04:02.242 : en:00:04:02.242
00:09:46.127 : en:00:09:46.127
00:13:57.211 : en:00:13:57.211
00:21:01.844 : en:00:21:01.844
00:27:52.045 : en:00:27:52.045
00:31:46.863 : en:00:31:46.863
00:38:44.447 : en:00:38:44.447
00:43:51.754 : en:00:43:51.754
00:50:02.917 : en:00:50:02.917
00:58:12.781 : en:00:58:12.781
01:05:35.765 : en:01:05:35.765
01:10:35.898 : en:01:10:35.898
01:15:49.587 : en:01:15:49.587
01:20:36.957 : en:01:20:36.957
01:25:08.270 : en:01:25:08.270
01:31:34.781 : en:01:31:34.781
01:35:58.294 : en:01:35:58.294
01:42:11.834 : en:01:42:11.834
01:46:07.361 : en:01:46:07.361

Download

download 4k hdr movies

You bought a premium on Takefile. Contact the TakeFile support team, they will increase your traffic up to 512 gb every 48 hours.

download 4k hdr movies

The Bourne Ultimatum 4K 2007 Ultra HD 2160p


Watch a movie trailer - The Bourne Ultimatum 4K 2007 Ultra HD 2160p
Comments and Feedback
Add your comment:
Your name:
Your E-Mail:
Enter the two words shown in the image: *