Select movie Search movie Close search My Account

Arizona 4K 2018 Ultra HD 2160p

Arizona 4K 2018 Ultra HD 2160p
BDRemux / BDRip
Country: USA
Time: 1h 25min
IMDB: 5.7
Director: Jonathan Watson
Actors: Danny McBride, Rosemarie DeWitt, Lolli Sorenson, Luke Wilson, Elizabeth Gillies, Kaitlin Olson, David Alan, Travis Hammer, Kevin Wiggins, Audrey Walters, Angelique Midthunder, Brett Cole, Vivian Nesbit, Joe Berryman, Larry Glaister.

Story Movie

Arizona 4K 2018 Ultra HD 2160p

This film in the Arizona 4K format (derived from the well-known film noir) starts promisingly, but at some point the action fades intensively. "Arizona" contains a promising scenario, characters, dialogs and small details that open up in turn, as well as extravagant details Arizona 4K (for example, gardeners paint dead grass in green to make the place more respectable or 4k download sample).

Review 4K Movie

“Arizona” is a great example of what happens if the director intends to do a comedy thriller. Exactly, without any distinction between bad humor and cruelty. Having chosen this particular direction, director Jonathan Watson created a film that is not dashing or ridiculous and doesn’t create much tension, although at times it seems that “Arizona” has the potential for the first or second development of its concept. The tonal disorder, from time to time, is simply embarrassing that you can refer to the inept use of the shock effect, and yet this project, steeped in the spirit of the Cohen brothers, can still be appreciated. In a sense, of course.

The film script tells about the events that occurred during the housing crisis in the US in 2009 and never leaves neither the time nor the scene of action. The state of Arizona has been particularly hard hit by mortgage frauds, so almost every high-end home is up for sale. Literally the first scene sets this world of shattered dreams. The main storyline revolves around Cassie the realtor, who was kidnapped by the deranged former client Sonny. Having lost everything, including his family and, apparently, the remnants of sanity, this man is trying to cover the traces of the accident he caused. His actions, in turn, lead to new crimes and victims.

Caste and characters are reason enough to see Arizona 4k. At least they are of interest. Rosemary DeWitt, Danny McBride and everyone else, let them not look like A class stars, they are still well known. It is McBride that is best suited “for the format” of the film: there is humor in Arizona 4k download sample, though mostly black, and it is his character who is responsible for its generation. There are also Cameo Seth Rogen and David Alan Greer.

To be honest, “Arizona” offers some exciting scenes, but by and large everything is too random here. In general, the film opens very much, and then should turn around the turn. Unfortunately, most of the paintings feel familiar, and the tension is not always able to stir up boredom. At some point, the tape generally turns into a sample killer pursuit of the victim. And although no one expects a heavy dramatic component from a comedy thriller, the reaction of the characters to the events taking place seems, well, a bit confused and false. In other words, “Arizona” UHD is as if the filmmakers took a cool idea and would not really understand how to integrate it into their own project. Because of this, 85 minutes of the timekeeping of the “Arizona” Ultra HD seems twice as long.

Mediainfo

movie BDRemux Video
ID : 1
Format : HEVC
Format/Info : High Efficiency Video Coding
Commercial name : HDR10
Format profile : Main 10@L5.1@High
Codec ID : V_MPEGH/ISO/HEVC
Duration : 1 h 23 min
Bit rate : 51.4 Mb/s
Width : 3 840 pixels
Height : 2 160 pixels
Display aspect ratio : 16:9
Frame rate mode : Constant
Frame rate : 23.976 (24000/1001) FPS
Color space : YUV
Chroma subsampling : 4:2:0 (Type 2)
Bit depth : 10 bits
Bits/(Pixel*Frame) : 0.258
Stream size : 30.0 GiB (93%)
Title : Arizona.2018.2160p.BluRay.REMUX.HEVC.DTS-HD.MA.5.1
Default : Yes
Forced : No
Color range : Limited
Color primaries : BT.2020
Transfer characteristics : PQ
Matrix coefficients : BT.2020 non-constant
Mastering display color primaries : R: x=0.680000 y=0.320000, G: x=0.265000 y=0.690000, B: x=0.150000 y=0.060000, White point: x=0.312680 y=0.329000
Mastering display luminance : min: 0.0000 cd/m2, max: 1000 cd/m2
Maximum Content Light Level : 1000 cd/m2
Maximum Frame-Average Light Level : 193 cd/m2

Audio
ID : 2
Format : DTS XLL
Format/Info : Digital Theater Systems
Commercial name : DTS-HD Master Audio
Codec ID : A_DTS
Duration : 1 h 23 min
Bit rate mode : Variable
Bit rate : 3 675 kb/s
Channel(s) : 6 channels
Channel layout : C L R Ls Rs LFE
Sampling rate : 48.0 kHz
Frame rate : 93.750 FPS (512 SPF)
Bit depth : 24 bits
Compression mode : Lossless
Stream size : 2.15 GiB (7%)
Title : Arizona.2018.2160p.BluRay.REMUX.HEVC.DTS-HD.MA.5.1
Language : English
Default : Yes
Forced : No

Text #1
ID : 3
Format : PGS
Muxing mode : zlib
Codec ID : S_HDMV/PGS
Codec ID/Info : Picture based subtitle format used on BDs/HD-DVDs
Duration : 1 h 20 min
Bit rate : 59.3 kb/s
Count of elements : 2902
Stream size : 34.1 MiB (0%)
Title : English-PGS
Language : English
Default : Yes
Forced : No

Text #2
ID : 4
Format : PGS
Muxing mode : zlib
Codec ID : S_HDMV/PGS
Codec ID/Info : Picture based subtitle format used on BDs/HD-DVDs
Duration : 1 h 17 min
Bit rate : 54.4 kb/s
Count of elements : 2627
Stream size : 30.1 MiB (0%)
Title : Spanish-PGS
Language : Spanish
Default : No
Forced : No

Text #3
ID : 5
Format : PGS
Muxing mode : zlib
Codec ID : S_HDMV/PGS
Codec ID/Info : Picture based subtitle format used on BDs/HD-DVDs
Duration : 1 h 17 min
Bit rate : 54.1 kb/s
Count of elements : 2561
Stream size : 29.9 MiB (0%)
Title : French-PGS
Language : French
Default : No
Forced : No

Menu
00:00:00.000 : :Chapter 1
00:07:19.564 : :Chapter 2
00:10:11.360 : :Chapter 3
00:27:37.405 : :Chapter 4
00:39:35.790 : :Chapter 5
00:51:15.405 : :Chapter 6
01:00:36.966 : :Chapter 7
01:09:39.008 : :Chapter 8
01:13:22.231 : :Chapter 9
01:18:50.183 : :Chapter 10
movie BDRip Video
ID : 1
Format : HEVC
Format/Info : High Efficiency Video Coding
Commercial name : HDR10
Format profile : Main 10@L5.1@High
Codec ID : V_MPEGH/ISO/HEVC
Duration : 1 h 23 min
Bit rate : 20.5 Mb/s
Width : 3 840 pixels
Height : 1 612 pixels
Display aspect ratio : 2.40:1
Frame rate mode : Constant
Frame rate : 23.976 (24000/1001) FPS
Color space : YUV
Chroma subsampling : 4:2:0 (Type 2)
Bit depth : 10 bits
Bits/(Pixel*Frame) : 0.138
Stream size : 12.0 GiB (85%)
Writing library : x265 2.8+66-88ee12651e30:[Windows][GCC 6.3.0][64 bit] 10bit
Encoding settings : cpuid=1111039 / frame-threads=4 / numa-pools=20 / wpp / no-pmode / no-pme / no-psnr / no-ssim / log-level=2 / input-csp=1 / input-res=3840x1612 / interlace=0 / total-frames=120305 / level-idc=51 / high-tier=1 / uhd-bd=0 / ref=4 / no-allow-non-conformance / repeat-headers / annexb / aud / hrd / info / hash=0 / no-temporal-layers / no-open-gop / min-keyint=1 / keyint=24 / gop-lookahead=0 / bframes=4 / b-adapt=2 / b-pyramid / bframe-bias=0 / rc-lookahead=25 / lookahead-slices=4 / scenecut=40 / radl=0 / no-intra-refresh / ctu=64 / min-cu-size=8 / rect / no-amp / max-tu-size=32 / tu-inter-depth=1 / tu-intra-depth=1 / limit-tu=0 / rdoq-level=2 / dynamic-rd=0.00 / no-ssim-rd / signhide / no-tskip / nr-intra=0 / nr-inter=0 / no-constrained-intra / no-strong-intra-smoothing / max-merge=3 / limit-refs=3 / limit-modes / me=3 / subme=3 / merange=57 / temporal-mvp / weightp / no-weightb / no-analyze-src-pics / deblock=-3:-3 / no-sao / no-sao-non-deblock / rd=4 / no-early-skip / rskip / no-fast-intra / no-tskip-fast / no-cu-lossless / no-b-intra / no-splitrd-skip / rdpenalty=0 / psy-rd=2.00 / psy-rdoq=1.00 / no-rd-refine / no-lossless / cbqpoffs=0 / crqpoffs=0 / rc=crf / crf=17.0 / qcomp=0.60 / qpstep=4 / stats-write=0 / stats-read=0 / vbv-maxrate=160000 / vbv-bufsize=160000 / vbv-init=0.9 / crf-max=0.0 / crf-min=0.0 / ipratio=1.40 / pbratio=1.30 / aq-mode=1 / aq-strength=1.00 / cutree / zone-count=0 / no-strict-cbr / qg-size=32 / no-rc-grain / qpmax=69 / qpmin=0 / no-const-vbv / sar=1 / overscan=0 / videoformat=5 / range=0 / colorprim=9 / transfer=16 / colormatrix=9 / chromaloc=1 / chromaloc-top=2 / chromaloc-bottom=2 / display-window=0 / master-display=G(13250,34500)B(7500,3000)R(34000,16000)WP(15634,16450)L(10000000,0) / max-cll=1000,193 / min-luma=0 / max-luma=1023 / log2-max-poc-lsb=8 / vui-timing-info / vui-hrd-info / slices=1 / no-opt-qp-pps / no-opt-ref-list-length-pps / no-multi-pass-opt-rps / scenecut-bias=0.05 / no-opt-cu-delta-qp / no-aq-motion / hdr / hdr-opt / no-dhdr10-opt / no-idr-recovery-sei / analysis-reuse-level=5 / scale-factor=0 / refine-intra=0 / refine-inter=0 / refine-mv=0 / no-limit-sao / ctu-info=0 / no-lowpass-dct / refine-mv-type=0 / copy-pic=1 / max-ausize-factor=1.0 / no-dynamic-refine / no-single-sei
Default : Yes
Forced : No
Color range : Limited
Color primaries : BT.2020
Transfer characteristics : PQ
Matrix coefficients : BT.2020 non-constant
Mastering display color primaries : R: x=0.680000 y=0.320000, G: x=0.265000 y=0.690000, B: x=0.150000 y=0.060000, White point: x=0.312680 y=0.329000
Mastering display luminance : min: 0.0000 cd/m2, max: 1000 cd/m2
Maximum Content Light Level : 1000 cd/m2
Maximum Frame-Average Light Level : 193 cd/m2

Audio
ID : 2
Format : DTS XLL
Format/Info : Digital Theater Systems
Commercial name : DTS-HD Master Audio
Codec ID : A_DTS
Duration : 1 h 23 min
Bit rate mode : Variable
Bit rate : 3 675 kb/s
Channel(s) : 6 channels
Channel layout : C L R Ls Rs LFE
Sampling rate : 48.0 kHz
Frame rate : 93.750 FPS (512 SPF)
Bit depth : 24 bits
Compression mode : Lossless
Stream size : 2.15 GiB (15%)
Language : English
Default : Yes
Forced : No

Text #1
ID : 3
Format : PGS
Muxing mode : zlib
Codec ID : S_HDMV/PGS
Codec ID/Info : Picture based subtitle format used on BDs/HD-DVDs
Duration : 1 h 20 min
Bit rate : 59.3 kb/s
Count of elements : 2902
Stream size : 34.1 MiB (0%)
Language : English
Default : No
Forced : No

Text #2
ID : 4
Format : PGS
Muxing mode : zlib
Codec ID : S_HDMV/PGS
Codec ID/Info : Picture based subtitle format used on BDs/HD-DVDs
Duration : 1 h 17 min
Bit rate : 54.4 kb/s
Count of elements : 2627
Stream size : 30.1 MiB (0%)
Language : Spanish
Default : No
Forced : No

Text #3
ID : 5
Format : PGS
Muxing mode : zlib
Codec ID : S_HDMV/PGS
Codec ID/Info : Picture based subtitle format used on BDs/HD-DVDs
Duration : 1 h 17 min
Bit rate : 54.1 kb/s
Count of elements : 2561
Stream size : 29.9 MiB (0%)
Language : French
Default : No
Forced : No

Menu
00:00:00.000 : :00:00:00.000
00:07:19.564 : :00:07:19.564
00:10:11.361 : :00:10:11.361
00:27:37.406 : :00:27:37.406
00:39:35.790 : :00:39:35.790
00:51:15.406 : :00:51:15.406
01:00:36.967 : :01:00:36.967
01:09:39.008 : :01:09:39.008
01:13:22.231 : :01:13:22.231
01:18:50.184 : :01:18:50.184

Download

download 4k hdr movies download 4k hdr movies

Watch a movie trailer - Arizona 4K 2018 Ultra HD 2160p
Comments and Feedback
Add your comment:
Your name:
Your E-Mail:
Code:
reload, if the code cannot be seen
Enter code: