Select movie Search movie Close search My Account

The Hunt for Red October 4K 1990 Ultra HD 2160p

The Hunt for Red October 4K 1990 Ultra HD 2160p
BDRemux / BDRip
Country: USA
Time: 2h 15min
IMDB: 7.6
Director: John McTiernan
Actors: Sean Connery, Alec Baldwin, Scott Glenn, Sam Neill, James Earl Jones, Joss Ackland, Richard Jordan, Peter Firth, Tim Curry, Courtney B. Vance, Stellan Skarsg?rd, Jeffrey Jones, Timothy Carhart , Larry Ferguson, Fred Dalton Thompson

Story Movie

The Hunt for Red October 4K 1990 Ultra HD 2160p
The film takes us to the cold war years. when the newest submarine, carrying on its board the entire arsenal of nuclear weapons. ready at any time to deal a crushing blow. But the commander of the background, Red October, is deciding on an unprecedented step. He makes an attempt to transfer the ship into the hands of the Americans. This is how the plot begins The Hunt for Red October, and you can uhd movie download site.

Review 4K Movie

Acquaintance with the picture "The Hunt for Red October" uhd movie download site left an unpleasant residue in my soul, and in my mind - a sense of absurdity and uselessness of this film product.

Criticism of this film can be conducted in three main areas:

1) from the artistic and technical side (the quality of the operator's work, graphics, visual kinorada, special effects, the scale of the shooting, the actors' play and the plot's strength);

2) on the part of authenticity, attention to detail (how reliably the filmmakers have data on the material culture and the historical realities portrayed by them on the screen, especially when it concerns the depiction of another country with another value system and other socio-political system) ;

3) from the ideological point of view (on what moral effect from this film was calculated by its customers).

The question of commercial expediency of the film does not interest us in this case, since his success at the box office speaks for itself.

Considering "Red October" from the first position, we must state the very high-quality, harmonious and even talented work of its creators. The spectator is captivated by the externally strong plot of the film, and a decent level of production, and a diverse, competently built video series, and relevant special effects, and a good level of play for charismatic actors. In this respect, the film is quite successful.

Criticism of his second side has already sounded in previous reviews, so I will not repeat it. But its presence already speaks about a certain lack of Hollywood professionalism.

The main complaint of my response concerns the third, moral, moral, ideological side of the film. And here, I must admit that American filmmakers, along with the author of the book that formed the basis of "The Hunt for Red October" UHD, just tried to give out what is desired for the reality. This refers to the motive of the act of the main character - commander of the nuclear submarine Mark Ramius. If you call things by their proper names, the hero of Sean Connerney is a traitor to the Motherland, not deserving indulgence. Moreover, from a logical point of view, his action does not fit into a rational scheme of behavior, and he has nothing to say in his defense.

Judging by the plot of the movie, Captain Ramius did not have any good reason, not even a single reason to go to this act of high treason. Indeed, none of his relatives and friends were repressed (otherwise he would not have made such a brilliant military career in the Soviet fleet as an unreliable person), he never complained about the "occupation" of his native Lithuania by "Russians", he never was for something persecuted. But what did he have? What did the Soviet government give him? A brilliant career in the Soviet military fleet, universal love and the reputation of one of the best and reputable naval officers, which enabled him to lead the most powerful and secret nuclear submarine missile carrier. And this all testifies to the great respect and trust that he enjoyed among his comrades in the service, as well as with the leadership of the Soviet Union. And how does Marcus Ramius explain his action? He decided to give the Americans, the enemies of his Soviet homeland, the most advanced underwater battleship only so that the Soviets would not be the first to strike a nuclear strike against the United States. In other words, he consciously wished that only Americans could have such an opportunity, and the Russians would be essentially defenseless to America and NATO. That is, he simply wanted death to the Soviet Union. Hated him for no reason.

This raises the following question: were there any such higher officers in the Soviet, Russian fleet at all? Could such a person for so many years have enjoyed universal love, respect and boundless confidence among his comrades in arms, with his superiors and with the country's top leadership? Even if he had never spoken out negatively about the Soviet Union, the Communist Party, the Russians, but he would have held his opposition to all this inside himself, then, nevertheless, this could not have gone unnoticed all the time. At least on a spiritual, emotional level. And this would certainly have affected his appointment as commander of the Red October, because the commander of the world's most formidable underwater missile cruiser was to be flawless from all sides, without a gram of falsehood. Then what remains? Could it be that only the ordinary death of his wife affected him so sharply? In the Soviet armed forces there were many people who suffered from repression suffered by relatives and friends and themselves, but, nevertheless, continuing not for fear, but for conscience to serve, to defend their Motherland. Because, despite personal losses, they continued to believe in her.

So what was it, Mark Rumius, there was a problem? The fact that he believed that the US is better than the USSR? But how such a highly educated and erudite officer, besides being a member of the family of a member of the Soviet government, which implies considerable awareness, could seriously believe that the US, even more recently, in those years when the Soviet Union sent the first man into space, as befor he remained an apartheid state, and then dropped hundreds of thousands of tons of bombs into Vietnam - better than Soviet Russia? Or was Ramius's problem that he was an ethnic Lithuanian? In the Soviet power there were many adequate Lithuanians, Estonians, Latvians, Byelorussians, Ukrainians, Moldovans, Kazakhs, Kyrgyz, Uzbeks, Tajiks, Azerbaijanis, Georgians and Armenians who sincerely and knowingly loved their Soviet homeland, wanted to live in it and did not feel oppressed or constrained. And it was from such people that the cadres for the command staff of our armed forces were selected. It was these people who protected our country along with soldiers and officers from the Russian people, making up its stronghold and pride. And to such "interesting personalities" as Mark Ramius, there was no exact place among the Navy's top command staff. From here I conclude that the hero of Sh. Connery, the commander of the Soviet nuclear submarine Mark Ramius, with his officer gang, is exclusively the product of FANTASY and the low opinion of the American authors about Soviet people (such as they want us to see), and with real Soviet sailors, submariners have nothing in common, which in real life never was and could not be. The American viewer, by virtue of his intellectual limitations, can nyat story on faith. But this is impossible with the Russian audience. And in this respect, the film "The Hunt for Red October" did not reach its goal and is simply useless work. If the technical side of the movie deserves high praise, then from the moral and ideological point of view it is absolutely empty. Without denying the visual and technical merits of the picture.

Mediainfo

movie BDRemux Video #1
ID : 1
Format : HEVC
Format/Info : High Efficiency Video Coding
Commercial name : HDR10
Format profile : Main 10@L5.1@High
Codec ID : V_MPEGH/ISO/HEVC
Duration : 2 h 15 min
Bit rate : 40.3 Mb/s
Width : 3 840 pixels
Height : 2 160 pixels
Display aspect ratio : 16:9
Frame rate mode : Constant
Frame rate : 23.976 (24000/1001) FPS
Color space : YUV
Chroma subsampling : 4:2:0 (Type 2)
Bit depth : 10 bits
Bits/(Pixel*Frame) : 0.202
Stream size : 38.0 GiB (81%)
Title : The.Hunt.for.Red.October.1990.2160p.BluRay.REMUX.HEVC.TrueHD.5.1
Default : Yes
Forced : No
Color range : Limited
Color primaries : BT.2020
Transfer characteristics : PQ
Matrix coefficients : BT.2020 non-constant
Mastering display color primaries : Display P3
Mastering display luminance : min: 0.0050 cd/m2, max: 1000 cd/m2
Maximum Content Light Level : 1000 cd/m2
Maximum Frame-Average Light Level : 389 cd/m2

Video #2
ID : 2
Format : HEVC
Format/Info : High Efficiency Video Coding
Commercial name : HDR10
Format profile : Main 10@L5.1@High
Codec ID : V_MPEGH/ISO/HEVC
Duration : 2 h 15 min
Bit rate : 790 kb/s
Width : 1 920 pixels
Height : 1 080 pixels
Display aspect ratio : 16:9
Frame rate mode : Constant
Frame rate : 23.976 (24000/1001) FPS
Color space : YUV
Chroma subsampling : 4:2:0 (Type 2)
Bit depth : 10 bits
Bits/(Pixel*Frame) : 0.016
Stream size : 764 MiB (2%)
Title : The.Hunt.for.Red.October.1990.2160p.BluRay.REMUX.HEVC.TrueHD.5.1
Default : No
Forced : No
Color range : Limited
Color primaries : BT.2020
Transfer characteristics : PQ
Matrix coefficients : BT.2020 non-constant
Mastering display color primaries : Display P3
Mastering display luminance : min: 0.0050 cd/m2, max: 1000 cd/m2

Audio #1
ID : 3
Format : TrueHD
Codec ID : A_TRUEHD
Duration : 2 h 15 min
Bit rate mode : Variable
Bit rate : 3 486 kb/s
Maximum bit rate : 4 845 kb/s
Channel(s) : 6 channels
Channel positions : Front: L C R, Side: L R, LFE
Sampling rate : 48.0 kHz
Frame rate : 1 200.000 FPS (40 SPF)
Compression mode : Lossless
Stream size : 3.29 GiB (7%)
Title : The.Hunt.for.Red.October.1990.2160p.BluRay.REMUX.HEVC.TrueHD.5.1
Language : English
Default : Yes
Forced : No

Audio #2
ID : 4
Format : AC-3
Format/Info : Audio Coding 3
Codec ID : A_AC3
Duration : 2 h 15 min
Bit rate mode : Constant
Bit rate : 640 kb/s
Channel(s) : 6 channels
Channel positions : Front: L C R, Side: L R, LFE
Sampling rate : 48.0 kHz
Frame rate : 31.250 FPS (1536 SPF)
Bit depth : 16 bits
Compression mode : Lossy
Stream size : 619 MiB (1%)
Title : The.Hunt.for.Red.October.1990.2160p.BluRay.REMUX.HEVC.TrueHD.5.1
Language : English
Service kind : Complete Main
Default : No
Forced : No

Audio #3
ID : 5
Format : AC-3
Format/Info : Audio Coding 3
Codec ID : A_AC3
Duration : 2 h 15 min
Bit rate mode : Constant
Bit rate : 640 kb/s
Channel(s) : 6 channels
Channel positions : Front: L C R, Side: L R, LFE
Sampling rate : 48.0 kHz
Frame rate : 31.250 FPS (1536 SPF)
Bit depth : 16 bits
Compression mode : Lossy
Stream size : 619 MiB (1%)
Title : The.Hunt.for.Red.October.1990.2160p.BluRay.REMUX.HEVC.TrueHD.5.1
Language : English
Service kind : Complete Main
Default : No
Forced : No

Audio #4
ID : 6
Format : AC-3
Format/Info : Audio Coding 3
Codec ID : A_AC3
Duration : 2 h 15 min
Bit rate mode : Constant
Bit rate : 640 kb/s
Channel(s) : 6 channels
Channel positions : Front: L C R, Side: L R, LFE
Sampling rate : 48.0 kHz
Frame rate : 31.250 FPS (1536 SPF)
Bit depth : 16 bits
Compression mode : Lossy
Stream size : 619 MiB (1%)
Title : The.Hunt.for.Red.October.1990.2160p.BluRay.REMUX.HEVC.TrueHD.5.1
Language : German
Service kind : Complete Main
Default : No
Forced : No

Audio #5
ID : 7
Format : AC-3
Format/Info : Audio Coding 3
Codec ID : A_AC3
Duration : 2 h 15 min
Bit rate mode : Constant
Bit rate : 640 kb/s
Channel(s) : 6 channels
Channel positions : Front: L C R, Side: L R, LFE
Sampling rate : 48.0 kHz
Frame rate : 31.250 FPS (1536 SPF)
Bit depth : 16 bits
Compression mode : Lossy
Stream size : 619 MiB (1%)
Title : The.Hunt.for.Red.October.1990.2160p.BluRay.REMUX.HEVC.TrueHD.5.1
Language : Spanish
Service kind : Complete Main
Default : No
Forced : No

Audio #6
ID : 8
Format : AC-3
Format/Info : Audio Coding 3
Codec ID : A_AC3
Duration : 2 h 15 min
Bit rate mode : Constant
Bit rate : 640 kb/s
Channel(s) : 6 channels
Channel positions : Front: L C R, Side: L R, LFE
Sampling rate : 48.0 kHz
Frame rate : 31.250 FPS (1536 SPF)
Bit depth : 16 bits
Compression mode : Lossy
Stream size : 619 MiB (1%)
Title : The.Hunt.for.Red.October.1990.2160p.BluRay.REMUX.HEVC.TrueHD.5.1
Language : Spanish
Service kind : Complete Main
Default : No
Forced : No

Audio #7
ID : 9
Format : AC-3
Format/Info : Audio Coding 3
Codec ID : A_AC3
Duration : 2 h 15 min
Bit rate mode : Constant
Bit rate : 640 kb/s
Channel(s) : 6 channels
Channel positions : Front: L C R, Side: L R, LFE
Sampling rate : 48.0 kHz
Frame rate : 31.250 FPS (1536 SPF)
Bit depth : 16 bits
Compression mode : Lossy
Stream size : 619 MiB (1%)
Title : The.Hunt.for.Red.October.1990.2160p.BluRay.REMUX.HEVC.TrueHD.5.1
Language : French
Service kind : Complete Main
Default : No
Forced : No

Audio #8
ID : 10
Format : AC-3
Format/Info : Audio Coding 3
Codec ID : A_AC3
Duration : 2 h 15 min
Bit rate mode : Constant
Bit rate : 640 kb/s
Channel(s) : 6 channels
Channel positions : Front: L C R, Side: L R, LFE
Sampling rate : 48.0 kHz
Frame rate : 31.250 FPS (1536 SPF)
Bit depth : 16 bits
Compression mode : Lossy
Stream size : 619 MiB (1%)
Title : The.Hunt.for.Red.October.1990.2160p.BluRay.REMUX.HEVC.TrueHD.5.1
Language : Italian
Service kind : Complete Main
Default : No
Forced : No

Audio #9
ID : 11
Format : AC-3
Format/Info : Audio Coding 3
Codec ID : A_AC3
Duration : 2 h 15 min
Bit rate mode : Constant
Bit rate : 224 kb/s
Channel(s) : 2 channels
Channel positions : Front: L R
Sampling rate : 48.0 kHz
Frame rate : 31.250 FPS (1536 SPF)
Bit depth : 16 bits
Compression mode : Lossy
Stream size : 216 MiB (0%)
Title : The.Hunt.for.Red.October.1990.2160p.BluRay.REMUX.HEVC.TrueHD.5.1
Language : Japanese
Service kind : Complete Main
Default : No
Forced : No

Audio #10
ID : 12
Format : AC-3
Format/Info : Audio Coding 3
Codec ID : A_AC3
Duration : 2 h 15 min
Bit rate mode : Constant
Bit rate : 224 kb/s
Channel(s) : 2 channels
Channel positions : Front: L R
Sampling rate : 48.0 kHz
Frame rate : 31.250 FPS (1536 SPF)
Bit depth : 16 bits
Compression mode : Lossy
Stream size : 216 MiB (0%)
Title : The.Hunt.for.Red.October.1990.2160p.BluRay.REMUX.HEVC.TrueHD.5.1
Language : Portuguese
Service kind : Complete Main
Default : No
Forced : No

Audio #11
ID : 13
Format : AC-3
Format/Info : Audio Coding 3
Codec ID : A_AC3
Duration : 2 h 15 min
Bit rate mode : Constant
Bit rate : 192 kb/s
Channel(s) : 2 channels
Channel positions : Front: L R
Sampling rate : 48.0 kHz
Frame rate : 31.250 FPS (1536 SPF)
Bit depth : 16 bits
Compression mode : Lossy
Stream size : 186 MiB (0%)
Title : The.Hunt.for.Red.October.1990.2160p.BluRay.REMUX.HEVC.TrueHD.5.1
Language : English
Service kind : Complete Main
Default : No
Forced : No

Text #1
ID : 14
Format : PGS
Muxing mode : zlib
Codec ID : S_HDMV/PGS
Codec ID/Info : Picture based subtitle format used on BDs/HD-DVDs
Duration : 2 h 9 min
Bit rate : 37.8 kb/s
Count of elements : 3060
Stream size : 35.2 MiB (0%)
Title : English-PGS
Language : English
Default : Yes
Forced : No

Text #2
ID : 15
Format : PGS
Muxing mode : zlib
Codec ID : S_HDMV/PGS
Codec ID/Info : Picture based subtitle format used on BDs/HD-DVDs
Duration : 2 h 9 min
Bit rate : 40.0 kb/s
Count of elements : 3240
Stream size : 37.2 MiB (0%)
Title : English-SDH-PGS
Language : English
Default : No
Forced : No

Text #3
ID : 16
Format : PGS
Muxing mode : zlib
Codec ID : S_HDMV/PGS
Codec ID/Info : Picture based subtitle format used on BDs/HD-DVDs
Duration : 2 h 14 min
Bit rate : 23.3 kb/s
Count of elements : 3110
Stream size : 22.4 MiB (0%)
Title : Arabic-PGS
Language : Arabic
Default : No
Forced : No

Text #4
ID : 17
Format : PGS
Muxing mode : zlib
Codec ID : S_HDMV/PGS
Codec ID/Info : Picture based subtitle format used on BDs/HD-DVDs
Duration : 2 h 14 min
Bit rate : 34.0 kb/s
Count of elements : 3114
Stream size : 32.7 MiB (0%)
Title : Chinese-PGS
Language : Chinese
Default : No
Forced : No

Text #5
ID : 18
Format : PGS
Muxing mode : zlib
Codec ID : S_HDMV/PGS
Codec ID/Info : Picture based subtitle format used on BDs/HD-DVDs
Duration : 2 h 14 min
Bit rate : 38.8 kb/s
Count of elements : 3190
Stream size : 37.4 MiB (0%)
Title : Czech-PGS
Language : Czech
Default : No
Forced : No

Text #6
ID : 19
Format : PGS
Muxing mode : zlib
Codec ID : S_HDMV/PGS
Codec ID/Info : Picture based subtitle format used on BDs/HD-DVDs
Duration : 2 h 14 min
Bit rate : 27.3 kb/s
Count of elements : 2210
Stream size : 26.3 MiB (0%)
Title : Danish-PGS
Language : Danish
Default : No
Forced : No

Text #7
ID : 20
Format : PGS
Muxing mode : zlib
Codec ID : S_HDMV/PGS
Codec ID/Info : Picture based subtitle format used on BDs/HD-DVDs
Duration : 2 h 14 min
Bit rate : 28.4 kb/s
Count of elements : 2192
Stream size : 27.4 MiB (0%)
Title : German-PGS
Language : German
Default : No
Forced : No

Text #8
ID : 21
Format : PGS
Muxing mode : zlib
Codec ID : S_HDMV/PGS
Codec ID/Info : Picture based subtitle format used on BDs/HD-DVDs
Duration : 2 h 14 min
Bit rate : 28.8 kb/s
Count of elements : 2208
Stream size : 27.8 MiB (0%)
Title : Spanish-PGS
Language : Spanish
Default : No
Forced : No

Text #9
ID : 22
Format : PGS
Muxing mode : zlib
Codec ID : S_HDMV/PGS
Codec ID/Info : Picture based subtitle format used on BDs/HD-DVDs
Duration : 2 h 14 min
Bit rate : 30.0 kb/s
Count of elements : 2936
Stream size : 28.9 MiB (0%)
Title : Spanish-PGS
Language : Spanish
Default : No
Forced : No

Text #10
ID : 23
Format : PGS
Muxing mode : zlib
Codec ID : S_HDMV/PGS
Codec ID/Info : Picture based subtitle format used on BDs/HD-DVDs
Duration : 2 h 14 min
Bit rate : 31.9 kb/s
Count of elements : 2911
Stream size : 30.8 MiB (0%)
Title : French-PGS
Language : French
Default : No
Forced : No

Text #11
ID : 24
Format : PGS
Muxing mode : zlib
Codec ID : S_HDMV/PGS
Codec ID/Info : Picture based subtitle format used on BDs/HD-DVDs
Duration : 2 h 14 min
Bit rate : 42.0 kb/s
Count of elements : 3192
Stream size : 40.4 MiB (0%)
Title : Icelandic-PGS
Language : Icelandic
Default : No
Forced : No

Text #12
ID : 25
Format : PGS
Muxing mode : zlib
Codec ID : S_HDMV/PGS
Codec ID/Info : Picture based subtitle format used on BDs/HD-DVDs
Duration : 2 h 14 min
Bit rate : 29.5 kb/s
Count of elements : 2304
Stream size : 28.5 MiB (0%)
Title : Italian-PGS
Language : Italian
Default : No
Forced : No

Text #13
ID : 26
Format : PGS
Muxing mode : zlib
Codec ID : S_HDMV/PGS
Codec ID/Info : Picture based subtitle format used on BDs/HD-DVDs
Duration : 2 h 10 min
Bit rate : 23.9 kb/s
Count of elements : 2938
Stream size : 22.4 MiB (0%)
Title : Japanese-PGS
Language : Japanese
Default : No
Forced : No

Text #14
ID : 27
Format : PGS
Muxing mode : zlib
Codec ID : S_HDMV/PGS
Codec ID/Info : Picture based subtitle format used on BDs/HD-DVDs
Duration : 2 h 14 min
Bit rate : 29.2 kb/s
Count of elements : 3176
Stream size : 28.2 MiB (0%)
Title : Korean-PGS
Language : Korean
Default : No
Forced : No

Text #15
ID : 28
Format : PGS
Muxing mode : zlib
Codec ID : S_HDMV/PGS
Codec ID/Info : Picture based subtitle format used on BDs/HD-DVDs
Duration : 2 h 14 min
Bit rate : 30.0 kb/s
Count of elements : 3070
Stream size : 28.9 MiB (0%)
Title : Chinese-PGS
Language : Chinese
Default : No
Forced : No

Text #16
ID : 29
Format : PGS
Muxing mode : zlib
Codec ID : S_HDMV/PGS
Codec ID/Info : Picture based subtitle format used on BDs/HD-DVDs
Duration : 2 h 14 min
Bit rate : 23.6 kb/s
Count of elements : 2144
Stream size : 22.7 MiB (0%)
Title : Dutch-PGS
Language : Dutch
Default : No
Forced : No

Text #17
ID : 30
Format : PGS
Muxing mode : zlib
Codec ID : S_HDMV/PGS
Codec ID/Info : Picture based subtitle format used on BDs/HD-DVDs
Duration : 2 h 14 min
Bit rate : 22.0 kb/s
Count of elements : 2162
Stream size : 21.2 MiB (0%)
Title : Norwegian-PGS
Language : Norwegian
Default : No
Forced : No

Text #18
ID : 31
Format : PGS
Muxing mode : zlib
Codec ID : S_HDMV/PGS
Codec ID/Info : Picture based subtitle format used on BDs/HD-DVDs
Duration : 2 h 14 min
Bit rate : 32.9 kb/s
Count of elements : 3016
Stream size : 31.7 MiB (0%)
Title : Portuguese-PGS
Language : Portuguese
Default : No
Forced : No

Text #19
ID : 32
Format : PGS
Muxing mode : zlib
Codec ID : S_HDMV/PGS
Codec ID/Info : Picture based subtitle format used on BDs/HD-DVDs
Duration : 2 h 14 min
Bit rate : 40.0 kb/s
Count of elements : 3148
Stream size : 38.5 MiB (0%)
Title : Portuguese-PGS
Language : Portuguese
Default : No
Forced : No

Text #20
ID : 33
Format : PGS
Muxing mode : zlib
Codec ID : S_HDMV/PGS
Codec ID/Info : Picture based subtitle format used on BDs/HD-DVDs
Duration : 2 h 14 min
Bit rate : 38.6 kb/s
Count of elements : 3190
Stream size : 37.2 MiB (0%)
Title : Slovak-PGS
Language : Slovak
Default : No
Forced : No

Text #21
ID : 34
Format : PGS
Muxing mode : zlib
Codec ID : S_HDMV/PGS
Codec ID/Info : Picture based subtitle format used on BDs/HD-DVDs
Duration : 2 h 14 min
Bit rate : 28.6 kb/s
Count of elements : 2196
Stream size : 27.6 MiB (0%)
Title : Finnish-PGS
Language : Finnish
Default : No
Forced : No

Text #22
ID : 35
Format : PGS
Muxing mode : zlib
Codec ID : S_HDMV/PGS
Codec ID/Info : Picture based subtitle format used on BDs/HD-DVDs
Duration : 2 h 14 min
Bit rate : 24.3 kb/s
Count of elements : 2146
Stream size : 23.4 MiB (0%)
Title : Swedish-PGS
Language : Swedish
Default : No
Forced : No

Text #23
ID : 36
Format : PGS
Muxing mode : zlib
Codec ID : S_HDMV/PGS
Codec ID/Info : Picture based subtitle format used on BDs/HD-DVDs
Duration : 2 h 14 min
Bit rate : 29.5 kb/s
Count of elements : 3032
Stream size : 28.4 MiB (0%)
Title : Thai-PGS
Language : Thai
Default : No
Forced : No

Text #24
ID : 37
Format : PGS
Muxing mode : zlib
Codec ID : S_HDMV/PGS
Codec ID/Info : Picture based subtitle format used on BDs/HD-DVDs
Duration : 2 h 11 min
Bit rate : 23.0 kb/s
Count of elements : 1527
Stream size : 21.7 MiB (0%)
Title : English-COMMENTARY-PGS
Language : English
Default : No
Forced : No

Text #25
ID : 38
Format : PGS
Muxing mode : zlib
Codec ID : S_HDMV/PGS
Codec ID/Info : Picture based subtitle format used on BDs/HD-DVDs
Duration : 2 h 14 min
Bit rate : 21.9 kb/s
Count of elements : 1524
Stream size : 21.2 MiB (0%)
Title : German-COMMENTARY-PGS
Language : German
Default : No
Forced : No

Text #26
ID : 39
Format : PGS
Muxing mode : zlib
Codec ID : S_HDMV/PGS
Codec ID/Info : Picture based subtitle format used on BDs/HD-DVDs
Duration : 2 h 14 min
Bit rate : 20.1 kb/s
Count of elements : 1522
Stream size : 19.4 MiB (0%)
Title : Spanish-COMMENTARY-PGS
Language : Spanish
Default : No
Forced : No

Text #27
ID : 40
Format : PGS
Muxing mode : zlib
Codec ID : S_HDMV/PGS
Codec ID/Info : Picture based subtitle format used on BDs/HD-DVDs
Duration : 2 h 14 min
Bit rate : 22.6 kb/s
Count of elements : 1655
Stream size : 21.8 MiB (0%)
Title : Spanish-COMMENTARY-PGS
Language : Spanish
Default : No
Forced : No

Text #28
ID : 41
Format : PGS
Muxing mode : zlib
Codec ID : S_HDMV/PGS
Codec ID/Info : Picture based subtitle format used on BDs/HD-DVDs
Duration : 2 h 14 min
Bit rate : 21.3 kb/s
Count of elements : 1543
Stream size : 20.5 MiB (0%)
Title : French-COMMENTARY-PGS
Language : French
Default : No
Forced : No

Text #29
ID : 42
Format : PGS
Muxing mode : zlib
Codec ID : S_HDMV/PGS
Codec ID/Info : Picture based subtitle format used on BDs/HD-DVDs
Duration : 2 h 14 min
Bit rate : 20.6 kb/s
Count of elements : 1524
Stream size : 19.9 MiB (0%)
Title : Italian-COMMENTARY-PGS
Language : Italian
Default : No
Forced : No

Text #30
ID : 43
Format : PGS
Muxing mode : zlib
Codec ID : S_HDMV/PGS
Codec ID/Info : Picture based subtitle format used on BDs/HD-DVDs
Duration : 2 h 11 min
Bit rate : 20.5 kb/s
Count of elements : 1922
Stream size : 19.3 MiB (0%)
Title : Japanese-COMMENTARY-PGS
Language : Japanese
Default : No
Forced : No

Text #31
ID : 44
Format : PGS
Muxing mode : zlib
Codec ID : S_HDMV/PGS
Codec ID/Info : Picture based subtitle format used on BDs/HD-DVDs
Duration : 2 h 11 min
Bit rate : 17.4 kb/s
Count of elements : 1817
Stream size : 16.4 MiB (0%)
Title : Korean-COMMENTARY-PGS
Language : Korean
Default : No
Forced : No

Text #32
ID : 45
Format : PGS
Muxing mode : zlib
Codec ID : S_HDMV/PGS
Codec ID/Info : Picture based subtitle format used on BDs/HD-DVDs
Duration : 2 h 14 min
Bit rate : 20.6 kb/s
Count of elements : 1655
Stream size : 19.9 MiB (0%)
Title : Portuguese-COMMENTARY-PGS
Language : Portuguese
Default : No
Forced : No

Menu
00:00:00.000 : en:Chapter 1
00:13:11.957 : en:Chapter 2
00:19:34.756 : en:Chapter 3
00:33:25.503 : en:Chapter 4
00:43:05.416 : en:Chapter 5
00:51:46.061 : en:Chapter 6
01:05:24.545 : en:Chapter 7
01:11:13.978 : en:Chapter 8
01:25:02.806 : en:Chapter 9
01:36:50.930 : en:Chapter 10
01:47:50.755 : en:Chapter 11
01:55:17.744 : en:Chapter 12
02:07:58.712 : en:Chapter 13
movie BDRip Video
ID : 1
Format : HEVC
Format/Info : High Efficiency Video Coding
Commercial name : HDR10
Format profile : Main 10@L5.1@High
Codec ID : V_MPEGH/ISO/HEVC
Duration : 2 h 15 min
Width : 3 840 pixels
Height : 1 636 pixels
Display aspect ratio : 2.35:1
Frame rate mode : Constant
Frame rate : 23.976 (24000/1001) FPS
Color space : YUV
Chroma subsampling : 4:2:0 (Type 2)
Bit depth : 10 bits
Writing library : x265 2.7+338-147b7dcee675:[Windows][GCC 6.3.0][64 bit] 10bit
Encoding settings : cpuid=1049583 / frame-threads=4 / numa-pools=16 / wpp / no-pmode / no-pme / no-psnr / no-ssim / log-level=2 / input-csp=1 / input-res=3840x1636 / interlace=0 / total-frames=194373 / level-idc=51 / high-tier=1 / uhd-bd=0 / ref=4 / no-allow-non-conformance / repeat-headers / annexb / aud / hrd / info / hash=0 / no-temporal-layers / no-open-gop / min-keyint=24 / keyint=240 / gop-lookahead=0 / bframes=4 / b-adapt=2 / b-pyramid / bframe-bias=0 / rc-lookahead=25 / lookahead-slices=4 / scenecut=40 / radl=0 / no-intra-refresh / ctu=64 / min-cu-size=8 / rect / no-amp / max-tu-size=32 / tu-inter-depth=1 / tu-intra-depth=1 / limit-tu=0 / rdoq-level=2 / dynamic-rd=0.00 / no-ssim-rd / signhide / no-tskip / nr-intra=0 / nr-inter=0 / no-constrained-intra / no-strong-intra-smoothing / max-merge=3 / limit-refs=3 / limit-modes / me=3 / subme=3 / merange=57 / temporal-mvp / weightp / no-weightb / no-analyze-src-pics / deblock=-3:-3 / no-sao / no-sao-non-deblock / rd=4 / no-early-skip / rskip / no-fast-intra / no-tskip-fast / no-cu-lossless / no-b-intra / no-splitrd-skip / rdpenalty=0 / psy-rd=2.00 / psy-rdoq=1.00 / no-rd-refine / no-lossless / cbqpoffs=0 / crqpoffs=0 / rc=crf / crf=17.0 / qcomp=0.60 / qpstep=4 / stats-write=0 / stats-read=0 / vbv-maxrate=160000 / vbv-bufsize=160000 / vbv-init=0.9 / crf-max=0.0 / crf-min=0.0 / ipratio=1.40 / pbratio=1.30 / aq-mode=1 / aq-strength=1.00 / cutree / zone-count=0 / no-strict-cbr / qg-size=32 / no-rc-grain / qpmax=69 / qpmin=0 / no-const-vbv / sar=1 / overscan=0 / videoformat=5 / range=0 / colorprim=9 / transfer=16 / colormatrix=9 / chromaloc=1 / chromaloc-top=2 / chromaloc-bottom=2 / display-window=0 / master-display=G(13250,34500)B(7500,3000)R(34000,16000)WP(15635,16450)L(10000000,50) / max-cll=1000,389 / min-luma=0 / max-luma=1023 / log2-max-poc-lsb=8 / vui-timing-info / vui-hrd-info / slices=1 / opt-qp-pps / opt-ref-list-length-pps / no-multi-pass-opt-rps / scenecut-bias=0.05 / no-opt-cu-delta-qp / no-aq-motion / hdr / hdr-opt / no-dhdr10-opt / no-idr-recovery-sei / analysis-reuse-level=5 / scale-factor=0 / refine-intra=0 / refine-inter=0 / refine-mv=0 / no-limit-sao / ctu-info=0 / no-lowpass-dct / refine-mv-type=0 / copy-pic=1 / max-ausize-factor=1.0 / no-dynamic-refine / no-single-sei
Default : Yes
Forced : No
Color range : Limited
Color primaries : BT.2020
Transfer characteristics : PQ
Matrix coefficients : BT.2020 non-constant
Statistics Tags Issue : no_variable_data 1970-01-01 00:00:00 / no_variable_data 2010-02-22 21:41:29
FromStats_BitRate : 24979360
FromStats_Duration : 02:15:06.975000000
FromStats_FrameCount : 194373
FromStats_StreamSize : 25313380952
Mastering display color primaries : Display P3
Mastering display luminance : min: 0.0050 cd/m2, max: 1000 cd/m2
Maximum Content Light Level : 1000 cd/m2
Maximum Frame-Average Light Level : 389 cd/m2

Audio #1
ID : 2
Format : TrueHD
Codec ID : A_TRUEHD
Duration : 2 h 15 min
Bit rate mode : Variable
Maximum bit rate : 4 845 kb/s
Channel(s) : 6 channels
Channel positions : Front: L C R, Side: L R, LFE
Sampling rate : 48.0 kHz
Frame rate : 1 200.000 FPS (40 SPF)
Compression mode : Lossless
Title : TrueHD 5.1
Language : English
Default : Yes
Forced : No
Statistics Tags Issue : no_variable_data 1970-01-01 00:00:00 / no_variable_data 2010-02-22 21:41:29
FromStats_BitRate : 3486285
FromStats_Duration : 02:15:06.974000000
FromStats_FrameCount : 9728369
FromStats_StreamSize : 3532902864

Audio #2
ID : 3
Format : AC-3
Format/Info : Audio Coding 3
Codec ID : A_AC3
Duration : 2 h 15 min
Bit rate mode : Constant
Bit rate : 640 kb/s
Channel(s) : 6 channels
Channel positions : Front: L C R, Side: L R, LFE
Sampling rate : 48.0 kHz
Frame rate : 31.250 FPS (1536 SPF)
Bit depth : 16 bits
Compression mode : Lossy
Stream size : 619 MiB (2%)
Title : AC-3 5.1
Language : English
Service kind : Complete Main
Default : No
Forced : No
Statistics Tags Issue : no_variable_data 1970-01-01 00:00:00 / no_variable_data 2010-02-22 21:41:29
FromStats_BitRate : 640000
FromStats_Duration : 02:15:06.976000000
FromStats_FrameCount : 253343
FromStats_StreamSize : 648558080

Audio #3
ID : 4
Format : AC-3
Format/Info : Audio Coding 3
Codec ID : A_AC3
Duration : 2 h 15 min
Bit rate mode : Constant
Bit rate : 192 kb/s
Channel(s) : 2 channels
Channel positions : Front: L R
Sampling rate : 48.0 kHz
Frame rate : 31.250 FPS (1536 SPF)
Bit depth : 16 bits
Compression mode : Lossy
Stream size : 186 MiB (1%)
Title : Commentary with director John McTiernan
Language : English
Service kind : Complete Main
Default : No
Forced : No
Statistics Tags Issue : no_variable_data 1970-01-01 00:00:00 / no_variable_data 2010-02-22 21:41:29
FromStats_BitRate : 192000
FromStats_Duration : 02:15:06.976000000
FromStats_FrameCount : 253343
FromStats_StreamSize : 194567424

Text #1
ID : 5
Format : UTF-8
Codec ID : S_TEXT/UTF8
Codec ID/Info : UTF-8 Plain Text
Title : Forced SRT
Language : English
Default : Yes
Forced : Yes
Statistics Tags Issue : no_variable_data 1970-01-01 00:00:00 / no_variable_data 2010-02-22 21:41:29
FromStats_BitRate : 0
FromStats_Duration : 02:04:00.725000000
FromStats_FrameCount : 26
FromStats_StreamSize : 715

Text #2
ID : 6
Format : PGS
Muxing mode : zlib
Codec ID : S_HDMV/PGS
Codec ID/Info : Picture based subtitle format used on BDs/HD-DVDs
Title : Forced
Language : English
Default : No
Forced : No
Statistics Tags Issue : no_variable_data 1970-01-01 00:00:00 / no_variable_data 2010-02-22 21:41:29
FromStats_BitRate : 542
FromStats_Duration : 02:04:00.725000000
FromStats_FrameCount : 52
FromStats_StreamSize : 504868

Text #3
ID : 7
Format : UTF-8
Codec ID : S_TEXT/UTF8
Codec ID/Info : UTF-8 Plain Text
Title : Stripped SRT
Language : English
Default : No
Forced : No
Statistics Tags Issue : no_variable_data 1970-01-01 00:00:00 / no_variable_data 2010-02-22 21:41:29
FromStats_BitRate : 63
FromStats_Duration : 02:09:56.455000000
FromStats_FrameCount : 1544
FromStats_StreamSize : 62122

Text #4
ID : 8
Format : UTF-8
Codec ID : S_TEXT/UTF8
Codec ID/Info : UTF-8 Plain Text
Title : Full SRT
Language : English
Default : No
Forced : No
Statistics Tags Issue : no_variable_data 1970-01-01 00:00:00 / no_variable_data 2010-02-22 21:41:29
FromStats_BitRate : 63
FromStats_Duration : 02:09:56.455000000
FromStats_FrameCount : 1529
FromStats_StreamSize : 62126

Text #5
ID : 9
Format : PGS
Muxing mode : zlib
Codec ID : S_HDMV/PGS
Codec ID/Info : Picture based subtitle format used on BDs/HD-DVDs
Title : Full
Language : English
Default : No
Forced : No
Statistics Tags Issue : no_variable_data 1970-01-01 00:00:00 / no_variable_data 2010-02-22 21:41:29
FromStats_BitRate : 37834
FromStats_Duration : 02:09:56.456000000
FromStats_FrameCount : 3060
FromStats_StreamSize : 36872249

Text #6
ID : 10
Format : UTF-8
Codec ID : S_TEXT/UTF8
Codec ID/Info : UTF-8 Plain Text
Title : SDH SRT
Language : English
Default : No
Forced : No
Statistics Tags Issue : no_variable_data 1970-01-01 00:00:00 / no_variable_data 2010-02-22 21:41:29
FromStats_BitRate : 66
FromStats_Duration : 02:09:57.540000000
FromStats_FrameCount : 1619
FromStats_StreamSize : 64638

Text #7
ID : 11
Format : PGS
Muxing mode : zlib
Codec ID : S_HDMV/PGS
Codec ID/Info : Picture based subtitle format used on BDs/HD-DVDs
Title : SDH
Language : English
Default : No
Forced : No
Statistics Tags Issue : no_variable_data 1970-01-01 00:00:00 / no_variable_data 2010-02-22 21:41:29
FromStats_BitRate : 39984
FromStats_Duration : 02:09:57.540000000
FromStats_FrameCount : 3240
FromStats_StreamSize : 38972207

Text #8
ID : 12
Format : PGS
Muxing mode : zlib
Codec ID : S_HDMV/PGS
Codec ID/Info : Picture based subtitle format used on BDs/HD-DVDs
Title : Commentary with director John McTiernan
Language : English
Default : No
Forced : No
Statistics Tags Issue : no_variable_data 1970-01-01 00:00:00 / no_variable_data 2010-02-22 21:41:29
FromStats_BitRate : 23047
FromStats_Duration : 02:11:34.637000000
FromStats_FrameCount : 1527
FromStats_StreamSize : 22743680

Text #9
ID : 13
Format : PGS
Muxing mode : zlib
Codec ID : S_HDMV/PGS
Codec ID/Info : Picture based subtitle format used on BDs/HD-DVDs
Language : French
Default : No
Forced : No
Statistics Tags Issue : no_variable_data 1970-01-01 00:00:00 / no_variable_data 2010-02-22 21:41:29
FromStats_BitRate : 31926
FromStats_Duration : 02:14:45.036000000
FromStats_FrameCount : 2911
FromStats_StreamSize : 32265943

Text #10
ID : 14
Format : PGS
Muxing mode : zlib
Codec ID : S_HDMV/PGS
Codec ID/Info : Picture based subtitle format used on BDs/HD-DVDs
Title : Commentary with director John McTiernan
Language : French
Default : No
Forced : No
Statistics Tags Issue : no_variable_data 1970-01-01 00:00:00 / no_variable_data 2010-02-22 21:41:29
FromStats_BitRate : 21265
FromStats_Duration : 02:14:53.044000000
FromStats_FrameCount : 1543
FromStats_StreamSize : 21512476

Text #11
ID : 15
Format : PGS
Muxing mode : zlib
Codec ID : S_HDMV/PGS
Codec ID/Info : Picture based subtitle format used on BDs/HD-DVDs
Title : EU
Language : Spanish
Default : No
Forced : No
Statistics Tags Issue : no_variable_data 1970-01-01 00:00:00 / no_variable_data 2010-02-22 21:41:29
FromStats_BitRate : 28839
FromStats_Duration : 02:14:45.077000000
FromStats_FrameCount : 2208
FromStats_StreamSize : 29146687

Text #12
ID : 16
Format : PGS
Muxing mode : zlib
Codec ID : S_HDMV/PGS
Codec ID/Info : Picture based subtitle format used on BDs/HD-DVDs
Title : Commentary with director John McTiernan (EU)
Language : Spanish
Default : No
Forced : No
Statistics Tags Issue : no_variable_data 1970-01-01 00:00:00 / no_variable_data 2010-02-22 21:41:29
FromStats_BitRate : 20089
FromStats_Duration : 02:14:53.044000000
FromStats_FrameCount : 1522
FromStats_StreamSize : 20322931

Text #13
ID : 17
Format : PGS
Muxing mode : zlib
Codec ID : S_HDMV/PGS
Codec ID/Info : Picture based subtitle format used on BDs/HD-DVDs
Title : LA
Language : Spanish
Default : No
Forced : No
Statistics Tags Issue : no_variable_data 1970-01-01 00:00:00 / no_variable_data 2010-02-22 21:41:29
FromStats_BitRate : 30005
FromStats_Duration : 02:14:45.036000000
FromStats_FrameCount : 2936
FromStats_StreamSize : 30324536

Text #14
ID : 18
Format : PGS
Muxing mode : zlib
Codec ID : S_HDMV/PGS
Codec ID/Info : Picture based subtitle format used on BDs/HD-DVDs
Title : Commentary with director John McTiernan (LA)
Language : Spanish
Default : No
Forced : No
Statistics Tags Issue : no_variable_data 1970-01-01 00:00:00 / no_variable_data 2010-02-22 21:41:29
FromStats_BitRate : 22628
FromStats_Duration : 02:14:53.044000000
FromStats_FrameCount : 1655
FromStats_StreamSize : 22891428

Text #15
ID : 19
Format : PGS
Muxing mode : zlib
Codec ID : S_HDMV/PGS
Codec ID/Info : Picture based subtitle format used on BDs/HD-DVDs
Title : EU
Language : Portuguese
Default : No
Forced : No
Statistics Tags Issue : no_variable_data 1970-01-01 00:00:00 / no_variable_data 2010-02-22 21:41:29
FromStats_BitRate : 39983
FromStats_Duration : 02:14:45.077000000
FromStats_FrameCount : 3148
FromStats_StreamSize : 40409036

Text #16
ID : 20
Format : PGS
Muxing mode : zlib
Codec ID : S_HDMV/PGS
Codec ID/Info : Picture based subtitle format used on BDs/HD-DVDs
Title : BR
Language : Portuguese
Default : No
Forced : No
Statistics Tags Issue : no_variable_data 1970-01-01 00:00:00 / no_variable_data 2010-02-22 21:41:29
FromStats_BitRate : 32938
FromStats_Duration : 02:14:45.077000000
FromStats_FrameCount : 3016
FromStats_StreamSize : 33288611

Text #17
ID : 21
Format : PGS
Muxing mode : zlib
Codec ID : S_HDMV/PGS
Codec ID/Info : Picture based subtitle format used on BDs/HD-DVDs
Title : Commentary with director John McTiernan (BR)
Language : Portuguese
Default : No
Forced : No
Statistics Tags Issue : no_variable_data 1970-01-01 00:00:00 / no_variable_data 2010-02-22 21:41:29
FromStats_BitRate : 20630
FromStats_Duration : 02:14:53.044000000
FromStats_FrameCount : 1655
FromStats_StreamSize : 20869962

Text #18
ID : 22
Format : PGS
Muxing mode : zlib
Codec ID : S_HDMV/PGS
Codec ID/Info : Picture based subtitle format used on BDs/HD-DVDs
Language : Italian
Default : No
Forced : No
Statistics Tags Issue : no_variable_data 1970-01-01 00:00:00 / no_variable_data 2010-02-22 21:41:29
FromStats_BitRate : 29538
FromStats_Duration : 02:14:45.077000000
FromStats_FrameCount : 2304
FromStats_StreamSize : 29852910

Text #19
ID : 23
Format : PGS
Muxing mode : zlib
Codec ID : S_HDMV/PGS
Codec ID/Info : Picture based subtitle format used on BDs/HD-DVDs
Title : Commentary with director John McTiernan
Language : Italian
Default : No
Forced : No
Statistics Tags Issue : no_variable_data 1970-01-01 00:00:00 / no_variable_data 2010-02-22 21:41:29
FromStats_BitRate : 20632
FromStats_Duration : 02:14:53.044000000
FromStats_FrameCount : 1524
FromStats_StreamSize : 20872374

Text #20
ID : 24
Format : PGS
Muxing mode : zlib
Codec ID : S_HDMV/PGS
Codec ID/Info : Picture based subtitle format used on BDs/HD-DVDs
Language : German
Default : No
Forced : No
Statistics Tags Issue : no_variable_data 1970-01-01 00:00:00 / no_variable_data 2010-02-22 21:41:29
FromStats_BitRate : 28406
FromStats_Duration : 02:14:45.036000000
FromStats_FrameCount : 2192
FromStats_StreamSize : 28708816

Text #21
ID : 25
Format : PGS
Muxing mode : zlib
Codec ID : S_HDMV/PGS
Codec ID/Info : Picture based subtitle format used on BDs/HD-DVDs
Title : Commentary with director John McTiernan
Language : German
Default : No
Forced : No
Statistics Tags Issue : no_variable_data 1970-01-01 00:00:00 / no_variable_data 2010-02-22 21:41:29
FromStats_BitRate : 21924
FromStats_Duration : 02:14:53.044000000
FromStats_FrameCount : 1524
FromStats_StreamSize : 22179289

Text #22
ID : 26
Format : PGS
Muxing mode : zlib
Codec ID : S_HDMV/PGS
Codec ID/Info : Picture based subtitle format used on BDs/HD-DVDs
Language : Dutch
Default : No
Forced : No
Statistics Tags Issue : no_variable_data 1970-01-01 00:00:00 / no_variable_data 2010-02-22 21:41:29
FromStats_BitRate : 23568
FromStats_Duration : 02:14:45.077000000
FromStats_FrameCount : 2144
FromStats_StreamSize : 23819004

Text #23
ID : 27
Format : PGS
Muxing mode : zlib
Codec ID : S_HDMV/PGS
Codec ID/Info : Picture based subtitle format used on BDs/HD-DVDs
Language : Swedish
Default : No
Forced : No
Statistics Tags Issue : no_variable_data 1970-01-01 00:00:00 / no_variable_data 2010-02-22 21:41:29
FromStats_BitRate : 24329
FromStats_Duration : 02:14:44.994000000
FromStats_FrameCount : 2146
FromStats_StreamSize : 24588189

Text #24
ID : 28
Format : PGS
Muxing mode : zlib
Codec ID : S_HDMV/PGS
Codec ID/Info : Picture based subtitle format used on BDs/HD-DVDs
Language : Norwegian
Default : No
Forced : No
Statistics Tags Issue : no_variable_data 1970-01-01 00:00:00 / no_variable_data 2010-02-22 21:41:29
FromStats_BitRate : 21998
FromStats_Duration : 02:14:45.036000000
FromStats_FrameCount : 2162
FromStats_StreamSize : 22232395

Text #25
ID : 29
Format : PGS
Muxing mode : zlib
Codec ID : S_HDMV/PGS
Codec ID/Info : Picture based subtitle format used on BDs/HD-DVDs
Language : Danish
Default : No
Forced : No
Statistics Tags Issue : no_variable_data 1970-01-01 00:00:00 / no_variable_data 2010-02-22 21:41:29
FromStats_BitRate : 27338
FromStats_Duration : 02:14:45.036000000
FromStats_FrameCount : 2210
FromStats_StreamSize : 27628954

Text #26
ID : 30
Format : PGS
Muxing mode : zlib
Codec ID : S_HDMV/PGS
Codec ID/Info : Picture based subtitle format used on BDs/HD-DVDs
Language : Finnish
Default : No
Forced : No
Statistics Tags Issue : no_variable_data 1970-01-01 00:00:00 / no_variable_data 2010-02-22 21:41:29
FromStats_BitRate : 28612
FromStats_Duration : 02:14:45.036000000
FromStats_FrameCount : 2196
FromStats_StreamSize : 28916560

Text #27
ID : 31
Format : PGS
Muxing mode : zlib
Codec ID : S_HDMV/PGS
Codec ID/Info : Picture based subtitle format used on BDs/HD-DVDs
Language : Icelandic
Default : No
Forced : No
Statistics Tags Issue : no_variable_data 1970-01-01 00:00:00 / no_variable_data 2010-02-22 21:41:29
FromStats_BitRate : 41961
FromStats_Duration : 02:14:45.077000000
FromStats_FrameCount : 3192
FromStats_StreamSize : 42407588

Text #28
ID : 32
Format : PGS
Muxing mode : zlib
Codec ID : S_HDMV/PGS
Codec ID/Info : Picture based subtitle format used on BDs/HD-DVDs
Language : Czech
Default : No
Forced : No
Statistics Tags Issue : no_variable_data 1970-01-01 00:00:00 / no_variable_data 2010-02-22 21:41:29
FromStats_BitRate : 38789
FromStats_Duration : 02:14:45.077000000
FromStats_FrameCount : 3190
FromStats_StreamSize : 39201695

Text #29
ID : 33
Format : PGS
Muxing mode : zlib
Codec ID : S_HDMV/PGS
Codec ID/Info : Picture based subtitle format used on BDs/HD-DVDs
Language : Slovak
Default : No
Forced : No
Statistics Tags Issue : no_variable_data 1970-01-01 00:00:00 / no_variable_data 2010-02-22 21:41:29
FromStats_BitRate : 38563
FromStats_Duration : 02:14:45.077000000
FromStats_FrameCount : 3190
FromStats_StreamSize : 38973554

Text #30
ID : 34
Format : PGS
Muxing mode : zlib
Codec ID : S_HDMV/PGS
Codec ID/Info : Picture based subtitle format used on BDs/HD-DVDs
Language : Arabic
Default : No
Forced : No
Statistics Tags Issue : no_variable_data 1970-01-01 00:00:00 / no_variable_data 2010-02-22 21:41:29
FromStats_BitRate : 23283
FromStats_Duration : 02:14:45.077000000
FromStats_FrameCount : 3110
FromStats_StreamSize : 23531169

Text #31
ID : 35
Format : PGS
Muxing mode : zlib
Codec ID : S_HDMV/PGS
Codec ID/Info : Picture based subtitle format used on BDs/HD-DVDs
Language : Japanese
Default : No
Forced : No
Statistics Tags Issue : no_variable_data 1970-01-01 00:00:00 / no_variable_data 2010-02-22 21:41:29
FromStats_BitRate : 23898
FromStats_Duration : 02:10:57.182000000
FromStats_FrameCount : 2938
FromStats_StreamSize : 23471814

Text #32
ID : 36
Format : PGS
Muxing mode : zlib
Codec ID : S_HDMV/PGS
Codec ID/Info : Picture based subtitle format used on BDs/HD-DVDs
Language : Japanese
Default : No
Forced : No
Statistics Tags Issue : no_variable_data 1970-01-01 00:00:00 / no_variable_data 2010-02-22 21:41:29
FromStats_BitRate : 20510
FromStats_Duration : 02:11:34.470000000
FromStats_FrameCount : 1922
FromStats_StreamSize : 20240225

Text #33
ID : 37
Format : PGS
Muxing mode : zlib
Codec ID : S_HDMV/PGS
Codec ID/Info : Picture based subtitle format used on BDs/HD-DVDs
Title : Cantonese
Language : Chinese
Default : No
Forced : No
Statistics Tags Issue : no_variable_data 1970-01-01 00:00:00 / no_variable_data 2010-02-22 21:41:29
FromStats_BitRate : 33973
FromStats_Duration : 02:14:45.077000000
FromStats_FrameCount : 3114
FromStats_StreamSize : 34335114

Text #34
ID : 38
Format : PGS
Muxing mode : zlib
Codec ID : S_HDMV/PGS
Codec ID/Info : Picture based subtitle format used on BDs/HD-DVDs
Title : Mandarin Traditional
Language : Chinese
Default : No
Forced : No
Statistics Tags Issue : no_variable_data 1970-01-01 00:00:00 / no_variable_data 2010-02-22 21:41:29
FromStats_BitRate : 29959
FromStats_Duration : 02:14:45.077000000
FromStats_FrameCount : 3070
FromStats_StreamSize : 30278437

Text #35
ID : 39
Format : PGS
Muxing mode : zlib
Codec ID : S_HDMV/PGS
Codec ID/Info : Picture based subtitle format used on BDs/HD-DVDs
Language : Korean
Default : No
Forced : No
Statistics Tags Issue : no_variable_data 1970-01-01 00:00:00 / no_variable_data 2010-02-22 21:41:29
FromStats_BitRate : 29240
FromStats_Duration : 02:14:45.077000000
FromStats_FrameCount : 3176
FromStats_StreamSize : 29551882

Text #36
ID : 40
Format : PGS
Muxing mode : zlib
Codec ID : S_HDMV/PGS
Codec ID/Info : Picture based subtitle format used on BDs/HD-DVDs
Title : Commentary with director John McTiernan
Language : Korean
Default : No
Forced : No
Statistics Tags Issue : no_variable_data 1970-01-01 00:00:00 / no_variable_data 2010-02-22 21:41:29
FromStats_BitRate : 17438
FromStats_Duration : 02:11:34.595000000
FromStats_FrameCount : 1817
FromStats_StreamSize : 17208596

Text #37
ID : 41
Format : PGS
Muxing mode : zlib
Codec ID : S_HDMV/PGS
Codec ID/Info : Picture based subtitle format used on BDs/HD-DVDs
Language : Thai
Default : No
Forced : No
Statistics Tags Issue : no_variable_data 1970-01-01 00:00:00 / no_variable_data 2010-02-22 21:41:29
FromStats_BitRate : 29476
FromStats_Duration : 02:14:45.077000000
FromStats_FrameCount : 3032
FromStats_StreamSize : 29790273

Menu
00:00:00.000 : en:00:00:00.000
00:13:11.958 : en:00:13:11.958
00:19:34.757 : en:00:19:34.757
00:33:25.503 : en:00:33:25.503
00:43:05.416 : en:00:43:05.416
00:51:46.061 : en:00:51:46.061
01:05:24.546 : en:01:05:24.546
01:11:13.978 : en:01:11:13.978
01:25:02.806 : en:01:25:02.806
01:36:50.930 : en:01:36:50.930
01:47:50.756 : en:01:47:50.756
01:55:17.744 : en:01:55:17.744
02:07:58.713 : en:02:07:58.713

Download

download 4k hdr movies download 4k hdr movies

Watch a movie trailer - The Hunt for Red October 4K 1990 Ultra HD 2160p
Comments and Feedback
Add your comment:
Your name:
Your E-Mail:
Code:
reload, if the code cannot be seen
Enter code: